osu file format v14

[General]
AudioFilename: tokyo.mp3
AudioLeadIn: 0
PreviewTime: 56150
Countdown: 0
SampleSet: Soft
StackLeniency: 0.7
Mode: 0
LetterboxInBreaks: 0
WidescreenStoryboard: 1

[Editor]
DistanceSpacing: 0.7
BeatDivisor: 4
GridSize: 32
TimelineZoom: 1

[Metadata]
Title:HALF
TitleUnicode:HALF
Artist:Ziyoou-vachi
ArtistUnicode:女王蜂
Creator:zhu
Version:Hailie's Insane
Source:東京喰種トーキョーグール:re
Tags:コシュニエ sui ishida tokyo ghoul re ending size theme haise sasaki kaneki ken -_frontier_- shockolatte peter hailie ayyri eiri-
BeatmapID:1614271
BeatmapSetID:767347

[Difficulty]
HPDrainRate:6
CircleSize:4
OverallDifficulty:7.5
ApproachRate:8
SliderMultiplier:2.2
SliderTickRate:1

[Events]
//Background and Video events
0,0,"bg.jpg",0,0
Video,3600,"video.avi"
//Break Periods
//Storyboard Layer 0 (Background)
//Storyboard Layer 1 (Fail)
//Storyboard Layer 2 (Pass)
//Storyboard Layer 3 (Foreground)
//Storyboard Sound Samples

[TimingPoints]
4641,566.037735849057,4,2,0,40,1,0
6480,-100,4,2,0,5,0,0
6905,-100,4,2,0,60,0,0
18225,-111.111111111111,4,2,0,60,0,0
56716,-76.9230769230769,4,2,0,70,0,1
64357,-125,4,2,0,70,0,1
64641,-200,4,2,0,50,0,1
65631,-76.9230769230769,4,2,0,50,0,1
65773,-76.9230769230769,4,2,0,70,0,1
74829,-90.9090909090909,4,2,0,60,0,0
83886,-100,4,2,0,60,0,0
92801,-100,4,2,0,5,0,0

[Colours]
Combo1 : 192,192,192
Combo2 : 128,64,64
SliderBorder : 255,255,255
SliderTrackOverride : 0,0,0

[HitObjects]
256,192,4641,12,0,6763,0:0:0:0:
256,192,6905,5,2,0:0:0:0:
463,47,7471,1,4,0:3:0:0:
256,192,8037,1,2,0:0:0:0:
463,47,8603,1,4,0:3:0:0:
463,47,9169,6,0,L|295:85,1,165,4|0,0:0|0:0,0:0:0:0:
200,40,9735,1,4,0:3:0:0:
338,150,10018,2,0,L|331:24,1,110,2|0,0:0|0:0,0:0:0:0:
426,170,10584,1,2,0:0:0:0:
331,40,10867,1,4,0:3:0:0:
449,201,11150,2,0,B|389:198|389:198|319:235,1,110,2|0,0:0|0:0,0:0:0:0:
403,372,11716,1,2,0:0:0:0:
344,221,11999,1,4,0:3:0:0:
191,359,12282,2,0,B|204:286|154:273|179:175,1,165,2|0,0:0|0:0,0:0:0:0:
112,98,12848,2,0,L|99:175,1,55,2|0,0:0|0:0,0:0:0:0:
271,99,13131,2,0,P|202:116|110:97,1,165,4|0,0:3|0:0,0:0:0:0:
195,22,13697,6,0,L|391:22,1,165,2|0,0:0|0:0,0:0:0:0:
492,6,14263,1,4,0:3:0:0:
358,128,14546,2,0,P|348:92|371:3,1,110,2|0,0:0|0:0,0:0:0:0:
370,205,15112,1,2,0:0:0:0:
512,147,15395,1,4,0:3:0:0:
346,227,15678,2,0,B|354:173|354:173|322:109,1,110,0|2,0:0|0:0,0:0:0:0:
271,257,16244,2,0,L|281:333,1,55,2|0,0:0|0:0,0:0:0:0:
387,202,16527,2,0,L|383:137,1,55,4|0,0:3|0:0,0:0:0:0:
482,34,16810,2,0,B|375:20|443:62|293:50,1,165,2|0,0:0|0:0,0:0:0:0:
201,29,17376,2,0,B|211:67|211:67|188:93|201:156,1,110,2|4,0:0|0:3,0:0:0:0:
57,308,17942,2,0,L|44:243,1,55,8|0,0:3|0:0,0:0:0:0:
147,356,18225,1,0,0:0:0:0:
243,245,18508,6,0,L|221:315,1,49.4999984893799,2|0,0:0|0:0,0:0:0:0:
290,263,18791,2,0,L|320:122,1,98.9999969787599,4|0,0:3|0:0,0:0:0:0:
212,67,19357,1,0,0:0:0:0:
290,263,19641,2,0,L|218:235,1,49.4999984893799,2|0,0:0|0:0,0:0:0:0:
115,158,19924,2,0,P|105:203|56:230,1,98.9999969787599,4|2,0:3|0:0,0:0:0:0:
162,88,20490,2,0,L|233:88,1,49.4999984893799
313,133,20773,2,0,L|214:132,1,98.9999969787599,2|4,0:0|0:3,0:0:0:0:
407,53,21339,2,0,B|356:62|356:62|293:47,1,98.9999969787599,2|0,0:0|0:0,0:0:0:0:
467,130,21905,2,0,P|461:82|474:12,1,98.9999969787599,2|4,0:0|0:3,0:0:0:0:
481,219,22471,1,2,0:0:0:0:
467,32,22754,1,0,0:0:0:0:
481,219,23037,6,0,L|483:294,1,49.4999984893799,2|0,0:0|0:0,0:0:0:0:
431,209,23320,2,0,L|427:88,1,98.9999969787599,4|0,0:3|0:0,0:0:0:0:
313,0,23886,1,0,0:0:0:0:
247,129,24169,2,0,P|207:134|186:129,1,49.4999984893799,2|0,0:0|0:0,0:0:0:0:
45,101,24452,2,0,P|19:138|40:216,1,98.9999969787599,4|0,0:3|0:0,0:0:0:0:
135,74,25018,1,0,0:0:0:0:
236,214,25301,2,0,L|152:211,1,49.4999984893799,2|0,0:0|0:0,0:0:0:0:
293,300,25584,2,0,L|401:305,1,98.9999969787599,4|0,0:3|0:0,0:0:0:0:
198,350,26150,1,0,0:0:0:0:
236,214,26433,1,2,0:0:0:0:
119,135,26716,2,0,L|121:226,1,49.4999984893799,4|0,0:3|0:0,0:0:0:0:
26,276,26999,2,0,L|25:203,1,49.4999984893799,2|0,0:0|0:0,0:0:0:0:
17,94,27282,1,0,0:0:0:0:
26,276,27565,6,0,L|95:272,1,49.4999984893799,2|0,0:0|0:0,0:0:0:0:
154,306,27848,2,0,L|100:305,2,49.4999984893799,4|0|0,0:3|0:0|0:0,0:0:0:0:
300,351,28414,1,0,0:0:0:0:
120,273,28697,1,2,0:0:0:0:
245,138,28980,2,0,L|244:217,1,49.4999984893799,4|0,0:3|0:0,0:0:0:0:
341,290,29263,2,0,L|343:202,1,49.4999984893799,0|0,0:0|0:0,0:0:0:0:
338,114,29546,1,0,0:0:0:0:
341,290,29829,2,0,P|296:277|222:308,1,98.9999969787599,0|4,0:0|0:3,0:0:0:0:
38,343,30395,2,0,P|104:278|-8:247,1,247.4999924469,2|0,0:0|0:0,0:0:0:0:
123,169,31244,2,0,B|72:184|72:184|3:172,1,98.9999969787599,4|0,0:3|0:0,0:0:0:0:
246,118,31810,1,0,0:0:0:0:
413,113,32093,6,0,L|407:187,1,49.4999984893799,2|0,0:0|0:0,0:0:0:0:
427,256,32376,2,0,P|430:222|434:183,2,49.4999984893799,4|0|0,0:3|0:0|0:0,0:0:0:0:
246,118,32942,1,0,0:0:0:0:
426,258,33225,2,0,L|419:324,1,49.4999984893799,2|0,0:0|0:0,0:0:0:0:
349,222,33508,2,0,L|356:150,2,49.4999984893799,4|0|0,0:3|0:0|0:0,0:0:0:0:
190,338,34074,1,0,0:0:0:0:
47,240,34357,2,0,L|126:247,1,49.4999984893799,2|0,0:0|0:0,0:0:0:0:
45,192,34641,2,0,L|-8:190,2,49.4999984893799,4|0|0,0:3|0:0|0:0,0:0:0:0:
261,104,35207,1,0,0:0:0:0:
45,192,35490,1,2,0:0:0:0:
252,297,35773,1,4,0:3:0:0:
45,192,36056,1,2,0:0:0:0:
261,104,36339,6,0,P|261:66|186:67,1,98.9999969787599,2|0,0:0|0:0,0:0:0:0:
135,38,36763,1,0,0:0:0:0:
261,104,36905,2,0,L|364:104,1,98.9999969787599,4|0,0:3|0:0,0:0:0:0:
209,203,37471,1,2,0:0:0:0:
231,228,37612,1,0,0:0:0:0:
134,311,37754,2,0,L|136:242,1,49.4999984893799,2|0,0:0|0:0,0:0:0:0:
51,199,38037,2,0,L|19:249,1,49.4999984893799,4|0,0:3|0:0,0:0:0:0:
100,115,38320,2,0,P|130:139|188:106,1,98.9999969787599,2|0,0:0|0:0,0:0:0:0:
134,311,38886,5,2,0:0:0:0:
149,273,39027,1,0,0:0:0:0:
232,295,39169,2,0,L|244:343,1,49.4999984893799,4|0,0:3|0:0,0:0:0:0:
359,287,39452,2,0,L|331:247,1,49.4999984893799,2|0,0:0|0:0,0:0:0:0:
395,185,39735,1,2,0:0:0:0:
448,200,39876,1,0,0:0:0:0:
445,88,40018,2,0,L|384:104,1,49.4999984893799,2|0,0:0|0:0,0:0:0:0:
320,67,40301,2,0,L|332:8,1,49.4999984893799,4|0,0:3|0:0,0:0:0:0:
218,39,40584,1,2,0:0:0:0:
233,69,40725,1,0,0:0:0:0:
139,139,40867,6,0,P|89:158|41:138,1,98.9999969787599,2|0,0:0|0:0,0:0:0:0:
26,100,41291,1,0,0:0:0:0:
137,188,41433,2,0,L|140:113,1,49.4999984893799,4|0,0:3|0:0,0:0:0:0:
210,220,41716,2,0,L|211:293,1,49.4999984893799,2|0,0:0|0:0,0:0:0:0:
310,325,41999,1,2,0:0:0:0:
300,283,42141,1,0,0:0:0:0:
382,200,42282,2,0,L|406:278,1,49.4999984893799,2|0,0:0|0:0,0:0:0:0:
437,125,42565,2,0,P|402:110|377:82,1,49.4999984893799,4|0,0:3|0:0,0:0:0:0:
288,35,42848,1,2,0:0:0:0:
82,63,43131,2,0,P|102:106|75:151,1,98.9999969787599,2|0,0:0|0:0,0:0:0:0:
26,300,43697,2,0,L|23:227,1,49.4999984893799,4|0,0:3|0:0,0:0:0:0:
106,347,43980,2,0,B|209:378|209:313|307:329,1,197.99999395752,2|2,0:0|0:0,0:0:0:0:
446,328,44829,2,0,L|366:283,1,49.4999984893799,4|0,0:3|0:0,0:0:0:0:
413,157,45112,2,0,L|434:219,1,49.4999984893799,2|0,0:0|0:0,0:0:0:0:
465,61,45395,1,0,0:0:0:0:
278,64,45678,6,0,L|351:68,1,49.4999984893799,2|0,0:0|0:0,0:0:0:0:
198,100,45961,2,0,L|261:99,2,49.4999984893799,4|0|2,0:3|0:0|0:0,0:0:0:0:
41,144,46527,1,2,0:0:0:0:
31,86,46669,1,0,0:0:0:0:
24,200,46810,2,0,L|17:275,1,49.4999984893799,2|0,0:0|0:0,0:0:0:0:
118,142,47093,2,0,L|113:79,2,49.4999984893799,4|0|2,0:3|0:0|0:0,0:0:0:0:
61,262,47659,1,0,0:0:0:0:
288,253,47942,1,2,0:0:0:0:
256,203,48084,1,0,0:0:0:0:
356,144,48225,2,0,L|276:141,1,49.4999984893799,4|0,0:3|0:0,0:0:0:0:
293,30,48508,2,0,L|355:15,1,49.4999984893799,2|0,0:0|0:0,0:0:0:0:
443,59,48791,1,2,0:0:0:0:
489,67,48933,1,0,0:0:0:0:
392,161,49074,2,0,L|449:209,1,49.4999984893799,2|0,0:0|0:0,0:0:0:0:
374,340,49357,2,0,L|350:267,1,49.4999984893799,4|0,0:3|0:0,0:0:0:0:
356,144,49641,1,2,0:0:0:0:
212,236,49924,6,0,P|184:240|154:236,1,49.4999984893799,2|0,0:0|0:0,0:0:0:0:
240,150,50207,1,2,0:0:0:0:
288,187,50348,1,0,0:0:0:0:
218,285,50490,2,0,L|212:236,1,49.4999984893799,4|0,0:3|0:0,0:0:0:0:
119,130,50773,2,0,P|121:168|118:198,1,49.4999984893799,2|0,0:0|0:0,0:0:0:0:
31,103,51056,1,2,0:0:0:0:
59,52,51197,1,0,0:0:0:0:
158,71,51339,2,0,L|146:149,1,49.4999984893799,2|0,0:0|0:0,0:0:0:0:
271,152,51622,2,0,L|262:73,1,49.4999984893799,4|0,0:3|0:0,0:0:0:0:
313,233,51905,1,0,0:0:0:0:
273,25,52188,1,0,0:0:0:0:
325,262,52471,2,0,P|316:204|329:158,1,98.9999969787599,2|4,0:0|0:3,0:0:0:0:
414,10,53037,2,0,P|428:63|426:139,1,98.9999969787599,2|0,0:0|0:0,0:0:0:0:
330,311,53603,2,0,L|321:229,1,49.4999984893799,2|0,0:0|0:0,0:0:0:0:
193,128,53886,2,0,L|184:268,1,98.9999969787599,4|0,0:3|0:0,0:0:0:0:
256,64,54452,6,0,L|288:128,3,49.4999984893799,4|4|4|4,0:3|0:3|0:3|0:3,0:0:0:0:
353,168,55018,6,0,L|361:99,3,49.4999984893799,4|4|4|4,0:3|0:3|0:3|0:3,0:0:0:0:
428,68,55584,6,0,L|446:119,3,49.4999984893799,4|4|4|4,0:3|0:3|0:3|0:3,0:0:0:0:
437,212,56150,5,4,0:3:0:0:
444,114,56291,1,4,0:3:0:0:
350,255,56433,5,4,0:3:0:0:
364,127,56574,1,4,0:3:0:0:
228,149,56716,6,0,P|221:83|146:59,1,142.99999345398,4|2,0:0|0:0,0:0:0:0:
280,245,57282,2,0,L|381:260,1,71.4999967269899,4|0,0:3|0:0,0:0:0:0:
171,353,57565,2,0,L|202:278,1,71.4999967269899,2|0,0:0|0:0,0:0:0:0:
226,173,57848,1,0,0:0:0:0:
307,334,58131,1,2,0:0:0:0:
264,81,58414,2,0,L|269:177,2,71.4999967269899,4|0|0,0:3|0:0|0:0,0:0:0:0:
54,217,58980,2,0,B|120:172|120:172|166:242|242:216,1,214.49999018097,2|0,0:0|0:0,0:0:0:0:
309,111,59546,1,4,0:3:0:0:
225,280,59829,2,0,P|234:219|169:156,1,142.99999345398,2|0,0:0|0:0,0:0:0:0:
290,29,60395,6,0,L|286:106,1,71.4999967269899,2|0,0:0|0:0,0:0:0:0:
225,280,60678,2,0,L|221:198,1,71.4999967269899,4|0,0:3|0:0,0:0:0:0:
185,74,60961,1,2,0:0:0:0:
257,303,61244,2,0,L|168:302,1,71.4999967269899,2|0,0:0|0:0,0:0:0:0:
333,337,61527,2,0,L|487:331,1,142.99999345398,2|4,0:0|0:3,0:0:0:0:
310,384,62093,1,2,0:0:0:0:
353,173,62376,2,0,L|363:269,1,71.4999967269899,2|0,0:0|0:0,0:0:0:0:
237,142,62659,2,0,L|224:-8,1,142.99999345398,0|4,0:0|0:3,0:0:0:0:
373,14,63225,5,2,0:0:0:0:
232,112,63508,2,0,L|333:125,1,71.4999967269899,2|0,0:0|0:0,0:0:0:0:
117,173,63791,2,0,L|23:156,1,71.4999967269899,0|0,0:0|0:0,0:0:0:0:
128,268,64074,2,0,L|217:284,1,71.4999967269899,4|0,0:3|0:0,0:0:0:0:
46,204,64357,6,0,L|46:154,1,44,0|0,0:0|0:0,0:0:0:0:
135,37,64641,1,0,0:0:0:0:
135,37,65773,6,0,P|165:105|115:135,1,142.99999345398,4|0,0:0|0:0,0:0:0:0:
320,33,66339,2,0,P|265:43|234:47,1,71.4999967269899,4|0,0:3|0:0,0:0:0:0:
146,174,66622,2,0,P|164:136|181:102,1,71.4999967269899,0|0,0:0|0:0,0:0:0:0:
154,252,66905,2,0,P|174:196|105:155,1,142.99999345398,2|2,0:0|0:0,0:0:0:0:
245,354,67471,2,0,L|225:266,1,71.4999967269899,4|0,0:3|0:0,0:0:0:0:
309,137,67754,2,0,L|292:229,1,71.4999967269899,0|0,0:0|0:0,0:0:0:0:
445,86,68037,2,0,P|368:123|271:53,1,214.49999018097,2|0,0:0|0:0,0:0:0:0:
129,23,68603,1,4,0:3:0:0:
298,183,68886,2,0,B|236:148|236:148|181:204|68:169,1,214.49999018097,2|0,0:0|0:0,0:0:0:0:
318,251,69452,6,0,P|302:208|295:159,1,71.4999967269899,2|0,0:0|0:0,0:0:0:0:
411,258,69735,2,0,P|423:290|429:347,1,71.4999967269899,4|0,0:3|0:0,0:0:0:0:
487,192,70018,1,2,0:0:0:0:
346,77,70301,2,0,P|352:147|244:161,1,142.99999345398,2|0,0:0|0:0,0:0:0:0:
178,52,70867,2,0,P|211:58|273:56,1,71.4999967269899,4|0,0:3|0:0,0:0:0:0:
131,136,71150,2,0,L|51:130,1,71.4999967269899,2|0,0:0|0:0,0:0:0:0:
178,52,71433,1,2,0:0:0:0:
183,267,71716,2,0,B|174:196|128:217|128:90,1,142.99999345398,0|4,0:0|0:3,0:0:0:0:
254,272,72282,6,0,L|162:265,1,71.4999967269899,2|0,0:0|0:0,0:0:0:0:
340,229,72565,2,0,P|348:318|433:359,1,142.99999345398,2|2,0:0|0:0,0:0:0:0:
403,178,73131,2,0,P|364:79|324:62,1,142.99999345398,4|2,0:3|0:0,0:0:0:0:
186,17,73697,2,0,P|213:67|252:97,1,71.4999967269899,2|0,0:0|0:0,0:0:0:0:
199,219,73980,2,0,L|195:119,1,71.4999967269899,0|0,0:0|0:0,0:0:0:0:
343,333,74263,2,0,B|293:305|264:348|232:329|232:329|213:362|176:363|143:354,1,214.49999018097,4|0,0:3|0:0,0:0:0:0:
12,331,74829,6,0,P|71:273|6:210,1,181.500005538941,4|0,0:0|0:0,0:0:0:0:
123,128,75395,2,0,P|54:143|-3:100,1,121.000003692627,4|2,0:3|0:0,0:0:0:0:
290,171,75961,1,2,0:0:0:0:
92,126,76244,1,2,0:0:0:0:
196,277,76527,1,4,0:3:0:0:
171,27,76810,1,2,0:0:0:0:
191,312,77093,2,0,B|176:234|209:190|209:190|172:201|144:188|144:188|170:132|158:86,1,242.000007385254,2|4,0:0|0:3,0:0:0:0:
302,12,77942,2,0,L|257:132,1,121.000003692627,2|0,0:0|0:0,0:0:0:0:
350,214,78508,6,0,P|352:177|345:127,1,60.5000018463135,2|0,0:0|0:0,0:0:0:0:
267,256,78791,2,0,P|267:296|274:341,1,60.5000018463135,4|0,0:3|0:0,0:0:0:0:
350,153,79074,1,2,0:0:0:0:
209,346,79357,2,0,B|249:331|249:331|284:354|364:346,1,121.000003692627,2|2,0:0|0:0,0:0:0:0:
480,370,79924,2,0,L|464:293,1,60.5000018463135,4|0,0:3|0:0,0:0:0:0:
483,168,80207,2,0,L|481:242,1,60.5000018463135,2|0,0:0|0:0,0:0:0:0:
442,91,80490,1,2,0:0:0:0:
390,293,80773,2,0,P|390:254|407:218,1,60.5000018463135,0|0,0:0|0:0,0:0:0:0:
237,216,81056,2,0,P|289:176|263:115,1,121.000003692627,4|2,0:3|0:0,0:0:0:0:
74,61,81622,6,0,L|176:66,1,60.5000018463135,2|0,0:0|0:0,0:0:0:0:
278,128,81905,2,0,L|184:134,1,60.5000018463135,2|0,0:0|0:0,0:0:0:0:
70,185,82188,1,4,0:3:0:0:
313,81,82471,1,0,0:0:0:0:
256,192,82754,12,0,83744,0:0:0:0:
113,273,83886,6,0,P|182:242|285:297,1,165,4|0,0:0|0:0,0:0:0:0:
374,320,84452,1,4,0:3:0:0:
211,160,84735,2,0,L|217:269,1,110,2|0,0:0|0:0,0:0:0:0:
330,197,85301,1,2,0:0:0:0:
133,145,85584,1,4,0:3:0:0:
305,10,85867,2,0,P|288:52|306:133,1,110,0|2,0:0|0:0,0:0:0:0:
445,258,86433,1,2,0:0:0:0:
295,114,86716,1,4,0:3:0:0:
466,220,86999,2,0,B|368:243|392:201|300:228,1,165,2|0,0:0|0:0,0:0:0:0:
175,327,87565,2,0,L|187:264,1,55,2|0,0:0|0:0,0:0:0:0:
214,124,87848,1,4,0:3:0:0:
470,288,88131,1,4,0:3:0:0:
423,173,88273,1,4,0:3:0:0:
356,259,88414,5,4,0:3:0:0:
256,192,88556,12,0,93084,0:0:0:0:
