osu file format v14

[General]
AudioFilename: tokyo.mp3
AudioLeadIn: 0
PreviewTime: 56150
Countdown: 0
SampleSet: Soft
StackLeniency: 0.7
Mode: 0
LetterboxInBreaks: 0
WidescreenStoryboard: 0

[Editor]
DistanceSpacing: 0.7
BeatDivisor: 4
GridSize: 32
TimelineZoom: 1

[Metadata]
Title:HALF
TitleUnicode:HALF
Artist:Ziyoou-vachi
ArtistUnicode:女王蜂
Creator:zhu
Version:Frontier's Normal
Source:東京喰種トーキョーグール:re
Tags:コシュニエ sui ishida tokyo ghoul re ending size theme haise sasaki kaneki ken -_frontier_- shockolatte peter hailie ayyri eiri-
BeatmapID:1612949
BeatmapSetID:767347

[Difficulty]
HPDrainRate:3
CircleSize:3
OverallDifficulty:4
ApproachRate:4
SliderMultiplier:1.6
SliderTickRate:1

[Events]
//Background and Video events
0,0,"bg.jpg",0,0
Video,3600,"video.avi"
//Break Periods
//Storyboard Layer 0 (Background)
//Storyboard Layer 1 (Fail)
//Storyboard Layer 2 (Pass)
//Storyboard Layer 3 (Foreground)
//Storyboard Sound Samples

[TimingPoints]
4641,566.037735849057,4,2,0,40,1,0
6339,-100,4,2,0,5,0,0
6905,-100,4,2,0,60,0,0
56716,-100,4,2,0,70,0,1
64641,-100,4,2,0,50,0,1
65773,-100,4,2,0,70,0,1
74829,-100,4,2,0,60,0,0
88414,-100,4,2,0,60,0,0
91810,-100,4,2,0,60,0,0
92376,-100,4,2,0,60,0,0
92801,-100,4,2,0,5,0,0
92942,-100,4,2,0,5,0,0

[Colours]
Combo1 : 192,192,192
Combo2 : 128,64,64
SliderBorder : 255,255,255
SliderTrackOverride : 0,0,0

[HitObjects]
256,192,4641,12,0,6339,0:0:0:0:
288,224,6905,6,0,P|253:155|277:81,3,160,2|4|2|4,0:0|0:3|0:0|0:3,0:0:0:0:
381,39,9169,6,0,P|389:77|378:115,1,80,4|2,0:0|0:0,0:0:0:0:
410,161,9735,1,4,0:3:0:0:
410,161,10018,2,0,P|340:125|266:149,1,160,2|2,0:0|0:0,0:0:0:0:
230,192,10867,1,4,0:3:0:0:
283,307,11433,6,0,B|202:275|208:352|127:320,1,160,0|4,0:0|0:3,0:0:0:0:
88,357,12282,2,0,L|66:189,1,160,2|2,0:0|0:0,0:0:0:0:
17,171,13131,1,4,0:3:0:0:
94,88,13697,6,0,P|133:85|170:99,1,80,2|0,0:0|0:0,0:0:0:0:
209,139,14263,1,4,0:3:0:0:
209,139,14546,2,0,B|259:134|259:134|312:155|312:155|363:151,1,160,2|2,0:0|0:0,0:0:0:0:
410,118,15395,1,4,0:3:0:0:
512,191,15961,6,0,L|490:359,1,160,2|4,0:0|0:3,0:0:0:0:
438,367,16810,2,0,P|360:370|301:318,1,160,2|2,0:0|0:0,0:0:0:0:
321,265,17659,1,4,0:3:0:0:
419,212,18225,5,0,0:0:0:0:
445,162,18508,2,0,P|418:132|381:119,1,80,2|4,0:0|0:3,0:0:0:0:
374,64,19074,2,0,P|334:61|298:78,1,80,0|0,0:0|0:0,0:0:0:0:
254,44,19641,2,0,P|224:70|211:107,2,80,2|4|2,0:0|0:3|0:0,0:0:0:0:
298,78,20490,5,0,0:0:0:0:
298,78,20773,2,0,L|276:246,1,160,2|2,0:0|0:0,0:0:0:0:
198,315,21905,2,0,L|114:326,2,80,2|4|2,0:0|0:3|0:0,0:0:0:0:
306,344,23037,5,2,0:0:0:0:
306,344,23320,2,0,P|345:339|378:316,1,80,4|0,0:3|0:0,0:0:0:0:
419,347,23886,2,0,P|443:315|450:276,1,80,0|2,0:0|0:0,0:0:0:0:
502,271,24452,2,0,P|497:232|474:200,1,80,4|0,0:3|0:0,0:0:0:0:
385,130,25301,5,2,0:0:0:0:
385,130,25584,2,0,P|373:203|289:211,1,160,4|0,0:3|0:0,0:0:0:0:
244,204,26433,2,0,L|255:288,2,80,2|4|2,0:0|0:3|0:0,0:0:0:0:
234,90,27565,5,2,0:0:0:0:
234,90,27848,2,0,P|195:97|165:123,1,80,4|0,0:3|0:0,0:0:0:0:
114,103,28414,2,0,P|92:136|89:175,1,80,0|2,0:0|0:0,0:0:0:0:
38,197,28980,2,0,P|45:235|71:265,1,80,4|0,0:3|0:0,0:0:0:0:
49,317,29546,5,0,0:0:0:0:
49,317,29829,2,0,L|217:295,1,160,2|2,0:0|0:0,0:0:0:0:
317,279,30961,2,0,P|317:319|302:355,2,80,2|4|2,0:0|0:3|0:0,0:0:0:0:
261,181,32093,6,0,P|326:136|410:159,1,160,2|0,0:0|0:0,0:0:0:0:
449,180,32942,2,0,P|461:142|453:103,1,80,2|2,0:0|0:0,0:0:0:0:
498,70,33508,2,0,P|480:34|447:12,1,80,4|0,0:3|0:0,0:0:0:0:
345,59,34357,6,0,B|288:53|288:53|231:76|231:76|176:71,1,160,2|0,0:0|0:0,0:0:0:0:
152,35,35207,2,0,P|116:52|94:85,1,80,2|2,0:0|0:0,0:0:0:0:
39,78,35773,2,0,P|26:115|34:154,1,80,4|2,0:3|0:0,0:0:0:0:
73,193,36339,6,0,B|152:184,2,80,0|0|4,0:0|0:0|0:3,0:0:0:0:
20,208,37188,2,0,P|-4:281|30:351,1,160,0|2,0:0|0:0,0:0:0:0:
85,341,38037,1,4,0:3:0:0:
85,341,38320,1,2,0:0:0:0:
160,264,38886,6,0,B|151:184,2,80,2|4|0,0:0|0:3|0:0,0:0:0:0:
206,294,39735,2,0,B|197:373,2,80,2|2|4,0:0|0:0|0:3,0:0:0:0:
285,214,40867,6,0,P|276:175|289:137,2,80,2|0|4,0:0|0:0|0:3,0:0:0:0:
324,253,41716,2,0,P|397:277|467:242,1,160,0|2,0:0|0:0,0:0:0:0:
499,196,42565,2,0,P|507:157|494:119,1,80,4|2,0:3|0:0,0:0:0:0:
464,72,43131,6,0,B|413:67|413:67|360:88|360:88|309:84,1,160,0|4,0:0|0:3,0:0:0:0:
289,137,43980,2,0,P|220:102|146:126,1,160,0|2,0:0|0:0,0:0:0:0:
110,170,44829,1,4,0:3:0:0:
110,170,45112,1,2,0:0:0:0:
46,262,45678,5,2,0:0:0:0:
46,262,45961,2,0,B|125:272,1,80,4|2,0:3|0:0,0:0:0:0:
182,268,46527,2,0,P|168:305|176:344,1,80,0|2,0:0|0:0,0:0:0:0:
222,375,47093,2,0,P|260:382|297:369,1,80,4|2,0:3|0:0,0:0:0:0:
409,379,47942,5,2,0:0:0:0:
409,379,48225,2,0,B|398:299,1,80,4|2,0:3|0:0,0:0:0:0:
350,265,48791,2,0,P|336:227|344:188,1,80,0|2,0:0|0:0,0:0:0:0:
300,155,49357,2,0,P|316:119|350:97,1,80,4|2,0:3|0:0,0:0:0:0:
401,74,49924,6,0,B|480:82,2,80,0|2|4,0:0|0:0|0:3,0:0:0:0:
355,42,50773,2,0,B|271:17|284:93|200:68,1,160,2|2,0:0|0:0,0:0:0:0:
161,34,51622,1,4,0:3:0:0:
161,34,51905,1,0,0:0:0:0:
81,113,52471,6,0,B|89:192,1,80,2|4,0:0|0:3,0:0:0:0:
49,232,53037,2,0,P|122:207|192:242,1,160,0|2,0:0|0:0,0:0:0:0:
232,282,53886,1,4,0:3:0:0:
304,194,54452,6,0,B|288:96,3,80,4|4|4|4,0:3|0:3|0:3|0:3,0:0:0:0:
338,123,55584,2,0,B|348:43,3,80,4|4|4|4,0:3|0:3|0:3|0:3,0:0:0:0:
305,67,56716,6,0,P|246:17|169:26,1,160,4|4,0:0|0:3,0:0:0:0:
128,64,57565,1,2,0:0:0:0:
128,64,57848,2,0,L|160:246,1,160,0|4,0:0|0:3,0:0:0:0:
84,307,58980,6,0,B|167:324|147:250|231:267,1,160,2|4,0:0|0:3,0:0:0:0:
274,301,59829,1,2,0:0:0:0:
304,194,60395,2,0,B|294:103,2,80,2|4|2,0:0|0:3|0:0,0:0:0:0:
343,233,61244,6,0,P|370:309|329:379,1,160,2|4,0:0|0:3,0:0:0:0:
222,376,62376,1,2,0:0:0:0:
182,336,62659,2,0,B|202:154,1,160,0|2,0:0|0:0,0:0:0:0:
167,130,63508,6,0,P|200:106|239:104,1,80,2|0,0:0|0:0,0:0:0:0:
267,54,64074,2,0,P|305:60|335:87,1,80,4|0,0:3|0:0,0:0:0:0:
335,86,65773,6,0,L|303:268,1,160,4|4,0:0|0:3,0:0:0:0:
346,283,66622,1,0,0:0:0:0:
346,283,66905,2,0,B|261:300|281:225|196:243,1,160,2|4,0:0|0:3,0:0:0:0:
144,340,68037,6,0,P|71:353|13:294,1,160,2|4,0:0|0:3,0:0:0:0:
7,241,68886,1,2,0:0:0:0:
119,233,69452,2,0,B|210:243,2,80,2|4|2,0:0|0:3|0:0,0:0:0:0:
79,193,70301,6,0,P|59:121|113:58,1,160,2|4,0:0|0:3,0:0:0:0:
226,84,71433,1,2,0:0:0:0:
226,84,71716,2,0,L|194:266,1,160,0|2,0:0|0:0,0:0:0:0:
151,271,72565,6,0,P|111:271|77:250,1,80,2|2,0:0|0:0,0:0:0:0:
45,204,73131,2,0,P|44:164|64:130,1,80,4|2,0:3|0:0,0:0:0:0:
109,98,73697,1,2,0:0:0:0:
220,86,74263,2,0,B|299:94,1,80,4|0,0:3|0:0,0:0:0:0:
326,143,74829,6,0,P|403:152|462:102,1,160,4|4,0:0|0:3,0:0:0:0:
486,51,75678,1,2,0:0:0:0:
486,51,75961,2,0,L|466:236,1,160,2|4,0:0|0:3,0:0:0:0:
479,321,77093,6,0,B|396:338|416:264|332:281,1,160,2|4,0:0|0:3,0:0:0:0:
292,320,77942,1,2,0:0:0:0:
211,240,78508,2,0,P|205:201|216:163,2,80,2|4|2,0:0|0:3|0:0,0:0:0:0:
194,294,79357,6,0,P|122:325|51:293,1,160,2|4,0:0|0:3,0:0:0:0:
57,180,80490,1,2,0:0:0:0:
57,180,80773,2,0,L|242:160,1,160,0|2,0:0|0:0,0:0:0:0:
255,123,81622,6,0,L|347:133,1,80,0|2,0:0|0:0,0:0:0:0:
374,171,82188,2,0,L|466:161,1,80,4|0,0:3|0:0,0:0:0:0:
310,338,83886,6,0,L|225:328,1,80,4|0,0:0|0:0,0:0:0:0:
182,356,84452,1,4,0:3:0:0:
182,356,84735,2,0,B|201:303|201:303|166:203,1,160,2|2,0:0|0:0,0:0:0:0:
127,165,85584,1,4,0:3:0:0:
127,40,86150,6,0,P|192:83|271:82,1,160,2|4,0:0|0:3,0:0:0:0:
315,47,86999,2,0,L|293:215,1,160,2|2,0:0|0:0,0:0:0:0:
254,245,87848,1,4,0:3:0:0:
268,300,88131,2,0,L|307:294,2,40,8|8|0,0:3|0:3|0:0,0:0:0:0:
256,192,88697,12,0,93084,0:0:0:0:
