osu file format v14

[General]
AudioFilename: tokyo.mp3
AudioLeadIn: 0
PreviewTime: 56150
Countdown: 0
SampleSet: Soft
StackLeniency: 0.7
Mode: 0
LetterboxInBreaks: 0
WidescreenStoryboard: 0

[Editor]
Bookmarks: 4641,18225,36339,54452,56716,64641,65773,74829,83886,88414,93084
DistanceSpacing: 0.6
BeatDivisor: 4
GridSize: 32
TimelineZoom: 1

[Metadata]
Title:HALF
TitleUnicode:HALF
Artist:Ziyoou-vachi
ArtistUnicode:女王蜂
Creator:zhu
Version:Ayyri's Easy
Source:東京喰種トーキョーグール:re
Tags:コシュニエ sui ishida tokyo ghoul re ending size theme haise sasaki kaneki ken -_frontier_- shockolatte peter hailie ayyri eiri-
BeatmapID:1614270
BeatmapSetID:767347

[Difficulty]
HPDrainRate:2
CircleSize:2.5
OverallDifficulty:2
ApproachRate:2
SliderMultiplier:1.5
SliderTickRate:1

[Events]
//Background and Video events
0,0,"bg.jpg",0,0
Video,3600,"video.avi"
//Break Periods
//Storyboard Layer 0 (Background)
//Storyboard Layer 1 (Fail)
//Storyboard Layer 2 (Pass)
//Storyboard Layer 3 (Foreground)
//Storyboard Sound Samples

[TimingPoints]
4641,566.037735849057,4,2,0,40,1,0
9169,-100,4,2,0,60,0,0
56716,-100,4,2,0,70,0,1
64641,-100,4,2,0,50,0,0
65773,-100,4,2,0,70,0,1
74829,-100,4,2,0,60,0,0
93084,-100,4,2,0,5,0,0

[Colours]
Combo1 : 192,192,192
Combo2 : 128,64,64
SliderBorder : 255,255,255
SliderTrackOverride : 0,0,0

[HitObjects]
28,341,6905,6,0,L|184:332,1,150,2|4,0:0|0:3,0:0:0:0:
232,260,8037,2,0,L|388:269,1,150,2|4,0:0|0:3,0:0:0:0:
466,299,9169,6,0,P|490:235|474:140,1,150,4|4,0:0|0:3,0:0:0:0:
441,133,10018,2,0,P|377:157|282:141,1,150,2|2,0:0|0:0,0:0:0:0:
259,122,10867,1,4,0:3:0:0:
214,200,11433,2,0,P|204:273|228:343,1,150,0|4,0:0|0:3,0:0:0:0:
268,365,12282,2,0,L|104:360,1,150,2|2,0:0|0:0,0:0:0:0:
76,343,13131,1,4,0:3:0:0:
29,265,13697,6,0,L|15:94,1,150,2|4,0:0|0:3,0:0:0:0:
56,94,14546,2,0,P|136:98|200:32,1,150,2|2,0:0|0:0,0:0:0:0:
213,19,15395,1,4,0:3:0:0:
274,84,15961,2,0,L|269:178,2,75,2|2|4,0:0|0:0|0:3,0:0:0:0:
306,53,16810,2,0,L|466:46,1,150,2|2,0:0|0:0,0:0:0:0:
492,72,17659,1,4,0:3:0:0:
480,161,18225,5,0,0:0:0:0:
465,203,18508,2,0,L|472:293,2,75,2|4|0,0:0|0:3|0:0,0:0:0:0:
420,194,19357,2,0,L|258:205,1,150,0|4,0:0|0:3,0:0:0:0:
182,222,20490,1,0,0:0:0:0:
143,198,20773,2,0,P|104:122|135:57,1,150,2|2,0:0|0:0,0:0:0:0:
211,38,21905,2,0,L|303:34,2,75,2|4|2,0:0|0:3|0:0,0:0:0:0:
242,122,23037,6,0,L|398:116,1,150,2|0,0:0|0:0,0:0:0:0:
415,154,23886,2,0,L|409:303,1,150,0|4,0:0|0:3,0:0:0:0:
282,350,25301,5,2,0:0:0:0:
248,319,25584,2,0,B|246:319|157:321,1,75,4|0,0:3|0:0,0:0:0:0:
137,292,26150,2,0,P|86:338|-13:329,2,150,0|4|0,0:0|0:3|0:0,0:0:0:0:
159,252,27565,6,0,P|210:206|309:215,1,150,2|0,0:0|0:0,0:0:0:0:
327,227,28414,1,0,0:0:0:0:
337,316,28980,1,4,0:3:0:0:
421,345,29546,1,0,0:0:0:0:
459,321,29829,2,0,P|490:264|473:162,1,150,0|2,0:0|0:0,0:0:0:0:
411,127,30961,2,0,L|300:125,2,75,2|4|2,0:0|0:3|0:0,0:0:0:0:
449,45,32093,6,0,B|378:31|378:31|268:42,1,150,2|0,0:0|0:0,0:0:0:0:
263,63,32942,2,0,L|232:226,2,150,0|4|0,0:0|0:3|0:0,0:0:0:0:
227,34,34357,2,0,B|156:48|156:48|46:37,1,150,2|0,0:0|0:0,0:0:0:0:
55,79,35207,2,0,L|86:242,1,150,0|4,0:0|0:3,0:0:0:0:
116,309,36339,6,0,P|76:334|34:337,2,75,0|0|4,0:0|0:0|0:3,0:0:0:0:
142,272,37188,1,0,0:0:0:0:
212,327,37754,2,0,L|301:323,1,75,2|4,0:0|0:3,0:0:0:0:
327,342,38320,1,2,0:0:0:0:
337,252,38886,2,0,L|340:159,2,75,2|4|0,0:0|0:3|0:0,0:0:0:0:
371,281,39735,2,0,L|464:284,2,75,0|2|4,0:0|0:0|0:3,0:0:0:0:
291,323,40867,6,0,L|198:326,2,75,0|0|4,0:0|0:0|0:3,0:0:0:0:
313,361,41716,2,0,L|470:367,1,150,0|2,0:0|0:0,0:0:0:0:
503,346,42565,1,4,0:3:0:0:
501,256,43131,2,0,L|494:72,1,150,0|4,0:0|0:3,0:0:0:0:
466,71,43980,2,0,P|399:49|330:95,1,150,0|2,0:0|0:0,0:0:0:0:
316,128,44829,2,0,L|230:133,1,75,4|2,0:3|0:0,0:0:0:0:
217,219,45678,6,0,L|372:209,1,150,2|2,0:0|0:0,0:0:0:0:
403,183,46527,2,0,L|413:338,1,150,0|4,0:0|0:3,0:0:0:0:
328,363,47659,1,0,0:0:0:0:
290,338,47942,2,0,L|193:346,2,75,2|4|2,0:0|0:3|0:0,0:0:0:0:
302,294,48791,2,0,L|288:132,1,150,0|4,0:0|0:3,0:0:0:0:
360,90,49924,6,0,L|457:98,2,75,0|2|4,0:0|0:0|0:3,0:0:0:0:
342,48,50773,2,0,P|276:69|212:16,1,150,2|2,0:0|0:0,0:0:0:0:
173,7,51622,2,0,L|157:96,1,75,4|0,0:3|0:0,0:0:0:0:
91,139,52471,2,0,L|107:228,1,75,2|4,0:0|0:3,0:0:0:0:
95,256,53037,2,0,L|252:233,1,150,0|2,0:0|0:0,0:0:0:0:
284,252,53886,1,4,0:3:0:0:
362,207,54452,6,0,L|518:197,2,150,4|4|4,0:3|0:3|0:3,0:0:0:0:
334,121,56150,1,4,0:3:0:0:
247,144,56716,6,0,L|98:122,1,150,4|4,0:0|0:3,0:0:0:0:
55,200,57848,2,0,L|203:221,1,150,0|4,0:0|0:3,0:0:0:0:
240,303,58980,2,0,P|203:340|87:333,1,150,2|4,0:0|0:3,0:0:0:0:
69,326,59829,1,2,0:0:0:0:
89,238,60395,2,0,L|4:241,2,75,2|4|2,0:0|0:3|0:0,0:0:0:0:
115,201,61244,6,0,L|282:195,1,150,2|4,0:0|0:3,0:0:0:0:
342,149,62376,1,2,0:0:0:0:
370,183,62659,2,0,L|392:339,1,150,0|2,0:0|0:0,0:0:0:0:
358,362,63508,2,0,L|252:365,1,75,2|0,0:0|0:0,0:0:0:0:
248,335,64074,2,0,L|142:332,1,75,4|0,0:3|0:0,0:0:0:0:
91,124,65773,6,0,L|240:119,1,150,4|4,0:0|0:3,0:0:0:0:
292,45,66905,2,0,L|441:49,1,150,2|4,0:0|0:3,0:0:0:0:
487,126,68037,2,0,P|492:197|423:264,1,150,2|4,0:0|0:3,0:0:0:0:
400,266,68886,1,2,0:0:0:0:
310,257,69452,2,0,L|318:335,2,75,2|4|2,0:0|0:3|0:0,0:0:0:0:
278,225,70301,6,0,P|215:208|132:275,1,150,2|4,0:0|0:3,0:0:0:0:
68,295,71433,1,2,0:0:0:0:
28,273,71716,2,0,P|2:217|30:118,1,150,0|2,0:0|0:0,0:0:0:0:
49,100,72565,2,0,L|137:93,1,75,2|2,0:0|0:0,0:0:0:0:
157,64,73131,2,0,L|245:71,1,75,4|2,0:3|0:0,0:0:0:0:
274,56,73697,1,2,0:0:0:0:
360,29,74263,1,4,0:3:0:0:
405,106,74829,6,0,L|425:271,1,150,4|4,0:0|0:3,0:0:0:0:
339,287,75961,2,0,L|319:122,1,150,2|4,0:0|0:3,0:0:0:0:
290,53,77093,2,0,P|238:90|145:67,1,150,2|4,0:0|0:3,0:0:0:0:
121,49,77942,1,2,0:0:0:0:
74,125,78508,2,0,L|-21:136,2,75,2|4|2,0:0|0:3|0:0,0:0:0:0:
105,157,79357,5,2,0:0:0:0:
136,189,79641,2,0,L|231:178,2,75,2|4|2,0:0|0:3|0:0,0:0:0:0:
113,228,80490,2,0,P|146:287|242:305,1,150,2|4,0:0|0:3,0:0:0:0:
305,278,81622,2,0,L|317:184,1,75,0|2,0:0|0:0,0:0:0:0:
347,173,82188,2,0,L|335:79,1,75,4|0,0:3|0:0,0:0:0:0:
98,101,83886,6,0,P|74:165|90:260,1,150,4|4,0:0|0:3,0:0:0:0:
123,267,84735,2,0,P|187:243|282:259,1,150,2|2,0:0|0:0,0:0:0:0:
305,278,85584,1,4,0:3:0:0:
365,211,86150,2,0,P|320:152|253:119,1,150,2|4,0:0|0:3,0:0:0:0:
210,133,86999,2,0,L|329:20,1,150,2|2,0:0|0:0,0:0:0:0:
364,31,87848,2,0,L|483:143,1,150,4|0,0:3|0:0,0:0:0:0:
256,192,88697,12,0,93084,0:0:0:0:
