osu file format v12

[General]
AudioFilename: 4wg7P.mp3
AudioLeadIn: 0
PreviewTime: 10116
Countdown: 0
SampleSet: Normal
StackLeniency: 0.7
Mode: 0
LetterboxInBreaks: 0
WidescreenStoryboard: 0

[Editor]
DistanceSpacing: 1.1
BeatDivisor: 4
GridSize: 4

[Metadata]
Title:True Kanjou Kesson
TitleUnicode:トゥルー感情欠損
Artist:Zips
ArtistUnicode:じっぷす
Creator:Natsu
Version:Normal
Source:
Tags:jippusu Heisei Project Emotion Deficit Captin1 Gloria Guard Not-116 Nanase Nachuki Kariki Bear Kenji Megpoid Gumi Vocaloid xChippy ななせ なちゅき かいりきベア
BeatmapID:304767
BeatmapSetID:118075

[Difficulty]
HPDrainRate:4
CircleSize:3
OverallDifficulty:4
ApproachRate:5
SliderMultiplier:1
SliderTickRate:2

[Events]
//Background and Video events
0,0,"bgnew.jpg",0,0
Video,0,"VIDEO.avi"
//Break Periods
2,18416,26316
2,64016,71916
2,109615,117516
2,137966,145866
//Storyboard Layer 0 (Background)
//Storyboard Layer 1 (Fail)
//Storyboard Layer 2 (Pass)
//Storyboard Layer 3 (Foreground)
//Storyboard Sound Samples
//Background Colour Transformations
3,100,163,162,255

[TimingPoints]
1266,300,4,1,1,50,1,0
10716,-100,4,1,1,70,0,1
18216,-100,4,1,1,60,0,0
27516,-125,4,1,1,50,0,0
41166,-125,4,1,2,50,0,0
41241,-125,4,1,1,50,0,0
42066,-111.111111111111,4,1,1,60,0,0
42366,-111.111111111111,4,1,2,60,0,0
42441,-111.111111111111,4,1,1,60,0,0
42966,-111.111111111111,4,1,2,60,0,0
43041,-111.111111111111,4,1,1,60,0,0
46716,-100,4,1,1,70,0,1
54666,-100,4,1,2,70,0,1
54741,-100,4,1,1,70,0,1
55866,-100,4,1,1,60,0,0
56316,-100,4,1,1,70,0,1
60366,-100,4,1,2,70,0,1
60441,-100,4,1,1,70,0,1
63816,-100,4,1,1,50,0,0
73116,-125,4,1,1,50,0,0
81966,-125,4,1,2,50,0,0
82041,-125,4,1,1,50,0,0
86766,-125,4,1,2,50,0,0
86841,-125,4,1,1,50,0,0
87666,-111.111111111111,4,1,1,50,0,0
87966,-111.111111111111,4,1,2,50,0,0
88041,-111.111111111111,4,1,1,50,0,0
89166,-111.111111111111,4,1,2,50,0,0
89241,-111.111111111111,4,1,1,50,0,0
92316,-100,4,1,1,70,0,1
95166,-100,4,1,2,70,0,1
95241,-100,4,1,1,70,0,1
101466,-100,4,1,1,60,0,0
101916,-100,4,1,1,70,0,1
105966,-100,4,1,2,70,0,1
106041,-100,4,1,1,70,0,1
109416,-100,4,1,1,50,0,0
118716,-100,4,1,1,60,0,0
122766,-100,4,1,2,60,0,0
122841,-100,4,1,1,60,0,0
124566,-100,4,1,2,60,0,0
124641,-100,4,1,1,60,0,0
127566,-100,4,1,2,60,0,0
127641,-100,4,1,1,60,0,0
136866,-100,4,1,1,40,0,0
137166,-100,4,1,1,25,0,0
137466,-100,4,1,1,10,0,0
137766,-100,4,1,1,5,0,0
147066,-100,4,1,1,60,0,1
147141,-100,4,1,1,60,0,0
147516,-100,4,1,1,70,0,1
154266,-100,4,1,1,60,0,0
154716,-100,4,1,1,70,0,1
163866,-100,4,1,1,60,0,0
164316,-100,4,1,1,70,0,1
168366,-100,4,1,2,70,0,1
168441,-100,4,1,1,70,0,1
176316,-100,4,1,1,60,0,0
177066,-100,4,2,1,25,0,0
177516,-100,4,1,1,70,0,1
177591,-105.263157894737,4,1,1,50,0,0

[Colours]
Combo1 : 230,172,0
Combo2 : 125,0,251
Combo3 : 0,56,125
Combo4 : 251,0,125

[HitObjects]
88,96,1266,2,0,P|132:72|196:76,1,100,4|8,0:0|0:0,0:0:0:0:
256,136,1866,2,0,P|212:159|163:160,1,100,2|8,0:0|0:0,0:0:0:0:
88,96,2466,1,2,0:0:0:0:
72,196,2766,2,0,L|52:312,1,100,8|2,0:0|0:0,0:0:0:0:
140,348,3366,1,8,0:0:0:0:
176,256,3666,6,0,P|196:208|244:172,1,100,2|8,0:0|0:0,0:0:0:0:
328,208,4266,2,0,P|376:192|412:140,1,100,2|8,0:0|0:0,0:0:0:0:
484,92,4866,2,0,P|440:64|372:60,1,100,2|8,0:0|0:0,0:0:0:0:
308,104,5466,2,0,P|252:104|208:76,1,100,2|8,0:0|0:0,0:0:0:0:
132,28,6066,6,0,L|20:56,1,100,2|8,0:0|0:0,0:0:0:0:
112,112,6666,2,0,L|22:184,1,100,2|8,0:0|0:0,0:0:0:0:
132,196,7266,2,0,L|81:299,1,100,2|8,0:0|0:0,0:0:0:0:
188,264,7866,2,0,L|186:379,1,100,2|8,0:0|0:0,0:0:0:0:
268,304,8466,6,0,L|269:188,1,100,2|8,0:0|0:0,0:0:0:0:
268,104,9066,1,2,0:0:0:0:
360,64,9366,2,0,L|360:124,1,50,8|0,0:0|0:0,0:0:0:0:
312,364,10716,6,0,P|260:352|228:320,1,100,4|0,0:0|0:0,0:0:0:0:
224,268,11166,2,0,P|200:216|164:188,1,100,8|2,0:0|0:0,0:0:0:0:
68,192,11766,1,8,0:0:0:0:
68,192,11916,2,0,P|80:140|120:104,1,100,2|0,0:0|0:0,0:0:0:0:
160,92,12366,2,0,P|208:80|248:44,1,100,8|2,0:0|0:0,0:0:0:0:
340,16,12966,1,8,0:0:0:0:
340,16,13116,6,0,L|356:132,1,100,2|0,0:0|0:0,0:0:0:0:
364,164,13566,1,8,0:0:0:0:
384,264,13866,2,0,P|360:308|308:336,1,100,2|8,0:0|0:0,0:0:0:0:
268,328,14316,2,0,P|196:316|120:328,1,150,4|8,0:0|0:0,0:0:0:0:
24,348,15066,2,0,P|8:292|16:240,1,100,2|8,0:0|0:0,0:0:0:0:
48,216,15516,6,0,P|88:168|96:128,1,100,4|0,0:0|0:0,0:0:0:0:
96,84,15966,1,8,0:0:0:0:
188,40,16266,2,0,P|240:40|296:64,1,100,2|8,0:0|0:0,0:0:0:0:
312,100,16716,2,0,P|340:160|416:212,1,150,2|0,0:0|0:0,0:0:0:0:
488,268,17466,6,0,P|456:312|408:344,1,100,4|8,0:0|0:0,0:0:0:0:
368,340,17916,2,0,P|328:310|299:269,1,100,4|0,0:0|0:0,0:0:0:0:
112,232,27516,6,0,L|112:144,1,80,4|0,0:0|0:0,0:0:0:0:
116,108,27966,2,0,P|140:72|172:48,1,80,8|2,0:0|0:0,0:0:0:0:
256,36,28566,1,8,0:0:0:0:
343,49,28866,2,0,P|374:74|396:108,1,80,2|8,0:0|0:0,0:0:0:0:
400,152,29316,2,0,L|400:232,1,80,2|0,0:0|0:0,0:0:0:0:
396,320,29916,6,0,P|356:332|312:328,1,80,2|0,0:0|0:0,0:0:0:0:
280,306,30366,2,0,P|207:271|126:290,1,160,8|8,0:0|0:0,0:0:0:0:
91,302,31116,1,2,0:0:0:0:
42,228,31416,1,2,0:0:0:0:
20,144,31716,2,0,P|48:116|96:96,1,80,2|0,0:0|0:0,0:0:0:0:
168,128,32316,6,0,P|208:116|244:84,1,80,4|0,0:0|0:0,0:0:0:0:
268,60,32766,2,0,P|299:35|337:24,2,80,8|2|8,0:0|0:0|0:0,0:0:0:0:
340,112,33666,2,0,P|364:140|404:160,1,80,2|8,0:0|0:0,0:0:0:0:
444,168,34116,2,0,P|468:208|472:244,1,80,2|0,0:0|0:0,0:0:0:0:
404,296,34716,6,0,L|328:336,1,80,2|0,0:0|0:0,0:0:0:0:
296,356,35166,1,8,0:0:0:0:
208,364,35466,2,0,P|172:336|152:300,1,80,2|8,0:0|0:0,0:0:0:0:
144,264,35916,2,0,P|136:216|112:180,1,80,2|0,0:0|0:0,0:0:0:0:
88,160,36366,2,0,P|100:108|124:80,1,80,8|0,0:0|0:0,0:0:0:0:
148,56,36816,5,4,0:0:0:0:
228,88,37116,2,0,P|292:88|344:48,1,120,4|8,0:0|0:0,0:0:0:0:
412,12,37866,2,0,L|428:100,1,80,2|8,0:0|0:0,0:0:0:0:
432,136,38316,2,0,P|432:188|388:244,1,120,2|8,0:0|0:0,0:0:0:0:
312,280,39066,1,2,0:0:0:0:
224,280,39366,1,8,0:0:0:0:
224,280,39516,6,0,P|176:256|144:192,1,120,2|8,0:0|0:0,0:0:0:0:
160,112,40266,2,0,L|232:56,1,80,2|8,0:0|0:0,0:0:0:0:
256,36,40716,2,0,P|352:44|364:132,1,200,2|2,0:0|0:0,0:0:0:0:
308,200,41766,1,8,0:0:0:0:
212,224,42066,6,0,P|276:296|352:288,2,179.999994506836,0|2|2,0:0|0:0|0:0,0:0:0:0:
220,124,43566,1,8,0:0:0:0:
168,40,43866,2,0,P|112:40|80:64,1,89.9999972534181,2|8,0:0|0:0,0:0:0:0:
48,92,44316,6,0,P|32:168|56:240,1,134.999995880127,4|8,0:0|0:0,0:0:0:0:
140,252,45066,2,0,P|184:264|224:300,1,89.9999972534181,2|8,0:0|0:0,0:0:0:0:
248,332,45516,1,4,0:0:0:0:
348,332,45816,2,0,L|384:288,1,44.999998626709,4|4,0:0|0:0,0:0:0:0:
404,48,46716,6,0,P|320:60|240:28,1,150,4|8,0:0|0:0,0:0:0:0:
160,28,47466,2,0,L|124:128,1,100,2|8,0:0|0:0,0:0:0:0:
100,164,47916,2,0,P|120:208|168:240,1,100,2|0,0:0|0:0,0:0:0:0:
204,260,48366,2,0,P|196:308|172:360,2,100,8|2|8,0:0|0:0|0:0,0:0:0:0:
224,216,49116,6,0,L|272:120,1,100,2|0,0:0|0:0,0:0:0:0:
292,80,49566,2,0,P|240:28|136:84,1,200,8|8,0:0|0:0,0:0:0:0:
128,124,50316,2,0,P|116:188|52:256,1,150,2|8,0:0|0:0,0:0:0:0:
12,340,51066,2,0,P|60:344|120:324,1,100,2|8,0:0|0:0,0:0:0:0:
144,296,51516,6,0,P|188:236|260:192,1,150,4|8,0:0|0:0,0:0:0:0:
340,240,52266,2,0,P|352:184|332:136,1,100,2|8,0:0|0:0,0:0:0:0:
304,108,52716,2,0,P|304:40|380:48,1,150,2|8,0:0|0:0,0:0:0:0:
452,100,53466,1,2,0:0:0:0:
500,188,53766,1,8,0:0:0:0:
500,188,53916,6,0,P|500:240|476:292,1,100,2|0,0:0|0:0,0:0:0:0:
444,316,54366,2,0,P|356:360|248:332,2,200,8|8|8,0:0|0:0|0:0,0:0:0:0:
356,272,55866,2,0,P|296:260|268:216,1,100,0|8,0:0|0:0,0:0:0:0:
256,184,56316,6,0,P|224:140|176:116,1,100,4|0,0:0|0:0,0:0:0:0:
136,104,56766,2,0,L|112:220,1,100,2|8,0:0|0:0,0:0:0:0:
100,300,57366,1,2,0:0:0:0:
100,300,57516,2,0,P|172:332|240:320,1,150,2|8,0:0|0:0,0:0:0:0:
288,232,58266,2,0,L|328:140,1,100,2|8,0:0|0:0,0:0:0:0:
352,96,58716,6,0,P|400:64|480:104,1,150,2|8,0:0|0:0,0:0:0:0:
452,196,59466,2,0,L|412:292,1,100,2|8,0:0|0:0,0:0:0:0:
388,332,59916,2,0,P|336:360|228:240,1,250,2|2,0:0|0:0,0:0:0:0:
288,164,60966,1,8,0:0:0:0:
288,164,61116,6,0,P|252:100|168:84,1,150,4|8,0:0|0:0,0:0:0:0:
96,132,61866,2,0,L|76:232,1,100,2|8,0:0|0:0,0:0:0:0:
64,280,62316,2,0,P|108:336|192:356,1,150,2|8,0:0|0:0,0:0:0:0:
280,352,63066,6,0,P|304:300|312:240,1,100,4|8,0:0|0:0,0:0:0:0:
280,220,63516,2,0,P|289:171|311:126,1,100,4|0,0:0|0:0,0:0:0:0:
184,248,73116,6,0,L|248:200,1,80,4|0,0:0|0:0,0:0:0:0:
284,172,73566,2,0,L|356:116,2,80,8|2|8,0:0|0:0|0:0,0:0:0:0:
324,252,74466,2,0,P|376:300|472:280,1,160,2|8,0:0|0:0,0:0:0:0:
492,160,75516,6,0,P|468:104|408:64,1,120,2|8,0:0|0:0,0:0:0:0:
336,80,76266,2,0,P|288:80|244:68,1,80,2|8,0:0|0:0,0:0:0:0:
212,64,76716,2,0,P|152:44|100:12,2,120,2|8|0,0:0|0:0|0:0,0:0:0:0:
252,144,77916,6,0,L|268:224,1,80,4|0,0:0|0:0,0:0:0:0:
280,264,78366,2,0,P|320:276|368:276,2,80,8|2|8,0:0|0:0|0:0,0:0:0:0:
192,244,79266,1,2,0:0:0:0:
120,192,79566,2,0,P|100:148|100:104,1,80,8|0,0:0|0:0,0:0:0:0:
104,72,80016,2,0,L|184:52,1,80,2|0,0:0|0:0,0:0:0:0:
268,40,80616,5,2,0:0:0:0:
268,40,80766,2,0,P|352:52|400:112,1,160,8|8,0:0|0:0,0:0:0:0:
384,148,81516,2,0,P|409:222|477:260,1,160,2|0,0:0|0:0,0:0:0:0:
480,348,82416,1,4,0:0:0:0:
480,348,82716,6,0,P|420:344|352:360,1,120,4|8,0:0|0:0,0:0:0:0:
276,368,83466,1,2,0:0:0:0:
188,360,83766,1,8,0:0:0:0:
188,360,83916,2,0,P|144:320|132:248,1,120,2|8,0:0|0:0,0:0:0:0:
172,184,84666,2,0,P|164:140|140:104,1,80,2|8,0:0|0:0,0:0:0:0:
108,88,85116,6,0,L|220:40,1,120,2|8,0:0|0:0,0:0:0:0:
304,20,85866,2,0,P|344:40|368:76,1,80,2|8,0:0|0:0,0:0:0:0:
392,96,86316,2,0,B|396:152|464:168|464:168|476:220|444:272,1,200,2|2,0:0|0:0,0:0:0:0:
252,352,87666,6,0,B|160:332|160:332|120:248,1,179.999994506836,4|2,0:0|0:0,0:0:0:0:
92,160,88566,1,8,0:0:0:0:
104,60,88866,2,0,B|196:80|196:80|236:164,1,179.999994506836,2|2,0:0|0:0,0:0:0:0:
272,248,89766,1,8,0:0:0:0:
256,192,89916,12,2,90816,0:0:0:0:
256,96,91116,5,4,0:0:0:0:
256,196,91416,2,0,L|256:260,1,44.999998626709,4|4,0:0|0:0,0:0:0:0:
36,120,92316,6,0,P|88:68|172:60,1,150,4|8,0:0|0:0,0:0:0:0:
244,116,93066,2,0,P|304:104|336:76,1,100,2|8,0:0|0:0,0:0:0:0:
364,40,93516,2,0,P|436:36|472:112,1,150,2|8,0:0|0:0,0:0:0:0:
428,188,94266,2,0,P|401:243|404:285,1,100,2|8,0:0|0:0,0:0:0:0:
420,328,94716,1,0,0:0:0:0:
328,368,95016,6,0,B|240:376|196:340|196:340|212:272|164:236,1,250,4|8,0:0|0:0,0:0:0:0:
120,224,95916,2,0,P|76:196|60:100,1,150,2|8,0:0|0:0,0:0:0:0:
124,32,96666,1,2,0:0:0:0:
164,124,96966,1,8,0:0:0:0:
164,124,97116,6,0,P|244:120|300:64,1,150,4|8,0:0|0:0,0:0:0:0:
372,12,97866,2,0,L|404:120,1,100,2|8,0:0|0:0,0:0:0:0:
416,156,98316,2,0,P|424:220|364:280,1,150,2|8,0:0|0:0,0:0:0:0:
268,272,99066,2,0,P|208:300|180:328,1,100,2|8,0:0|0:0,0:0:0:0:
148,356,99516,6,0,P|100:336|72:284,1,100,2|0,0:0|0:0,0:0:0:0:
68,248,99966,2,0,P|72:148|16:68,2,200,8|8|8,0:0|0:0|0:0,0:0:0:0:
160,284,101466,2,0,P|216:284|268:264,1,100,4|8,0:0|0:0,0:0:0:0:
288,232,101916,6,0,L|320:124,1,100,4|0,0:0|0:0,0:0:0:0:
332,88,102366,1,8,0:0:0:0:
432,80,102666,2,0,L|403:175,1,100,2|8,0:0|0:0,0:0:0:0:
392,224,103116,2,0,P|364:308|312:344,1,150,2|8,0:0|0:0,0:0:0:0:
220,312,103866,2,0,P|156:280|116:280,1,100,2|8,0:0|0:0,0:0:0:0:
80,284,104316,6,0,P|40:236|48:144,1,150,2|8,0:0|0:0,0:0:0:0:
132,104,105066,2,0,L|236:48,1,100,2|8,0:0|0:0,0:0:0:0:
264,36,105516,2,0,B|336:8|384:36|384:36|368:100|440:144,1,250,4|2,0:0|0:0,0:0:0:0:
508,212,106566,1,8,0:0:0:0:
508,212,106716,6,0,P|456:272|368:280,1,150,4|8,0:0|0:0,0:0:0:0:
308,228,107466,2,0,L|224:144,1,100,2|8,0:0|0:0,0:0:0:0:
200,120,107916,2,0,P|116:96|68:144,1,150,2|8,0:0|0:0,0:0:0:0:
32,224,108666,6,0,P|8:276|0:336,1,100,4|8,0:0|0:0,0:0:0:0:
44,340,109116,2,0,P|91:323|132:295,1,100,4|0,0:0|0:0,0:0:0:0:
64,256,118716,6,0,P|68:180|120:124,1,150,4|8,0:0|0:0,0:0:0:0:
216,136,119466,2,0,P|260:112|296:60,1,100,2|8,0:0|0:0,0:0:0:0:
320,32,119916,2,0,P|376:28|440:92,1,150,2|8,0:0|0:0,0:0:0:0:
380,172,120666,2,0,P|340:204|312:248,1,100,2|8,0:0|0:0,0:0:0:0:
288,288,121116,6,0,P|232:336|160:320,1,150,2|8,0:0|0:0,0:0:0:0:
96,248,121866,2,0,L|44:160,1,100,2|8,0:0|0:0,0:0:0:0:
24,116,122316,2,0,P|48:40|168:104,1,250,2|2,0:0|0:0,0:0:0:0:
188,196,123366,1,8,0:0:0:0:
188,196,123516,6,0,P|240:252|316:272,1,150,4|8,0:0|0:0,0:0:0:0:
408,268,124266,2,0,B|480:244|492:192|492:192|448:152|452:104,1,200,2|2,0:0|0:0,0:0:0:0:
380,52,125166,2,0,P|420:28|480:28,2,100,8|2|8,0:0|0:0|0:0,0:0:0:0:
344,88,125916,6,0,P|280:120|192:96,1,150,2|8,0:0|0:0,0:0:0:0:
136,32,126666,1,2,0:0:0:0:
88,120,126966,1,8,0:0:0:0:
60,216,127266,2,0,B|120:288|204:228|204:228|256:220|296:264,1,250,2|10,0:0|0:0,0:0:0:0:
364,312,128316,6,0,P|436:300|468:224,1,150,4|8,0:0|0:0,0:0:0:0:
460,136,129066,1,2,0:0:0:0:
396,60,129366,1,8,0:0:0:0:
396,60,129516,2,0,P|320:40|252:88,1,150,2|8,0:0|0:0,0:0:0:0:
220,164,130266,1,2,0:0:0:0:
144,96,130566,1,8,0:0:0:0:
144,96,130716,6,0,P|124:140|120:200,1,100,2|0,0:0|0:0,0:0:0:0:
136,236,131166,2,0,P|188:304|296:296,1,200,8|8,0:0|0:0,0:0:0:0:
316,252,131916,2,0,L|332:136,1,100,2|0,0:0|0:0,0:0:0:0:
336,104,132366,2,0,P|408:60|472:144,1,200,8|8,0:0|0:0,0:0:0:0:
476,184,133116,6,0,P|472:264|416:312,1,150,4|8,0:0|0:0,0:0:0:0:
328,332,133866,2,0,L|216:360,1,100,2|8,0:0|0:0,0:0:0:0:
184,368,134316,2,0,P|128:360|88:328,1,100,2|0,0:0|0:0,0:0:0:0:
64,296,134766,1,8,0:0:0:0:
72,196,135066,2,0,L|88:88,1,100,2|8,0:0|0:0,0:0:0:0:
100,48,135516,6,0,P|188:20|256:48,1,150,2|0,0:0|0:0,0:0:0:0:
324,88,136266,1,8,0:0:0:0:
388,164,136566,1,2,0:0:0:0:
256,192,136716,12,0,137766,0:0:0:0:
256,56,147066,6,0,L|256:172,1,100,4|8,0:0|0:0,0:0:0:0:
256,204,147516,6,0,P|272:248|320:280,1,100,4|0,0:0|0:0,0:0:0:0:
364,276,147966,2,0,L|468:244,1,100,8|2,0:0|0:0,0:0:0:0:
484,148,148566,1,8,0:0:0:0:
484,148,148716,2,0,L|388:177,1,100,2|0,0:0|0:0,0:0:0:0:
340,184,149166,2,0,P|288:168|256:124,1,100,8|2,0:0|0:0,0:0:0:0:
264,32,149766,1,8,0:0:0:0:
264,32,149916,6,0,L|116:80,1,150,2|8,0:0|0:0,0:0:0:0:
28,116,150666,2,0,P|24:164|52:220,1,100,2|8,0:0|0:0,0:0:0:0:
92,224,151116,2,0,P|172:228|240:272,1,150,4|8,0:0|0:0,0:0:0:0:
312,324,151866,2,0,P|368:300|392:256,1,100,2|8,0:0|0:0,0:0:0:0:
404,220,152316,6,0,L|444:72,1,150,4|8,0:0|0:0,0:0:0:0:
352,32,153066,2,0,L|320:136,1,100,2|8,0:0|0:0,0:0:0:0:
308,176,153516,2,0,P|272:228|184:216,1,150,2|8,0:0|0:0,0:0:0:0:
148,132,154266,2,0,P|108:164|88:208,1,100,4|8,0:0|0:0,0:0:0:0:
84,256,154716,6,0,P|128:312|208:336,1,150,4|8,0:0|0:0,0:0:0:0:
300,332,155466,1,2,0:0:0:0:
388,288,155766,1,8,0:0:0:0:
388,288,155916,2,0,P|408:224|404:128,1,150,2|8,0:0|0:0,0:0:0:0:
348,60,156666,2,0,P|296:60|248:36,1,100,2|8,0:0|0:0,0:0:0:0:
208,16,157116,6,0,L|160:112,1,100,2|0,0:0|0:0,0:0:0:0:
144,152,157566,2,0,B|116:208|64:212|64:212|36:264|72:304,1,200,8|8,0:0|0:0,0:0:0:0:
112,328,158316,2,0,P|184:352|244:316,1,150,2|8,0:0|0:0,0:0:0:0:
276,224,159066,2,0,P|328:216|384:240,1,100,2|8,0:0|0:0,0:0:0:0:
416,252,159516,6,0,P|480:228|484:144,1,150,4|8,0:0|0:0,0:0:0:0:
408,96,160266,2,0,L|308:64,1,100,2|8,0:0|0:0,0:0:0:0:
264,52,160716,2,0,P|208:92|244:156,1,150,2|8,0:0|0:0,0:0:0:0:
332,192,161466,2,0,P|352:240|340:288,1,100,2|8,0:0|0:0,0:0:0:0:
296,308,161916,6,0,L|188:340,1,100,2|0,0:0|0:0,0:0:0:0:
152,344,162366,2,0,P|68:316|44:200,2,200,8|8|8,0:0|0:0|0:0,0:0:0:0:
252,344,163866,2,0,L|288:248,1,100,4|8,0:0|0:0,0:0:0:0:
304,204,164316,6,0,P|320:132|296:60,1,150,4|8,0:0|0:0,0:0:0:0:
196,44,165066,2,0,L|96:36,1,100,2|8,0:0|0:0,0:0:0:0:
44,36,165516,2,0,P|16:104|36:180,1,150,2|8,0:0|0:0,0:0:0:0:
116,236,166266,1,2,0:0:0:0:
212,208,166566,1,8,0:0:0:0:
212,208,166716,6,0,P|280:216|340:284,1,150,2|8,0:0|0:0,0:0:0:0:
392,352,167466,2,0,P|440:336|472:280,1,100,2|8,0:0|0:0,0:0:0:0:
480,248,167916,2,0,B|504:172|460:112|460:112|400:124|360:64,1,250,2|2,0:0|0:0,0:0:0:0:
280,24,168966,1,8,0:0:0:0:
280,24,169116,6,0,P|220:52|200:132,1,150,4|8,0:0|0:0,0:0:0:0:
264,204,169866,1,2,0:0:0:0:
308,292,170166,1,8,0:0:0:0:
308,292,170316,2,0,P|256:328|176:300,1,150,2|8,0:0|0:0,0:0:0:0:
104,236,171066,1,4,0:0:0:0:
72,140,171366,1,8,0:0:0:0:
72,140,171516,6,0,B|152:80|152:80|208:76,1,150,2|8,0:0|0:0,0:0:0:0:
300,92,172266,2,0,P|352:80|392:48,1,100,2|8,0:0|0:0,0:0:0:0:
424,16,172716,2,0,B|464:112|464:112|452:164,1,150,2|8,0:0|0:0,0:0:0:0:
376,220,173466,2,0,P|336:260|328:308,1,100,4|8,0:0|0:0,0:0:0:0:
288,332,173916,6,0,B|248:235|248:235|203:207,1,150,2|8,0:0|0:0,0:0:0:0:
116,172,174666,1,2,0:0:0:0:
196,112,174966,1,8,0:0:0:0:
256,192,175116,12,4,176316,0:0:0:0:
200,108,177066,6,0,P|256:92|312:116,1,100
324,144,177516,2,0,P|380:160|436:136,1,100,4|0,0:0|0:0,0:0:0:0:
