osu file format v12

[General]
AudioFilename: kami.mp3
AudioLeadIn: 0
PreviewTime: 46942
Countdown: 1
SampleSet: Normal
StackLeniency: 0.7
Mode: 1
LetterboxInBreaks: 1
WidescreenStoryboard: 0

[Editor]
Bookmarks: 3442,61342,80542,90142,118942,133342
DistanceSpacing: 2
BeatDivisor: 4
GridSize: 4
TimelineZoom: 2.599998

[Metadata]
Title:Kami Pera Jinsei Kouryaku
TitleUnicode:紙ペラ人生攻略
Artist:Zips
ArtistUnicode:じっぷす
Creator:birrin
Version:Oni
Source:
Tags:Vocaloid Zips
BeatmapID:421221
BeatmapSetID:174464

[Difficulty]
HPDrainRate:6
CircleSize:5
OverallDifficulty:6
ApproachRate:5
SliderMultiplier:1.7
SliderTickRate:1

[Events]
//Background and Video events
0,0,"Taiko.JPG",0,0
//Break Periods
//Storyboard Layer 0 (Background)
//Storyboard Layer 1 (Fail)
//Storyboard Layer 2 (Pass)
//Storyboard Layer 3 (Foreground)
//Storyboard Sound Samples
//Background Colour Transformations
3,100,163,162,255

[TimingPoints]
142,300,4,1,0,100,1,0
3742,-100,4,1,0,100,0,1
13342,-100,4,1,0,100,0,0
32392,-133.333333333333,4,1,0,100,0,0
39817,-100,4,1,0,100,0,0
46942,-100,4,1,0,100,0,1
59242,-71.4285714285714,4,1,0,100,0,1
61342,-100,4,1,0,100,0,0
80542,-133.333333333333,4,1,0,100,0,0
85342,-90.9090909090909,4,1,0,100,0,0
87742,-66.6666666666667,4,1,0,100,0,0
90142,-100,4,1,0,100,0,0
94942,-100,4,1,0,100,0,1
107242,-71.4285714285714,4,1,0,100,0,1
109342,-100,4,1,0,100,0,1
118942,-133.333333333333,4,1,0,100,0,0
126892,-100,4,1,0,100,0,0
133342,-100,4,1,0,100,0,1
145417,-95.2380952380952,4,1,0,100,0,1
150292,-90.9090909090909,4,1,0,100,0,1
162442,-71.4285714285714,4,1,0,100,0,1

[Colours]
Combo1 : 255,0,0
Combo2 : 0,255,255

[HitObjects]
208,152,3442,5,0,0:0:0:0:
112,152,3742,1,4,0:0:0:0:
164,268,3892,1,8,0:0:0:0:
164,268,3967,1,8,0:0:0:0:
284,200,4042,1,0,0:0:0:0:
232,232,4192,1,0,0:0:0:0:
232,232,4342,1,8,0:0:0:0:
232,232,4492,1,0,0:0:0:0:
232,232,4567,1,0,0:0:0:0:
232,232,4642,1,8,0:0:0:0:
232,232,4792,1,8,0:0:0:0:
424,204,4942,1,0,0:0:0:0:
336,176,5092,1,8,0:0:0:0:
128,160,5242,5,0,0:0:0:0:
244,328,5392,1,8,0:0:0:0:
216,168,5467,1,8,0:0:0:0:
240,88,5542,1,0,0:0:0:0:
132,240,5692,1,8,0:0:0:0:
132,240,5767,1,8,0:0:0:0:
168,312,5842,1,0,0:0:0:0:
344,268,5992,1,8,0:0:0:0:
416,288,6142,1,0,0:0:0:0:
256,272,6292,1,8,0:0:0:0:
284,184,6442,1,0,0:0:0:0:
256,204,6592,1,8,0:0:0:0:
368,188,6742,1,0,0:0:0:0:
336,200,6892,1,8,0:0:0:0:
336,200,6967,1,0,0:0:0:0:
336,200,7042,1,8,0:0:0:0:
284,184,7192,1,0,0:0:0:0:
164,108,7342,1,0,0:0:0:0:
224,124,7492,1,0,0:0:0:0:
312,108,7642,1,8,0:0:0:0:
264,80,7792,1,0,0:0:0:0:
160,192,7942,1,8,0:0:0:0:
160,192,8017,1,8,0:0:0:0:
160,192,8092,1,0,0:0:0:0:
180,252,8242,1,8,0:0:0:0:
180,252,8317,1,8,0:0:0:0:
180,252,8392,1,0,0:0:0:0:
180,252,8467,1,0,0:0:0:0:
236,256,8542,1,0,0:0:0:0:
344,244,8692,1,0,0:0:0:0:
344,244,8767,1,0,0:0:0:0:
344,244,8842,1,8,0:0:0:0:
272,156,8992,1,8,0:0:0:0:
272,156,9067,1,8,0:0:0:0:
272,156,9142,1,0,0:0:0:0:
264,196,9292,1,0,0:0:0:0:
264,196,9367,1,0,0:0:0:0:
264,196,9442,1,8,0:0:0:0:
264,196,9592,1,8,0:0:0:0:
376,180,9742,1,0,0:0:0:0:
336,124,9892,1,8,0:0:0:0:
336,124,9967,1,0,0:0:0:0:
336,124,10042,1,8,0:0:0:0:
204,120,10192,1,8,0:0:0:0:
204,120,10342,1,0,0:0:0:0:
296,104,10492,1,8,0:0:0:0:
152,160,10567,1,8,0:0:0:0:
124,144,10642,1,0,0:0:0:0:
152,160,10792,1,8,0:0:0:0:
208,204,10942,1,0,0:0:0:0:
208,204,11092,1,8,0:0:0:0:
184,232,11242,1,0,0:0:0:0:
152,228,11392,1,8,0:0:0:0:
152,228,11542,1,0,0:0:0:0:
152,228,11692,1,8,0:0:0:0:
152,228,11767,1,8,0:0:0:0:
152,228,11842,1,0,0:0:0:0:
96,200,11917,1,0,0:0:0:0:
152,228,11992,1,8,0:0:0:0:
184,232,12142,1,4,0:0:0:0:
184,232,12292,1,12,0:0:0:0:
184,232,12442,1,12,0:0:0:0:
184,232,12592,1,12,0:0:0:0:
184,232,12742,1,4,0:0:0:0:
164,136,13342,5,0,0:0:0:0:
256,148,13642,1,0,0:0:0:0:
372,148,13942,1,0,0:0:0:0:
268,88,14242,1,0,0:0:0:0:
180,88,14542,1,0,0:0:0:0:
220,176,14842,1,0,0:0:0:0:
220,176,15142,1,0,0:0:0:0:
228,124,15292,1,8,0:0:0:0:
220,176,15442,1,0,0:0:0:0:
228,124,15592,1,8,0:0:0:0:
220,176,15742,1,0,0:0:0:0:
136,188,15892,1,0,0:0:0:0:
168,164,15967,1,8,0:0:0:0:
168,164,16042,1,0,0:0:0:0:
152,108,16192,1,8,0:0:0:0:
152,108,16342,1,0,0:0:0:0:
276,208,16492,1,0,0:0:0:0:
296,192,16567,1,8,0:0:0:0:
296,192,16642,1,0,0:0:0:0:
296,192,16792,1,8,0:0:0:0:
228,124,16942,1,0,0:0:0:0:
304,120,17092,1,8,0:0:0:0:
304,120,17242,1,0,0:0:0:0:
304,120,17392,1,8,0:0:0:0:
304,120,17542,1,0,0:0:0:0:
304,120,17692,1,8,0:0:0:0:
304,120,17767,1,8,0:0:0:0:
304,120,17842,1,8,0:0:0:0:
220,152,17992,1,8,0:0:0:0:
160,124,18142,1,4,0:0:0:0:
160,124,18442,1,0,0:0:0:0:
200,120,18742,1,0,0:0:0:0:
200,120,19042,1,0,0:0:0:0:
160,124,19192,1,8,0:0:0:0:
200,120,19342,1,0,0:0:0:0:
160,124,19492,1,0,0:0:0:0:
160,124,19642,1,8,0:0:0:0:
160,124,19792,1,0,0:0:0:0:
160,124,19942,1,8,0:0:0:0:
200,120,20092,1,8,0:0:0:0:
160,124,20242,1,0,0:0:0:0:
160,124,20392,1,8,0:0:0:0:
160,124,20542,1,0,0:0:0:0:
160,124,20692,1,8,0:0:0:0:
160,124,20767,1,8,0:0:0:0:
160,124,20842,1,0,0:0:0:0:
160,124,20992,1,8,0:0:0:0:
136,164,21142,1,0,0:0:0:0:
108,108,21292,1,8,0:0:0:0:
108,108,21367,1,8,0:0:0:0:
108,108,21442,1,0,0:0:0:0:
232,136,21592,1,8,0:0:0:0:
296,172,21742,1,0,0:0:0:0:
280,96,21892,1,0,0:0:0:0:
280,96,22042,1,8,0:0:0:0:
160,124,22192,1,8,0:0:0:0:
160,124,22267,1,8,0:0:0:0:
160,124,22342,1,0,0:0:0:0:
40,184,22442,1,8,0:0:0:0:
256,200,22492,1,0,0:0:0:0:
256,200,22542,1,0,0:0:0:0:
176,176,22592,1,0,0:0:0:0:
156,224,22642,1,8,0:0:0:0:
368,192,22942,1,4,0:0:0:0:
456,140,23092,1,0,0:0:0:0:
392,176,23242,1,8,0:0:0:0:
280,96,23392,1,8,0:0:0:0:
280,96,23467,1,8,0:0:0:0:
336,96,23542,1,0,0:0:0:0:
336,96,23692,1,0,0:0:0:0:
336,96,23842,1,8,0:0:0:0:
212,128,23992,1,8,0:0:0:0:
280,96,24142,1,0,0:0:0:0:
212,128,24292,1,0,0:0:0:0:
212,128,24442,1,8,0:0:0:0:
136,144,24592,1,0,0:0:0:0:
136,144,24667,1,8,0:0:0:0:
136,144,24742,1,0,0:0:0:0:
136,144,24892,1,0,0:0:0:0:
136,144,25042,1,8,0:0:0:0:
136,144,25192,1,8,0:0:0:0:
192,196,25267,1,8,0:0:0:0:
136,144,25342,1,0,0:0:0:0:
104,180,25492,1,0,0:0:0:0:
104,180,25567,1,0,0:0:0:0:
104,180,25642,1,8,0:0:0:0:
104,180,25792,1,8,0:0:0:0:
104,180,25867,1,8,0:0:0:0:
104,180,25942,1,0,0:0:0:0:
132,216,26092,1,0,0:0:0:0:
132,216,26167,1,0,0:0:0:0:
132,216,26242,1,8,0:0:0:0:
132,216,26392,1,8,0:0:0:0:
268,188,26542,1,0,0:0:0:0:
272,228,26692,1,0,0:0:0:0:
272,228,26842,1,8,0:0:0:0:
188,160,26992,1,8,0:0:0:0:
188,160,27067,1,8,0:0:0:0:
48,152,27142,5,0,0:0:0:0:
48,152,27217,1,0,0:0:0:0:
104,180,27292,1,8,0:0:0:0:
80,168,27367,1,0,0:0:0:0:
72,112,27442,1,8,0:0:0:0:
148,100,27592,1,8,0:0:0:0:
36,184,27742,1,4,0:0:0:0:
256,140,27892,1,0,0:0:0:0:
396,136,28042,1,8,0:0:0:0:
276,112,28192,1,8,0:0:0:0:
276,112,28267,1,8,0:0:0:0:
276,112,28342,1,0,0:0:0:0:
220,88,28492,1,0,0:0:0:0:
220,88,28642,1,8,0:0:0:0:
148,100,28792,1,8,0:0:0:0:
148,100,28942,1,0,0:0:0:0:
104,148,29092,1,8,0:0:0:0:
88,128,29242,1,8,0:0:0:0:
48,144,29392,1,0,0:0:0:0:
48,144,29467,1,8,0:0:0:0:
48,144,29542,1,0,0:0:0:0:
80,100,29692,1,0,0:0:0:0:
80,100,29842,1,8,0:0:0:0:
80,100,29992,1,0,0:0:0:0:
280,120,30142,1,0,0:0:0:0:
216,144,30292,1,0,0:0:0:0:
104,148,30442,1,8,0:0:0:0:
196,88,30592,1,8,0:0:0:0:
196,88,30667,1,8,0:0:0:0:
168,100,30742,1,0,0:0:0:0:
152,160,30892,1,0,0:0:0:0:
152,128,31042,1,8,0:0:0:0:
152,128,31192,1,8,0:0:0:0:
104,148,31267,1,8,0:0:0:0:
152,160,31342,1,0,0:0:0:0:
80,100,31492,1,0,0:0:0:0:
108,76,31642,1,8,0:0:0:0:
112,108,31792,1,0,0:0:0:0:
112,108,31867,1,0,0:0:0:0:
112,108,31942,1,0,0:0:0:0:
108,76,32092,1,0,0:0:0:0:
144,84,32242,1,8,0:0:0:0:
276,180,32542,1,0,0:0:0:0:
228,196,32692,1,0,0:0:0:0:
188,160,32992,1,0,0:0:0:0:
232,120,33142,1,8,0:0:0:0:
184,108,33442,1,0,0:0:0:0:
184,108,33592,1,0,0:0:0:0:
148,144,33892,1,0,0:0:0:0:
116,96,34042,1,8,0:0:0:0:
116,96,34342,1,0,0:0:0:0:
116,96,34492,1,0,0:0:0:0:
116,96,34642,1,8,0:0:0:0:
116,96,34717,1,8,0:0:0:0:
116,96,34792,1,8,0:0:0:0:
116,96,34867,1,8,0:0:0:0:
88,92,34942,1,0,0:0:0:0:
88,92,35092,1,0,0:0:0:0:
88,92,35392,1,0,0:0:0:0:
88,92,35542,1,8,0:0:0:0:
88,92,35842,1,0,0:0:0:0:
88,92,35992,1,0,0:0:0:0:
88,92,36292,1,0,0:0:0:0:
88,92,36442,1,8,0:0:0:0:
88,92,36742,1,0,0:0:0:0:
88,92,36892,1,8,0:0:0:0:
96,128,37042,1,0,0:0:0:0:
192,136,37192,1,8,0:0:0:0:
192,136,37267,1,8,0:0:0:0:
192,136,37342,1,0,0:0:0:0:
88,92,37492,1,0,0:0:0:0:
88,92,37792,1,0,0:0:0:0:
88,92,37942,1,8,0:0:0:0:
88,92,38242,1,0,0:0:0:0:
88,92,38692,1,0,0:0:0:0:
88,92,38842,1,8,0:0:0:0:
88,92,39142,1,0,0:0:0:0:
88,92,39292,1,8,0:0:0:0:
88,92,39367,1,8,0:0:0:0:
88,92,39442,1,0,0:0:0:0:
88,92,39517,1,8,0:0:0:0:
88,92,39592,1,8,0:0:0:0:
88,92,39667,1,8,0:0:0:0:
148,112,39742,1,0,0:0:0:0:
120,152,39892,1,8,0:0:0:0:
56,172,40042,1,8,0:0:0:0:
120,152,40192,1,8,0:0:0:0:
84,140,40492,1,8,0:0:0:0:
84,140,40642,1,8,0:0:0:0:
84,140,40792,1,8,0:0:0:0:
120,152,40942,1,4,0:0:0:0:
216,180,42142,1,4,0:0:0:0:
268,104,42442,1,8,0:0:0:0:
296,176,42592,1,0,0:0:0:0:
80,204,42667,1,8,0:0:0:0:
164,176,42742,1,0,0:0:0:0:
184,160,42892,1,8,0:0:0:0:
184,160,42967,1,8,0:0:0:0:
184,160,43042,1,0,0:0:0:0:
144,108,43192,1,8,0:0:0:0:
48,152,44242,1,0,0:0:0:0:
184,160,44542,1,4,0:0:0:0:
148,156,44692,1,8,0:0:0:0:
148,156,44767,1,8,0:0:0:0:
148,156,44842,1,0,0:0:0:0:
108,96,44992,1,8,0:0:0:0:
108,96,45142,1,0,0:0:0:0:
108,96,45292,1,8,0:0:0:0:
108,96,45367,1,8,0:0:0:0:
108,96,45442,1,0,0:0:0:0:
108,96,45592,1,8,0:0:0:0:
108,96,45742,1,0,0:0:0:0:
108,96,46042,1,0,0:0:0:0:
108,96,46342,1,0,0:0:0:0:
140,96,46492,1,8,0:0:0:0:
140,96,46567,1,8,0:0:0:0:
140,96,46642,1,0,0:0:0:0:
108,96,46792,1,8,0:0:0:0:
108,96,46942,1,0,0:0:0:0:
128,128,47092,1,0,0:0:0:0:
180,96,47242,1,8,0:0:0:0:
180,96,47392,1,0,0:0:0:0:
180,96,47467,1,0,0:0:0:0:
180,96,47542,1,0,0:0:0:0:
180,96,47692,1,0,0:0:0:0:
180,96,47842,1,8,0:0:0:0:
180,96,47992,1,8,0:0:0:0:
180,96,48142,1,0,0:0:0:0:
180,96,48292,1,0,0:0:0:0:
152,72,48442,1,8,0:0:0:0:
152,72,48592,1,0,0:0:0:0:
120,64,48667,1,8,0:0:0:0:
120,64,48742,1,0,0:0:0:0:
168,128,48892,1,8,0:0:0:0:
180,96,49042,1,0,0:0:0:0:
180,96,49192,1,8,0:0:0:0:
180,96,49267,1,8,0:0:0:0:
180,96,49342,1,0,0:0:0:0:
180,96,49492,1,0,0:0:0:0:
180,96,49642,1,8,0:0:0:0:
180,96,49792,1,0,0:0:0:0:
180,96,49867,1,0,0:0:0:0:
152,72,49942,1,0,0:0:0:0:
168,128,50092,1,0,0:0:0:0:
120,64,50242,1,8,0:0:0:0:
120,64,50317,1,8,0:0:0:0:
120,64,50392,1,0,0:0:0:0:
120,64,50467,1,0,0:0:0:0:
36,140,50692,1,0,0:0:0:0:
92,152,50842,1,8,0:0:0:0:
208,172,50992,1,0,0:0:0:0:
208,172,51067,1,0,0:0:0:0:
208,172,51142,1,8,0:0:0:0:
208,172,51217,1,8,0:0:0:0:
208,172,51292,1,0,0:0:0:0:
224,120,51442,1,8,0:0:0:0:
224,120,51592,1,8,0:0:0:0:
204,100,51742,1,4,0:0:0:0:
300,172,51892,1,0,0:0:0:0:
272,144,52042,1,8,0:0:0:0:
272,144,52192,1,0,0:0:0:0:
272,144,52267,1,0,0:0:0:0:
272,144,52342,1,0,0:0:0:0:
272,144,52492,1,0,0:0:0:0:
272,144,52642,1,8,0:0:0:0:
272,144,52792,1,8,0:0:0:0:
56,148,52942,1,0,0:0:0:0:
132,128,53092,1,0,0:0:0:0:
228,112,53242,1,8,0:0:0:0:
200,108,53392,1,0,0:0:0:0:
200,108,53467,1,8,0:0:0:0:
200,108,53542,1,0,0:0:0:0:
160,80,53692,1,0,0:0:0:0:
200,108,53842,1,8,0:0:0:0:
84,132,53992,1,8,0:0:0:0:
288,204,54142,1,0,0:0:0:0:
272,144,54292,1,8,0:0:0:0:
280,140,54442,1,0,0:0:0:0:
272,144,54592,1,8,0:0:0:0:
280,140,54742,1,0,0:0:0:0:
272,144,54892,1,8,0:0:0:0:
280,140,55042,1,0,0:0:0:0:
280,140,55192,1,8,0:0:0:0:
280,140,55267,1,8,0:0:0:0:
280,140,55342,1,0,0:0:0:0:
272,144,55492,1,0,0:0:0:0:
272,144,55642,1,8,0:0:0:0:
116,144,55792,1,0,0:0:0:0:
116,144,55942,1,0,0:0:0:0:
116,144,56092,1,0,0:0:0:0:
116,144,56242,1,8,0:0:0:0:
116,144,56392,1,0,0:0:0:0:
116,144,56467,1,0,0:0:0:0:
116,144,56542,1,0,0:0:0:0:
116,144,56692,1,0,0:0:0:0:
116,144,56842,1,8,0:0:0:0:
116,144,56917,1,8,0:0:0:0:
144,164,56992,1,0,0:0:0:0:
144,164,57067,1,0,0:0:0:0:
144,164,57142,1,0,0:0:0:0:
268,216,57442,1,12,0:0:0:0:
256,144,57742,1,0,0:0:0:0:
200,132,58042,1,0,0:0:0:0:
200,132,58342,1,8,0:0:0:0:
88,224,58492,1,0,0:0:0:0:
144,216,58642,1,8,0:0:0:0:
144,280,58792,1,8,0:0:0:0:
144,280,58867,1,8,0:0:0:0:
144,280,58942,1,0,0:0:0:0:
88,224,59242,1,0,0:0:0:0:
88,224,59392,1,0,0:0:0:0:
88,224,59542,1,0,0:0:0:0:
88,224,59692,1,0,0:0:0:0:
88,224,59842,1,0,0:0:0:0:
88,224,59992,1,0,0:0:0:0:
88,224,60142,1,0,0:0:0:0:
88,224,60292,1,0,0:0:0:0:
88,224,60442,1,0,0:0:0:0:
64,240,60592,1,0,0:0:0:0:
152,192,60742,1,12,0:0:0:0:
216,168,60892,1,12,0:0:0:0:
164,136,61342,5,4,0:0:0:0:
256,148,61642,1,0,0:0:0:0:
216,168,61792,1,8,0:0:0:0:
372,148,61942,1,0,0:0:0:0:
268,88,62242,1,0,0:0:0:0:
328,220,62392,1,8,0:0:0:0:
180,88,62542,1,0,0:0:0:0:
296,220,62692,1,8,0:0:0:0:
220,176,62842,1,0,0:0:0:0:
220,176,63142,1,0,0:0:0:0:
228,124,63292,1,8,0:0:0:0:
220,176,63442,1,0,0:0:0:0:
228,124,63592,1,8,0:0:0:0:
220,176,63742,1,0,0:0:0:0:
136,188,63892,1,0,0:0:0:0:
168,164,63967,1,8,0:0:0:0:
168,164,64042,1,0,0:0:0:0:
152,108,64192,1,8,0:0:0:0:
152,108,64342,1,0,0:0:0:0:
276,208,64492,1,0,0:0:0:0:
296,192,64567,1,8,0:0:0:0:
296,192,64642,1,0,0:0:0:0:
296,192,64792,1,8,0:0:0:0:
228,124,64942,1,0,0:0:0:0:
304,120,65092,1,8,0:0:0:0:
304,120,65242,1,0,0:0:0:0:
304,120,65392,1,8,0:0:0:0:
304,120,65542,1,0,0:0:0:0:
304,120,65692,1,0,0:0:0:0:
304,120,65767,1,0,0:0:0:0:
304,120,65842,1,0,0:0:0:0:
220,152,65992,1,8,0:0:0:0:
160,124,66142,1,4,0:0:0:0:
160,124,66442,1,0,0:0:0:0:
200,120,66742,1,0,0:0:0:0:
200,120,67042,1,0,0:0:0:0:
160,124,67192,1,8,0:0:0:0:
200,120,67342,1,0,0:0:0:0:
160,124,67492,1,0,0:0:0:0:
160,124,67642,1,8,0:0:0:0:
160,124,67792,1,0,0:0:0:0:
160,124,67942,1,8,0:0:0:0:
200,120,68092,1,8,0:0:0:0:
160,124,68242,1,0,0:0:0:0:
160,124,68392,1,8,0:0:0:0:
160,124,68542,1,0,0:0:0:0:
160,124,68692,1,8,0:0:0:0:
160,124,68767,1,8,0:0:0:0:
160,124,68842,1,0,0:0:0:0:
160,124,68992,1,8,0:0:0:0:
136,164,69142,1,0,0:0:0:0:
108,108,69292,1,8,0:0:0:0:
108,108,69367,1,8,0:0:0:0:
108,108,69442,1,0,0:0:0:0:
232,136,69592,1,8,0:0:0:0:
296,172,69742,1,0,0:0:0:0:
280,96,69892,1,0,0:0:0:0:
280,96,70042,1,8,0:0:0:0:
160,124,70192,1,8,0:0:0:0:
160,124,70267,1,8,0:0:0:0:
160,124,70342,1,0,0:0:0:0:
40,184,70442,1,8,0:0:0:0:
256,200,70492,1,0,0:0:0:0:
256,200,70542,1,0,0:0:0:0:
176,176,70592,1,0,0:0:0:0:
156,224,70642,1,8,0:0:0:0:
368,192,70942,1,4,0:0:0:0:
456,140,71092,1,0,0:0:0:0:
392,176,71242,1,8,0:0:0:0:
280,96,71392,1,8,0:0:0:0:
280,96,71467,1,8,0:0:0:0:
336,96,71542,1,0,0:0:0:0:
336,96,71692,1,0,0:0:0:0:
336,96,71842,1,8,0:0:0:0:
212,128,71992,1,8,0:0:0:0:
280,96,72142,1,0,0:0:0:0:
212,128,72292,1,0,0:0:0:0:
212,128,72442,1,8,0:0:0:0:
136,144,72592,1,0,0:0:0:0:
136,144,72667,1,8,0:0:0:0:
136,144,72742,1,0,0:0:0:0:
136,144,72892,1,0,0:0:0:0:
136,144,73042,1,8,0:0:0:0:
136,144,73192,1,8,0:0:0:0:
192,196,73267,1,8,0:0:0:0:
136,144,73342,1,0,0:0:0:0:
104,180,73492,1,0,0:0:0:0:
104,180,73567,1,0,0:0:0:0:
104,180,73642,1,8,0:0:0:0:
104,180,73792,1,8,0:0:0:0:
104,180,73867,1,8,0:0:0:0:
104,180,73942,1,0,0:0:0:0:
132,216,74092,1,0,0:0:0:0:
132,216,74167,1,0,0:0:0:0:
132,216,74242,1,8,0:0:0:0:
132,216,74392,1,8,0:0:0:0:
268,188,74542,1,0,0:0:0:0:
272,228,74692,1,0,0:0:0:0:
272,228,74842,1,8,0:0:0:0:
188,160,74992,1,8,0:0:0:0:
188,160,75067,1,8,0:0:0:0:
48,152,75142,5,0,0:0:0:0:
48,152,75217,1,0,0:0:0:0:
104,180,75292,1,8,0:0:0:0:
80,168,75367,1,0,0:0:0:0:
72,112,75442,1,8,0:0:0:0:
148,100,75592,1,8,0:0:0:0:
36,184,75742,1,4,0:0:0:0:
256,140,75892,1,0,0:0:0:0:
396,136,76042,1,8,0:0:0:0:
276,112,76192,1,8,0:0:0:0:
276,112,76267,1,8,0:0:0:0:
276,112,76342,1,0,0:0:0:0:
220,88,76492,1,0,0:0:0:0:
220,88,76642,1,8,0:0:0:0:
148,100,76792,1,8,0:0:0:0:
148,100,76942,1,0,0:0:0:0:
104,148,77092,1,8,0:0:0:0:
88,128,77242,1,8,0:0:0:0:
48,144,77392,1,0,0:0:0:0:
48,144,77467,1,8,0:0:0:0:
48,144,77542,1,0,0:0:0:0:
80,100,77692,1,0,0:0:0:0:
80,100,77842,1,8,0:0:0:0:
80,100,77992,1,0,0:0:0:0:
280,120,78142,1,8,0:0:0:0:
216,144,78292,1,0,0:0:0:0:
104,148,78442,1,8,0:0:0:0:
196,88,78592,1,8,0:0:0:0:
196,88,78667,1,8,0:0:0:0:
168,100,78742,1,0,0:0:0:0:
152,160,78892,1,0,0:0:0:0:
152,128,79042,1,8,0:0:0:0:
152,128,79192,1,8,0:0:0:0:
104,148,79267,1,8,0:0:0:0:
152,160,79342,1,0,0:0:0:0:
80,100,79492,1,0,0:0:0:0:
108,76,79642,1,8,0:0:0:0:
112,108,79792,1,0,0:0:0:0:
112,108,79867,1,0,0:0:0:0:
112,108,79942,1,0,0:0:0:0:
108,76,80092,1,0,0:0:0:0:
144,84,80242,1,8,0:0:0:0:
272,184,80542,1,4,0:0:0:0:
272,184,80992,1,0,0:0:0:0:
240,196,81142,1,8,0:0:0:0:
272,212,81742,1,0,0:0:0:0:
208,192,82192,1,0,0:0:0:0:
208,192,82242,1,0,0:0:0:0:
208,192,82292,1,0,0:0:0:0:
208,192,82342,1,8,0:0:0:0:
200,132,82642,1,0,0:0:0:0:
228,128,82942,1,4,0:0:0:0:
248,160,83392,1,8,0:0:0:0:
248,160,83692,1,0,0:0:0:0:
248,160,83992,1,0,0:0:0:0:
248,160,84292,1,0,0:0:0:0:
248,160,84592,1,0,0:0:0:0:
156,160,84892,1,8,0:0:0:0:
216,128,85042,1,0,0:0:0:0:
216,128,85192,1,8,0:0:0:0:
216,128,85342,1,4,0:0:0:0:
192,168,85642,1,0,0:0:0:0:
280,136,85942,1,0,0:0:0:0:
280,136,86242,1,0,0:0:0:0:
280,136,86542,1,0,0:0:0:0:
280,136,86842,1,0,0:0:0:0:
280,136,87142,1,0,0:0:0:0:
280,136,87292,1,8,0:0:0:0:
280,136,87367,1,8,0:0:0:0:
280,136,87442,1,0,0:0:0:0:
280,136,87517,1,8,0:0:0:0:
280,136,87592,1,8,0:0:0:0:
280,136,87667,1,8,0:0:0:0:
200,156,88492,1,8,0:0:0:0:
280,136,88642,1,8,0:0:0:0:
280,136,88792,1,8,0:0:0:0:
280,136,88942,1,4,0:0:0:0:
136,180,90142,1,4,0:0:0:0:
224,164,90292,1,0,0:0:0:0:
224,164,90442,1,8,0:0:0:0:
224,164,90592,1,0,0:0:0:0:
224,164,90667,1,8,0:0:0:0:
224,164,90742,1,0,0:0:0:0:
236,196,90892,1,8,0:0:0:0:
236,196,90967,1,8,0:0:0:0:
236,196,91042,1,0,0:0:0:0:
236,196,91192,1,8,0:0:0:0:
236,196,91342,1,0,0:0:0:0:
224,164,91492,1,0,0:0:0:0:
224,164,91567,1,0,0:0:0:0:
224,164,91642,1,0,0:0:0:0:
224,164,91792,1,0,0:0:0:0:
224,164,91942,1,8,0:0:0:0:
224,164,92092,1,8,0:0:0:0:
224,164,92242,1,0,0:0:0:0:
224,164,92392,1,8,0:0:0:0:
224,164,92542,1,0,0:0:0:0:
224,164,92692,1,8,0:0:0:0:
224,164,92767,1,8,0:0:0:0:
224,164,92842,1,0,0:0:0:0:
224,164,92992,1,8,0:0:0:0:
224,164,93142,1,0,0:0:0:0:
200,152,93292,1,8,0:0:0:0:
224,164,93367,1,8,0:0:0:0:
200,152,93442,1,0,0:0:0:0:
200,152,93592,1,8,0:0:0:0:
200,180,93742,1,0,0:0:0:0:
296,164,94042,1,0,0:0:0:0:
296,164,94342,1,0,0:0:0:0:
296,164,94492,1,8,0:0:0:0:
296,164,94567,1,8,0:0:0:0:
296,164,94642,1,8,0:0:0:0:
248,128,94792,1,8,0:0:0:0:
152,156,94942,1,0,0:0:0:0:
200,152,95092,1,0,0:0:0:0:
200,180,95242,1,8,0:0:0:0:
200,152,95392,1,0,0:0:0:0:
200,152,95467,1,0,0:0:0:0:
200,152,95542,1,0,0:0:0:0:
200,152,95692,1,0,0:0:0:0:
200,152,95842,1,8,0:0:0:0:
200,152,95992,1,8,0:0:0:0:
200,152,96067,1,8,0:0:0:0:
200,152,96142,1,0,0:0:0:0:
200,152,96292,1,8,0:0:0:0:
200,152,96442,1,0,0:0:0:0:
200,152,96592,1,8,0:0:0:0:
200,152,96742,1,0,0:0:0:0:
200,152,96892,1,0,0:0:0:0:
200,152,96967,1,0,0:0:0:0:
200,152,97042,1,8,0:0:0:0:
88,144,97192,1,8,0:0:0:0:
160,144,97342,1,0,0:0:0:0:
236,144,97492,1,8,0:0:0:0:
200,152,97642,1,0,0:0:0:0:
144,96,97792,1,8,0:0:0:0:
172,84,97867,1,8,0:0:0:0:
172,84,97942,1,0,0:0:0:0:
204,92,98092,1,8,0:0:0:0:
204,92,98167,1,8,0:0:0:0:
204,92,98242,1,0,0:0:0:0:
256,124,98317,1,8,0:0:0:0:
204,92,98392,1,0,0:0:0:0:
204,92,98467,1,8,0:0:0:0:
36,140,98692,1,0,0:0:0:0:
92,152,98842,1,8,0:0:0:0:
208,172,98992,1,0,0:0:0:0:
208,172,99067,1,0,0:0:0:0:
208,172,99142,1,8,0:0:0:0:
208,172,99217,1,8,0:0:0:0:
208,172,99292,1,0,0:0:0:0:
100,180,99442,1,8,0:0:0:0:
100,120,99592,1,8,0:0:0:0:
204,100,99742,1,4,0:0:0:0:
128,168,99892,1,8,0:0:0:0:
188,148,100042,1,0,0:0:0:0:
52,120,100192,1,8,0:0:0:0:
108,68,100267,1,8,0:0:0:0:
108,68,100342,1,0,0:0:0:0:
48,240,100492,1,8,0:0:0:0:
48,240,100642,1,0,0:0:0:0:
48,240,100792,1,8,0:0:0:0:
24,220,100942,1,0,0:0:0:0:
128,168,101092,1,8,0:0:0:0:
128,168,101167,1,8,0:0:0:0:
128,168,101242,1,0,0:0:0:0:
128,168,101392,1,8,0:0:0:0:
128,168,101467,1,8,0:0:0:0:
128,168,101542,1,0,0:0:0:0:
88,160,101692,1,8,0:0:0:0:
88,160,101842,1,8,0:0:0:0:
88,160,101992,1,8,0:0:0:0:
188,152,102142,1,0,0:0:0:0:
160,148,102292,1,0,0:0:0:0:
160,148,102367,1,0,0:0:0:0:
160,148,102442,1,8,0:0:0:0:
160,148,102592,1,0,0:0:0:0:
160,148,102667,1,8,0:0:0:0:
160,148,102742,1,0,0:0:0:0:
212,188,102892,1,8,0:0:0:0:
212,188,102967,1,8,0:0:0:0:
212,188,103042,1,0,0:0:0:0:
212,188,103192,1,8,0:0:0:0:
160,148,103342,1,0,0:0:0:0:
232,108,103492,1,0,0:0:0:0:
232,108,103567,1,0,0:0:0:0:
232,108,103642,1,0,0:0:0:0:
232,108,103792,1,0,0:0:0:0:
232,108,103942,1,8,0:0:0:0:
88,88,104092,1,0,0:0:0:0:
88,88,104167,1,0,0:0:0:0:
88,88,104242,1,0,0:0:0:0:
164,92,104392,1,8,0:0:0:0:
164,92,104542,1,0,0:0:0:0:
232,108,104617,1,0,0:0:0:0:
232,108,104692,1,0,0:0:0:0:
232,108,104767,1,0,0:0:0:0:
232,108,104842,1,0,0:0:0:0:
232,108,104917,1,0,0:0:0:0:
136,128,104992,1,0,0:0:0:0:
136,128,105067,1,0,0:0:0:0:
136,128,105142,1,8,0:0:0:0:
136,128,105442,1,8,0:0:0:0:
172,148,105742,1,8,0:0:0:0:
172,148,105817,1,8,0:0:0:0:
172,148,105892,1,8,0:0:0:0:
172,148,105967,1,8,0:0:0:0:
172,148,106042,1,8,0:0:0:0:
172,148,106117,1,8,0:0:0:0:
172,148,106192,1,8,0:0:0:0:
172,148,106267,1,8,0:0:0:0:
172,148,106342,1,0,0:0:0:0:
172,148,106492,1,8,0:0:0:0:
144,168,106642,1,0,0:0:0:0:
216,136,106792,1,8,0:0:0:0:
216,136,106867,1,8,0:0:0:0:
216,136,106942,1,0,0:0:0:0:
264,196,107242,1,0,0:0:0:0:
316,200,107392,1,0,0:0:0:0:
216,136,107542,1,0,0:0:0:0:
264,196,107692,1,0,0:0:0:0:
264,196,107842,1,0,0:0:0:0:
264,196,107992,1,0,0:0:0:0:
264,196,108142,1,0,0:0:0:0:
264,196,108292,1,0,0:0:0:0:
264,196,108442,1,0,0:0:0:0:
264,196,108592,1,0,0:0:0:0:
264,196,108742,1,12,0:0:0:0:
264,196,108892,1,12,0:0:0:0:
168,188,109342,1,0,0:0:0:0:
200,208,109417,1,0,0:0:0:0:
200,208,109492,1,0,0:0:0:0:
200,208,109567,1,0,0:0:0:0:
200,208,109642,1,8,0:0:0:0:
248,220,109942,1,0,0:0:0:0:
248,220,110017,1,0,0:0:0:0:
248,220,110092,1,0,0:0:0:0:
248,220,110167,1,0,0:0:0:0:
248,220,110242,1,8,0:0:0:0:
248,220,110542,1,0,0:0:0:0:
240,272,110617,1,8,0:0:0:0:
304,232,110692,1,8,0:0:0:0:
304,232,110767,1,8,0:0:0:0:
304,232,110842,1,0,0:0:0:0:
200,176,110992,1,8,0:0:0:0:
200,176,111067,1,8,0:0:0:0:
260,152,111142,1,0,0:0:0:0:
176,128,111292,1,0,0:0:0:0:
236,100,111342,1,0,0:0:0:0:
292,148,111392,1,0,0:0:0:0:
344,116,111442,1,8,0:0:0:0:
108,204,111592,1,8,0:0:0:0:
108,204,111742,1,0,0:0:0:0:
136,152,111817,1,0,0:0:0:0:
136,152,111892,1,0,0:0:0:0:
136,152,111967,1,0,0:0:0:0:
136,152,112042,1,8,0:0:0:0:
200,176,112342,1,8,0:0:0:0:
260,152,112417,1,8,0:0:0:0:
324,220,112492,1,8,0:0:0:0:
224,280,112567,1,8,0:0:0:0:
276,200,112642,1,0,0:0:0:0:
344,148,112942,1,8,0:0:0:0:
408,232,113017,1,8,0:0:0:0:
312,268,113092,1,8,0:0:0:0:
236,224,113167,1,8,0:0:0:0:
260,152,113242,1,0,0:0:0:0:
64,152,113392,1,8,0:0:0:0:
64,152,113467,1,8,0:0:0:0:
176,96,113542,1,0,0:0:0:0:
176,96,113692,1,8,0:0:0:0:
288,136,113842,1,8,0:0:0:0:
248,128,113992,1,0,0:0:0:0:
248,128,114067,1,8,0:0:0:0:
248,128,114142,1,0,0:0:0:0:
140,184,114292,1,8,0:0:0:0:
192,184,114367,1,8,0:0:0:0:
128,268,114442,1,0,0:0:0:0:
124,204,114592,1,8,0:0:0:0:
140,184,114742,1,0,0:0:0:0:
140,184,114892,1,8,0:0:0:0:
140,184,114967,1,8,0:0:0:0:
140,184,115042,1,0,0:0:0:0:
140,184,115192,1,8,0:0:0:0:
140,184,115342,1,0,0:0:0:0:
140,184,115492,1,8,0:0:0:0:
140,184,115567,1,0,0:0:0:0:
140,184,115642,1,0,0:0:0:0:
140,184,115792,1,8,0:0:0:0:
192,184,115942,1,0,0:0:0:0:
240,192,116092,1,8,0:0:0:0:
240,192,116167,1,0,0:0:0:0:
240,192,116242,1,8,0:0:0:0:
240,192,116392,1,0,0:0:0:0:
296,128,116542,1,0,0:0:0:0:
324,168,116617,1,0,0:0:0:0:
324,168,116692,1,0,0:0:0:0:
324,168,116767,1,0,0:0:0:0:
360,220,116842,1,8,0:0:0:0:
140,184,117142,1,0,0:0:0:0:
140,184,117217,1,0,0:0:0:0:
140,184,117292,1,0,0:0:0:0:
140,184,117367,1,0,0:0:0:0:
140,184,117442,1,8,0:0:0:0:
216,272,117742,1,0,0:0:0:0:
272,208,117892,1,0,0:0:0:0:
240,192,117967,1,0,0:0:0:0:
360,220,118042,1,8,0:0:0:0:
188,156,118117,1,8,0:0:0:0:
340,104,118192,1,0,0:0:0:0:
216,136,118267,1,0,0:0:0:0:
216,136,118342,1,8,0:0:0:0:
216,136,118942,1,4,0:0:0:0:
336,152,119092,1,0,0:0:0:0:
288,164,119392,1,0,0:0:0:0:
396,152,119542,1,8,0:0:0:0:
396,208,119842,1,8,0:0:0:0:
248,216,119992,1,0,0:0:0:0:
184,148,120292,1,0,0:0:0:0:
216,136,120442,1,8,0:0:0:0:
112,208,120742,1,0,0:0:0:0:
132,128,120892,1,0,0:0:0:0:
208,216,121042,1,8,0:0:0:0:
208,216,121117,1,8,0:0:0:0:
208,248,121192,1,8,0:0:0:0:
208,216,121267,1,8,0:0:0:0:
296,168,121342,1,0,0:0:0:0:
384,184,121492,1,0,0:0:0:0:
308,104,121792,1,0,0:0:0:0:
184,136,121942,1,8,0:0:0:0:
236,92,122017,1,8,0:0:0:0:
148,88,122092,1,8,0:0:0:0:
96,104,122167,1,8,0:0:0:0:
160,112,122242,1,0,0:0:0:0:
20,172,122442,1,0,0:0:0:0:
224,192,122692,1,0,0:0:0:0:
260,104,122842,1,8,0:0:0:0:
112,188,123142,1,0,0:0:0:0:
200,232,123292,1,8,0:0:0:0:
304,172,123442,1,0,0:0:0:0:
304,172,123592,1,8,0:0:0:0:
112,188,123667,1,8,0:0:0:0:
128,168,123742,1,0,0:0:0:0:
224,192,123892,1,0,0:0:0:0:
416,192,124192,1,0,0:0:0:0:
232,104,124342,1,8,0:0:0:0:
308,136,124642,1,0,0:0:0:0:
308,136,124792,1,0,0:0:0:0:
364,144,125092,1,0,0:0:0:0:
364,144,125167,1,0,0:0:0:0:
176,180,125242,1,8,0:0:0:0:
88,236,125542,1,0,0:0:0:0:
184,232,125692,1,8,0:0:0:0:
272,208,125842,1,8,0:0:0:0:
336,188,125917,1,8,0:0:0:0:
336,188,125992,1,8,0:0:0:0:
336,188,126067,1,8,0:0:0:0:
336,188,126142,1,0,0:0:0:0:
208,84,126292,1,0,0:0:0:0:
312,104,126442,1,8,0:0:0:0:
120,120,126592,1,8,0:0:0:0:
48,172,126892,1,8,0:0:0:0:
196,168,127042,1,0,0:0:0:0:
228,192,127192,1,0,0:0:0:0:
256,192,127342,12,0,128542,0:0:0:0:
144,180,130642,5,12,0:0:0:0:
240,140,130792,1,0,0:0:0:0:
376,172,130942,1,4,0:0:0:0:
252,212,131092,1,8,0:0:0:0:
312,220,131167,1,8,0:0:0:0:
376,172,131242,1,0,0:0:0:0:
336,100,131392,1,8,0:0:0:0:
188,108,131542,1,0,0:0:0:0:
260,76,131692,1,8,0:0:0:0:
292,128,131767,1,8,0:0:0:0:
320,152,131842,1,0,0:0:0:0:
440,112,131992,1,8,0:0:0:0:
172,168,132142,1,4,0:0:0:0:
160,224,132442,1,12,0:0:0:0:
268,312,132742,1,4,0:0:0:0:
88,136,132892,1,8,0:0:0:0:
88,136,132967,1,8,0:0:0:0:
144,140,133042,1,0,0:0:0:0:
232,176,133192,1,8,0:0:0:0:
292,128,133342,1,4,0:0:0:0:
248,88,133492,1,8,0:0:0:0:
248,88,133642,1,0,0:0:0:0:
372,160,133792,1,0,0:0:0:0:
372,160,133867,1,8,0:0:0:0:
372,160,133942,1,0,0:0:0:0:
124,72,134092,1,8,0:0:0:0:
124,72,134167,1,8,0:0:0:0:
124,72,134242,1,0,0:0:0:0:
176,208,134392,1,8,0:0:0:0:
236,220,134542,1,0,0:0:0:0:
360,240,134692,1,8,0:0:0:0:
308,192,134842,1,0,0:0:0:0:
228,120,134992,1,8,0:0:0:0:
228,120,135142,1,0,0:0:0:0:
152,140,135292,1,8,0:0:0:0:
152,140,135367,1,8,0:0:0:0:
152,140,135442,1,8,0:0:0:0:
276,152,135592,1,0,0:0:0:0:
332,140,135742,1,8,0:0:0:0:
140,104,135892,1,8,0:0:0:0:
140,104,135967,1,8,0:0:0:0:
140,104,136042,1,0,0:0:0:0:
76,128,136192,1,8,0:0:0:0:
120,208,136342,1,0,0:0:0:0:
200,224,136492,1,8,0:0:0:0:
200,224,136567,1,8,0:0:0:0:
200,224,136642,1,0,0:0:0:0:
228,120,136717,1,0,0:0:0:0:
236,160,136792,1,8,0:0:0:0:
236,160,136867,1,8,0:0:0:0:
332,140,137092,1,0,0:0:0:0:
268,232,137242,1,8,0:0:0:0:
200,224,137392,1,0,0:0:0:0:
156,188,137467,1,0,0:0:0:0:
156,188,137542,1,0,0:0:0:0:
156,188,137617,1,0,0:0:0:0:
200,168,137692,1,8,0:0:0:0:
200,168,137767,1,0,0:0:0:0:
200,168,137842,1,0,0:0:0:0:
288,160,137992,1,8,0:0:0:0:
92,192,138142,1,0,0:0:0:0:
272,112,138292,1,8,0:0:0:0:
376,200,138442,1,0,0:0:0:0:
376,200,138592,1,8,0:0:0:0:
164,116,138742,1,0,0:0:0:0:
216,104,138892,1,8,0:0:0:0:
216,104,138967,1,8,0:0:0:0:
216,104,139042,1,0,0:0:0:0:
392,96,139192,1,8,0:0:0:0:
388,152,139342,1,0,0:0:0:0:
232,192,139492,1,8,0:0:0:0:
232,192,139567,1,8,0:0:0:0:
232,192,139642,1,0,0:0:0:0:
256,220,139792,1,8,0:0:0:0:
308,156,139942,1,0,0:0:0:0:
136,108,140092,1,8,0:0:0:0:
164,116,140167,1,8,0:0:0:0:
164,116,140242,1,8,0:0:0:0:
76,92,140392,1,8,0:0:0:0:
240,80,140542,1,0,0:0:0:0:
176,216,140692,1,0,0:0:0:0:
228,144,140842,1,8,0:0:0:0:
72,200,140992,1,0,0:0:0:0:
72,200,141067,1,0,0:0:0:0:
72,200,141142,1,0,0:0:0:0:
304,212,141292,1,8,0:0:0:0:
256,220,141367,1,8,0:0:0:0:
400,216,141442,1,0,0:0:0:0:
204,184,141592,1,8,0:0:0:0:
132,200,141667,1,8,0:0:0:0:
92,136,141742,1,0,0:0:0:0:
188,120,141892,1,8,0:0:0:0:
228,144,142042,1,0,0:0:0:0:
132,96,142117,1,0,0:0:0:0:
132,96,142192,1,0,0:0:0:0:
132,96,142267,1,0,0:0:0:0:
132,96,142342,1,8,0:0:0:0:
132,96,142417,1,8,0:0:0:0:
132,96,142492,1,8,0:0:0:0:
132,96,142567,1,8,0:0:0:0:
132,96,142642,1,0,0:0:0:0:
36,124,142792,1,8,0:0:0:0:
132,152,142942,1,0,0:0:0:0:
96,164,143017,1,0,0:0:0:0:
96,164,143092,1,0,0:0:0:0:
96,164,143167,1,0,0:0:0:0:
168,168,143242,1,0,0:0:0:0:
168,168,143317,1,0,0:0:0:0:
168,168,143392,1,0,0:0:0:0:
168,168,143467,1,0,0:0:0:0:
228,144,143542,1,8,0:0:0:0:
280,144,143842,1,8,0:0:0:0:
152,120,144142,1,8,0:0:0:0:
152,120,144217,1,8,0:0:0:0:
152,120,144292,1,0,0:0:0:0:
152,120,144367,1,0,0:0:0:0:
152,120,144442,1,8,0:0:0:0:
152,120,144517,1,8,0:0:0:0:
152,120,144592,1,0,0:0:0:0:
152,120,144667,1,0,0:0:0:0:
152,120,144742,1,8,0:0:0:0:
152,120,144817,1,8,0:0:0:0:
152,120,144892,1,0,0:0:0:0:
152,120,145042,1,8,0:0:0:0:
120,184,145117,1,8,0:0:0:0:
120,184,145192,1,0,0:0:0:0:
212,160,145267,1,8,0:0:0:0:
212,160,145342,1,0,0:0:0:0:
204,204,145492,1,8,0:0:0:0:
336,172,145642,1,0,0:0:0:0:
280,100,145792,1,8,0:0:0:0:
336,172,145942,1,0,0:0:0:0:
248,180,146092,1,8,0:0:0:0:
248,180,146167,1,8,0:0:0:0:
248,180,146242,1,0,0:0:0:0:
400,184,146392,1,8,0:0:0:0:
140,168,146542,1,0,0:0:0:0:
160,260,146692,1,8,0:0:0:0:
52,232,146842,1,8,0:0:0:0:
268,248,146992,1,8,0:0:0:0:
464,248,147142,1,0,0:0:0:0:
140,168,147292,1,8,0:0:0:0:
160,188,147367,1,8,0:0:0:0:
160,188,147442,1,0,0:0:0:0:
240,140,147592,1,8,0:0:0:0:
348,160,147742,1,0,0:0:0:0:
80,184,147892,1,0,0:0:0:0:
80,184,147967,1,8,0:0:0:0:
80,184,148042,1,0,0:0:0:0:
140,168,148192,1,8,0:0:0:0:
272,216,148342,1,0,0:0:0:0:
224,208,148492,1,8,0:0:0:0:
224,208,148567,1,8,0:0:0:0:
224,208,148642,1,0,0:0:0:0:
240,140,148792,1,8,0:0:0:0:
376,212,148942,1,4,0:0:0:0:
148,208,149242,1,4,0:0:0:0:
316,208,149542,1,12,0:0:0:0:
188,164,149692,1,8,0:0:0:0:
188,164,149767,1,8,0:0:0:0:
416,144,149842,1,0,0:0:0:0:
240,140,149992,1,0,0:0:0:0:
104,120,150067,1,8,0:0:0:0:
264,124,150142,1,0,0:0:0:0:
144,144,150292,1,8,0:0:0:0:
256,208,150442,1,0,0:0:0:0:
388,180,150592,1,8,0:0:0:0:
128,232,150742,1,0,0:0:0:0:
256,208,150892,1,8,0:0:0:0:
388,180,151042,1,0,0:0:0:0:
344,144,151192,1,8,0:0:0:0:
312,168,151267,1,8,0:0:0:0:
240,140,151342,1,0,0:0:0:0:
120,160,151492,1,0,0:0:0:0:
168,180,151567,1,0,0:0:0:0:
168,180,151642,1,0,0:0:0:0:
32,208,151792,1,0,0:0:0:0:
160,244,151942,1,8,0:0:0:0:
224,224,152092,1,8,0:0:0:0:
152,208,152242,1,0,0:0:0:0:
240,176,152392,1,8,0:0:0:0:
348,180,152542,1,0,0:0:0:0:
280,200,152692,1,8,0:0:0:0:
240,176,152767,1,8,0:0:0:0:
240,176,152842,1,8,0:0:0:0:
224,224,152992,1,8,0:0:0:0:
140,120,153067,1,8,0:0:0:0:
168,140,153142,1,0,0:0:0:0:
152,208,153292,1,8,0:0:0:0:
108,140,153442,1,0,0:0:0:0:
208,136,153517,1,8,0:0:0:0:
208,136,153592,1,8,0:0:0:0:
300,148,153667,1,0,0:0:0:0:
196,168,153892,1,0,0:0:0:0:
388,188,154042,1,8,0:0:0:0:
84,124,154192,1,0,0:0:0:0:
84,124,154267,1,0,0:0:0:0:
84,124,154342,1,8,0:0:0:0:
140,120,154492,1,8,0:0:0:0:
212,216,154642,1,0,0:0:0:0:
320,240,154792,1,8,0:0:0:0:
300,148,154942,1,0,0:0:0:0:
208,136,155092,1,8,0:0:0:0:
248,104,155167,1,8,0:0:0:0:
364,168,155242,1,0,0:0:0:0:
196,168,155392,1,8,0:0:0:0:
124,192,155467,1,0,0:0:0:0:
376,216,155542,1,0,0:0:0:0:
140,120,155692,1,8,0:0:0:0:
176,228,155842,1,0,0:0:0:0:
60,212,155992,1,8,0:0:0:0:
212,216,156142,1,0,0:0:0:0:
124,192,156292,1,8,0:0:0:0:
124,192,156367,1,8,0:0:0:0:
124,192,156442,1,0,0:0:0:0:
268,168,156592,1,8,0:0:0:0:
268,168,156742,1,8,0:0:0:0:
196,168,156892,1,8,0:0:0:0:
160,148,156967,1,8,0:0:0:0:
60,212,157042,1,0,0:0:0:0:
140,120,157192,1,8,0:0:0:0:
212,216,157342,1,0,0:0:0:0:
296,248,157492,1,0,0:0:0:0:
296,248,157567,1,0,0:0:0:0:
296,248,157642,1,8,0:0:0:0:
348,172,157792,1,0,0:0:0:0:
348,172,157867,1,0,0:0:0:0:
348,172,157942,1,8,0:0:0:0:
196,168,158092,1,8,0:0:0:0:
196,168,158167,1,8,0:0:0:0:
196,168,158242,1,8,0:0:0:0:
256,144,158392,1,8,0:0:0:0:
128,164,158542,1,0,0:0:0:0:
176,256,158692,1,8,0:0:0:0:
220,252,158767,1,8,0:0:0:0:
96,224,158842,1,8,0:0:0:0:
96,224,158917,1,8,0:0:0:0:
28,188,158992,1,0,0:0:0:0:
28,188,159067,1,0,0:0:0:0:
76,168,159142,1,8,0:0:0:0:
100,188,159217,1,8,0:0:0:0:
256,208,159292,1,0,0:0:0:0:
304,216,159367,1,8,0:0:0:0:
160,212,159442,1,0,0:0:0:0:
300,176,159592,1,8,0:0:0:0:
172,108,159742,1,0,0:0:0:0:
244,120,159817,1,0,0:0:0:0:
244,120,159892,1,0,0:0:0:0:
244,120,159967,1,0,0:0:0:0:
296,144,160042,1,0,0:0:0:0:
192,236,160117,1,0,0:0:0:0:
300,176,160192,1,0,0:0:0:0:
260,176,160267,1,0,0:0:0:0:
136,164,160342,1,8,0:0:0:0:
376,128,160642,1,8,0:0:0:0:
192,164,160942,1,0,0:0:0:0:
192,164,161017,1,0,0:0:0:0:
192,164,161092,1,8,0:0:0:0:
144,136,161242,1,0,0:0:0:0:
144,136,161317,1,0,0:0:0:0:
144,136,161392,1,8,0:0:0:0:
60,164,161542,1,0,0:0:0:0:
60,164,161617,1,0,0:0:0:0:
316,176,161692,1,8,0:0:0:0:
164,252,161842,1,8,0:0:0:0:
248,228,161992,1,8,0:0:0:0:
248,228,162067,1,8,0:0:0:0:
248,228,162142,1,0,0:0:0:0:
220,140,162442,1,0,0:0:0:0:
396,208,162592,1,0,0:0:0:0:
364,216,162742,1,0,0:0:0:0:
276,284,162892,1,0,0:0:0:0:
136,264,163042,1,0,0:0:0:0:
168,188,163192,1,0,0:0:0:0:
96,184,163342,1,0,0:0:0:0:
100,228,163492,1,0,0:0:0:0:
216,248,163642,1,0,0:0:0:0:
216,248,163792,1,0,0:0:0:0:
232,168,163942,1,12,0:0:0:0:
232,168,164092,1,12,0:0:0:0:
