osu file format v12

[General]
AudioFilename: kami.mp3
AudioLeadIn: 0
PreviewTime: 46942
Countdown: 1
SampleSet: Normal
StackLeniency: 0.7
Mode: 1
LetterboxInBreaks: 1
WidescreenStoryboard: 1

[Editor]
Bookmarks: 3442,32542,42142,61342,80542,118942
DistanceSpacing: 2
BeatDivisor: 4
GridSize: 4
TimelineZoom: 2.099998

[Metadata]
Title:Kami Pera Jinsei Kouryaku
TitleUnicode:紙ペラ人生攻略
Artist:Zips
ArtistUnicode:じっぷす
Creator:birrin
Version:Muzukashii
Source:
Tags:Vocaloid Zips
BeatmapID:421655
BeatmapSetID:174464

[Difficulty]
HPDrainRate:5
CircleSize:4
OverallDifficulty:4
ApproachRate:0
SliderMultiplier:1.2
SliderTickRate:1

[Events]
//Background and Video events
0,0,"Taiko.JPG",0,0
//Break Periods
//Storyboard Layer 0 (Background)
//Storyboard Layer 1 (Fail)
//Storyboard Layer 2 (Pass)
//Storyboard Layer 3 (Foreground)
//Storyboard Sound Samples
//Background Colour Transformations
3,100,163,162,255

[TimingPoints]
142,300,4,1,0,100,1,0
3742,-100,4,1,0,100,0,1
13342,-100,4,1,0,100,0,0
32392,-133.333333333333,4,1,0,100,0,0
39817,-100,4,1,0,100,0,0
46942,-100,4,1,0,100,0,1
59092,-83.3333333333333,4,1,0,100,0,1
61342,-100,4,1,0,100,0,0
80542,-133.333333333333,4,1,0,100,0,0
85342,-90.9090909090909,4,1,0,100,0,0
87742,-83.3333333333333,4,1,0,100,0,0
90142,-100,4,1,0,100,0,1
107242,-71.4285714285714,4,1,0,100,0,1
109342,-100,4,1,0,100,0,0
114142,-100,4,1,0,100,0,1
118942,-133.333333333333,4,1,0,100,0,0
126217,-100,4,1,0,100,0,0
133342,-100,4,1,0,100,0,1

[Colours]
Combo1 : 255,0,0
Combo2 : 0,255,255

[HitObjects]
112,232,3742,5,4,0:0:0:0:
284,184,4042,1,8,0:0:0:0:
212,236,4342,1,0,0:0:0:0:
212,236,4492,1,0,0:0:0:0:
212,236,4642,1,8,0:0:0:0:
212,236,4942,1,0,0:0:0:0:
188,204,5242,1,8,0:0:0:0:
188,204,5392,1,8,0:0:0:0:
212,236,5542,1,0,0:0:0:0:
340,176,5842,1,0,0:0:0:0:
212,236,5992,1,8,0:0:0:0:
212,236,6142,1,0,0:0:0:0:
188,204,6442,1,8,0:0:0:0:
188,204,6592,1,8,0:0:0:0:
188,204,6742,1,0,0:0:0:0:
188,204,6892,1,8,0:0:0:0:
188,204,7042,1,0,0:0:0:0:
200,172,7192,1,8,0:0:0:0:
200,172,7267,1,8,0:0:0:0:
200,172,7342,1,8,0:0:0:0:
188,204,7492,1,0,0:0:0:0:
188,204,7642,1,8,0:0:0:0:
276,200,7942,1,0,0:0:0:0:
132,184,8092,1,8,0:0:0:0:
240,152,8242,1,0,0:0:0:0:
200,172,8392,1,8,0:0:0:0:
200,172,8542,1,0,0:0:0:0:
200,172,8842,1,8,0:0:0:0:
240,152,8992,1,0,0:0:0:0:
240,152,9142,1,0,0:0:0:0:
240,152,9442,1,8,0:0:0:0:
240,152,9592,1,0,0:0:0:0:
240,152,9742,1,0,0:0:0:0:
200,172,9892,1,8,0:0:0:0:
200,172,10042,1,8,0:0:0:0:
200,172,10192,1,0,0:0:0:0:
200,172,10342,1,8,0:0:0:0:
200,172,10642,1,0,0:0:0:0:
200,172,10792,1,8,0:0:0:0:
200,172,10942,1,0,0:0:0:0:
200,172,11242,1,8,0:0:0:0:
200,172,11392,1,0,0:0:0:0:
200,172,11542,1,8,0:0:0:0:
200,172,11692,1,0,0:0:0:0:
224,196,11767,1,0,0:0:0:0:
200,172,11842,1,0,0:0:0:0:
200,172,11992,1,8,0:0:0:0:
200,172,12142,1,0,0:0:0:0:
200,172,12292,1,8,0:0:0:0:
200,172,12442,1,8,0:0:0:0:
200,172,12592,1,8,0:0:0:0:
200,172,12742,1,0,0:0:0:0:
216,256,13342,1,0,0:0:0:0:
240,224,13642,1,0,0:0:0:0:
208,204,13942,1,0,0:0:0:0:
200,172,14242,1,0,0:0:0:0:
208,204,14542,1,8,0:0:0:0:
208,204,14842,1,8,0:0:0:0:
208,204,15142,1,8,0:0:0:0:
208,204,15442,1,8,0:0:0:0:
200,172,15742,1,0,0:0:0:0:
156,208,15892,1,8,0:0:0:0:
156,208,16042,1,8,0:0:0:0:
208,204,16342,1,0,0:0:0:0:
208,204,16492,1,8,0:0:0:0:
208,204,16642,1,8,0:0:0:0:
296,180,16792,1,0,0:0:0:0:
200,172,16942,1,0,0:0:0:0:
200,172,17242,1,8,0:0:0:0:
176,108,17542,1,0,0:0:0:0:
296,180,17692,1,8,0:0:0:0:
296,180,17842,1,8,0:0:0:0:
152,172,17992,1,8,0:0:0:0:
152,172,18142,1,0,0:0:0:0:
172,208,18442,1,0,0:0:0:0:
152,172,18742,1,8,0:0:0:0:
152,172,19042,1,0,0:0:0:0:
232,208,19192,1,0,0:0:0:0:
172,208,19342,1,0,0:0:0:0:
232,208,19642,1,0,0:0:0:0:
232,208,19942,1,8,0:0:0:0:
232,208,20092,1,0,0:0:0:0:
232,208,20242,1,0,0:0:0:0:
232,208,20542,1,8,0:0:0:0:
200,196,20692,1,0,0:0:0:0:
148,236,20842,1,0,0:0:0:0:
156,192,20992,1,8,0:0:0:0:
156,192,21142,1,0,0:0:0:0:
200,196,21292,1,0,0:0:0:0:
156,192,21592,1,8,0:0:0:0:
156,192,21892,1,8,0:0:0:0:
148,236,22042,1,0,0:0:0:0:
148,236,22192,1,0,0:0:0:0:
148,236,22342,1,8,0:0:0:0:
240,180,22642,1,12,0:0:0:0:
80,96,22942,1,4,0:0:0:0:
208,232,23092,1,0,0:0:0:0:
208,232,23242,1,8,0:0:0:0:
280,264,23542,1,0,0:0:0:0:
176,220,23692,1,0,0:0:0:0:
176,276,23842,1,8,0:0:0:0:
208,232,24142,1,0,0:0:0:0:
176,220,24292,1,0,0:0:0:0:
176,220,24442,1,8,0:0:0:0:
176,220,24592,1,8,0:0:0:0:
236,248,24742,1,0,0:0:0:0:
176,220,24892,1,8,0:0:0:0:
104,152,25042,1,8,0:0:0:0:
128,200,25342,1,0,0:0:0:0:
144,148,25492,1,0,0:0:0:0:
144,148,25567,1,0,0:0:0:0:
144,148,25642,1,8,0:0:0:0:
192,148,25942,1,0,0:0:0:0:
192,148,26092,1,0,0:0:0:0:
192,148,26167,1,0,0:0:0:0:
192,148,26242,1,8,0:0:0:0:
144,148,26542,1,0,0:0:0:0:
128,200,26692,1,8,0:0:0:0:
128,200,26842,1,8,0:0:0:0:
144,148,26992,1,8,0:0:0:0:
144,148,27142,1,0,0:0:0:0:
128,200,27292,1,0,0:0:0:0:
120,168,27442,1,8,0:0:0:0:
144,148,27742,1,0,0:0:0:0:
196,132,27892,1,0,0:0:0:0:
196,132,28042,1,8,0:0:0:0:
144,148,28192,1,0,0:0:0:0:
144,148,28342,1,0,0:0:0:0:
144,148,28642,1,8,0:0:0:0:
144,148,28792,1,0,0:0:0:0:
144,148,28942,1,0,0:0:0:0:
196,132,29242,1,8,0:0:0:0:
196,132,29392,1,8,0:0:0:0:
196,132,29542,1,0,0:0:0:0:
188,168,29842,1,8,0:0:0:0:
188,168,29992,1,0,0:0:0:0:
188,168,30142,1,0,0:0:0:0:
188,168,30442,1,8,0:0:0:0:
188,168,30592,1,0,0:0:0:0:
188,168,30742,1,8,0:0:0:0:
188,212,31042,1,8,0:0:0:0:
152,192,31192,1,0,0:0:0:0:
128,172,31492,1,0,0:0:0:0:
152,192,31642,1,8,0:0:0:0:
152,192,31792,1,0,0:0:0:0:
152,192,32092,1,0,0:0:0:0:
152,192,32242,1,8,0:0:0:0:
128,172,32542,1,4,0:0:0:0:
180,156,32992,1,0,0:0:0:0:
180,156,33142,1,8,0:0:0:0:
216,220,33442,1,0,0:0:0:0:
276,256,33592,1,0,0:0:0:0:
288,160,33892,1,2,0:0:0:0:
112,220,34042,1,8,0:0:0:0:
112,220,34342,1,0,0:0:0:0:
144,224,34492,1,0,0:0:0:0:
144,224,34642,1,8,0:0:0:0:
216,220,34942,1,0,0:0:0:0:
216,220,35092,1,0,0:0:0:0:
216,220,35392,1,0,0:0:0:0:
216,220,35542,1,8,0:0:0:0:
216,220,35842,1,0,0:0:0:0:
216,220,35992,1,0,0:0:0:0:
216,220,36292,1,0,0:0:0:0:
216,220,36442,1,8,0:0:0:0:
216,220,36742,1,0,0:0:0:0:
216,220,36892,1,0,0:0:0:0:
216,220,37042,1,8,0:0:0:0:
156,228,37342,1,0,0:0:0:0:
156,228,37492,1,0,0:0:0:0:
156,228,37792,1,0,0:0:0:0:
216,220,37942,1,8,0:0:0:0:
184,200,38242,1,8,0:0:0:0:
184,200,38392,1,8,0:0:0:0:
184,200,38692,1,0,0:0:0:0:
216,220,38842,1,8,0:0:0:0:
156,228,39142,1,0,0:0:0:0:
156,228,39292,1,0,0:0:0:0:
100,200,39442,1,8,0:0:0:0:
244,232,39742,1,0,0:0:0:0:
184,200,39892,1,8,0:0:0:0:
184,200,40042,1,8,0:0:0:0:
184,200,40192,1,0,0:0:0:0:
184,200,40492,1,8,0:0:0:0:
184,200,40642,1,0,0:0:0:0:
184,200,40792,1,0,0:0:0:0:
184,200,40942,1,8,0:0:0:0:
184,200,42142,1,0,0:0:0:0:
236,216,42442,1,8,0:0:0:0:
236,216,42742,1,0,0:0:0:0:
184,200,43042,1,8,0:0:0:0:
236,216,43192,1,0,0:0:0:0:
236,216,44242,1,8,0:0:0:0:
184,200,44542,1,0,0:0:0:0:
160,180,44692,1,8,0:0:0:0:
160,180,44767,1,8,0:0:0:0:
160,180,44842,1,0,0:0:0:0:
176,152,45142,1,0,0:0:0:0:
208,152,45292,1,8,0:0:0:0:
208,152,45367,1,8,0:0:0:0:
208,152,45442,1,0,0:0:0:0:
264,192,45742,1,0,0:0:0:0:
176,152,46042,1,8,0:0:0:0:
176,152,46342,1,8,0:0:0:0:
176,152,46642,1,8,0:0:0:0:
208,152,46942,1,0,0:0:0:0:
216,236,47242,1,8,0:0:0:0:
196,260,47392,1,8,0:0:0:0:
196,260,47542,1,0,0:0:0:0:
208,292,47842,1,8,0:0:0:0:
196,260,47992,1,0,0:0:0:0:
196,260,48142,1,0,0:0:0:0:
176,192,48442,1,0,0:0:0:0:
188,136,48592,1,0,0:0:0:0:
188,136,48742,1,8,0:0:0:0:
188,136,48892,1,8,0:0:0:0:
176,192,49042,1,0,0:0:0:0:
124,200,49192,1,0,0:0:0:0:
204,176,49342,1,8,0:0:0:0:
148,172,49642,1,0,0:0:0:0:
188,228,49792,1,0,0:0:0:0:
148,172,49942,1,8,0:0:0:0:
224,144,50092,1,0,0:0:0:0:
156,216,50242,1,0,0:0:0:0:
240,84,50392,1,8,0:0:0:0:
368,144,50692,1,0,0:0:0:0:
204,176,50842,1,8,0:0:0:0:
244,192,50992,1,0,0:0:0:0:
96,196,51067,1,0,0:0:0:0:
148,172,51142,1,8,0:0:0:0:
144,116,51292,1,0,0:0:0:0:
176,192,51442,1,8,0:0:0:0:
176,192,51592,1,8,0:0:0:0:
176,192,51742,1,0,0:0:0:0:
264,108,52042,1,8,0:0:0:0:
280,208,52192,1,8,0:0:0:0:
372,216,52342,1,0,0:0:0:0:
200,116,52642,1,8,0:0:0:0:
200,116,52792,1,8,0:0:0:0:
96,148,52942,1,0,0:0:0:0:
176,192,53242,1,0,0:0:0:0:
232,176,53392,1,8,0:0:0:0:
304,180,53542,1,0,0:0:0:0:
308,144,53692,1,0,0:0:0:0:
280,160,53842,1,8,0:0:0:0:
244,132,53992,1,8,0:0:0:0:
244,132,54142,1,0,0:0:0:0:
384,196,54442,1,8,0:0:0:0:
152,172,54742,1,0,0:0:0:0:
292,272,55042,1,8,0:0:0:0:
112,244,55192,1,0,0:0:0:0:
176,248,55342,1,0,0:0:0:0:
268,196,55492,1,8,0:0:0:0:
268,196,55567,1,8,0:0:0:0:
268,196,55642,1,8,0:0:0:0:
384,196,55792,1,0,0:0:0:0:
248,148,55942,1,8,0:0:0:0:
208,152,56092,1,8,0:0:0:0:
132,148,56242,1,0,0:0:0:0:
268,196,56392,1,0,0:0:0:0:
344,120,56542,1,4,0:0:0:0:
208,152,56842,1,8,0:0:0:0:
232,120,56992,1,0,0:0:0:0:
248,148,57142,1,0,0:0:0:0:
320,200,57442,1,12,0:0:0:0:
152,180,57742,1,0,0:0:0:0:
152,180,58042,1,0,0:0:0:0:
236,224,58192,1,8,0:0:0:0:
236,224,58342,1,0,0:0:0:0:
248,148,58642,1,8,0:0:0:0:
144,244,58942,1,4,0:0:0:0:
320,220,59242,1,8,0:0:0:0:
248,180,59392,1,0,0:0:0:0:
248,148,59542,1,0,0:0:0:0:
416,208,59842,1,8,0:0:0:0:
292,152,59992,1,0,0:0:0:0:
176,160,60142,1,0,0:0:0:0:
176,116,60442,1,0,0:0:0:0:
176,160,60592,1,0,0:0:0:0:
276,252,60742,1,8,0:0:0:0:
176,160,60892,1,8,0:0:0:0:
416,208,61342,1,0,0:0:0:0:
156,236,61642,1,0,0:0:0:0:
276,252,61942,1,0,0:0:0:0:
268,184,62242,1,0,0:0:0:0:
308,192,62542,1,8,0:0:0:0:
308,192,62842,1,8,0:0:0:0:
308,192,63142,1,8,0:0:0:0:
216,184,63292,1,8,0:0:0:0:
308,192,63442,1,8,0:0:0:0:
308,192,63742,1,0,0:0:0:0:
164,132,63892,1,0,0:0:0:0:
216,136,63967,1,0,0:0:0:0:
264,140,64042,1,8,0:0:0:0:
312,148,64342,1,0,0:0:0:0:
216,136,64492,1,0,0:0:0:0:
216,136,64567,1,0,0:0:0:0:
216,136,64642,1,8,0:0:0:0:
120,196,64942,1,0,0:0:0:0:
240,244,65092,1,8,0:0:0:0:
328,252,65242,1,8,0:0:0:0:
376,232,65392,1,8,0:0:0:0:
424,220,65542,1,0,0:0:0:0:
316,192,65692,1,8,0:0:0:0:
316,192,65767,1,8,0:0:0:0:
316,192,65842,1,8,0:0:0:0:
160,212,65992,1,0,0:0:0:0:
216,136,66142,1,0,0:0:0:0:
248,200,66442,1,8,0:0:0:0:
36,204,66742,1,0,0:0:0:0:
100,188,66892,1,0,0:0:0:0:
160,172,67042,1,8,0:0:0:0:
180,268,67342,1,0,0:0:0:0:
268,252,67492,1,0,0:0:0:0:
268,252,67642,1,8,0:0:0:0:
320,248,67792,1,8,0:0:0:0:
280,212,67942,1,0,0:0:0:0:
224,184,68242,1,8,0:0:0:0:
328,128,68542,1,0,0:0:0:0:
116,264,68842,1,8,0:0:0:0:
172,140,68992,1,8,0:0:0:0:
172,140,69067,1,8,0:0:0:0:
168,148,69142,1,0,0:0:0:0:
216,232,69292,1,8,0:0:0:0:
308,240,69442,1,0,0:0:0:0:
240,256,69592,1,0,0:0:0:0:
376,228,69892,1,8,0:0:0:0:
376,228,69967,1,8,0:0:0:0:
376,228,70042,1,0,0:0:0:0:
248,188,70192,1,0,0:0:0:0:
124,224,70342,1,8,0:0:0:0:
124,224,70492,1,0,0:0:0:0:
124,224,70642,1,8,0:0:0:0:
208,172,70942,1,0,0:0:0:0:
268,228,71092,1,0,0:0:0:0:
320,232,71242,1,8,0:0:0:0:
268,228,71392,1,0,0:0:0:0:
296,208,71542,1,0,0:0:0:0:
96,136,71842,1,8,0:0:0:0:
144,156,71992,1,0,0:0:0:0:
144,156,72142,1,0,0:0:0:0:
208,172,72442,1,8,0:0:0:0:
208,172,72592,1,0,0:0:0:0:
208,172,72742,1,0,0:0:0:0:
208,172,72892,1,8,0:0:0:0:
208,172,73042,1,8,0:0:0:0:
328,212,73192,1,0,0:0:0:0:
352,184,73342,1,0,0:0:0:0:
280,136,73492,1,8,0:0:0:0:
280,136,73567,1,8,0:0:0:0:
280,136,73642,1,0,0:0:0:0:
112,160,73942,1,0,0:0:0:0:
112,160,74092,1,8,0:0:0:0:
112,160,74167,1,8,0:0:0:0:
112,160,74242,1,0,0:0:0:0:
176,160,74542,1,0,0:0:0:0:
196,212,74692,1,8,0:0:0:0:
128,248,74842,1,8,0:0:0:0:
256,240,74992,1,8,0:0:0:0:
344,200,75142,1,0,0:0:0:0:
344,200,75292,1,0,0:0:0:0:
304,240,75367,1,0,0:0:0:0:
344,200,75442,1,8,0:0:0:0:
80,192,75592,1,8,0:0:0:0:
196,212,75742,1,0,0:0:0:0:
288,204,75892,1,8,0:0:0:0:
288,204,76042,1,8,0:0:0:0:
152,160,76192,1,0,0:0:0:0:
208,148,76342,1,0,0:0:0:0:
208,148,76642,1,8,0:0:0:0:
208,148,76792,1,0,0:0:0:0:
152,160,77092,1,0,0:0:0:0:
152,160,77242,1,8,0:0:0:0:
152,160,77392,1,8,0:0:0:0:
152,160,77542,1,0,0:0:0:0:
152,160,77692,1,8,0:0:0:0:
152,160,77842,1,0,0:0:0:0:
308,192,77992,1,8,0:0:0:0:
328,152,78142,1,0,0:0:0:0:
224,224,78442,1,8,0:0:0:0:
108,160,78742,1,8,0:0:0:0:
48,208,79042,1,8,0:0:0:0:
160,232,79192,1,0,0:0:0:0:
356,224,79492,1,0,0:0:0:0:
236,180,79642,1,8,0:0:0:0:
236,180,79792,1,0,0:0:0:0:
236,180,80092,1,0,0:0:0:0:
208,192,80167,1,0,0:0:0:0:
208,192,80242,1,0,0:0:0:0:
256,268,80542,1,0,0:0:0:0:
144,188,80992,1,0,0:0:0:0:
144,188,81142,1,8,0:0:0:0:
252,228,81742,1,0,0:0:0:0:
256,196,82192,1,0,0:0:0:0:
228,160,82342,1,8,0:0:0:0:
144,188,82642,1,0,0:0:0:0:
120,104,82942,1,0,0:0:0:0:
108,168,83392,1,0,0:0:0:0:
108,168,83692,1,0,0:0:0:0:
108,168,83992,1,0,0:0:0:0:
244,176,84292,1,0,0:0:0:0:
328,192,84592,1,0,0:0:0:0:
196,132,84892,1,8,0:0:0:0:
128,128,85042,1,0,0:0:0:0:
48,108,85192,1,8,0:0:0:0:
188,248,85342,1,0,0:0:0:0:
148,200,85642,1,0,0:0:0:0:
352,224,85792,1,8,0:0:0:0:
280,208,85942,1,8,0:0:0:0:
416,236,86092,1,0,0:0:0:0:
416,236,86242,1,8,0:0:0:0:
104,224,86392,1,0,0:0:0:0:
104,224,86542,1,0,0:0:0:0:
200,160,86842,1,8,0:0:0:0:
244,248,86992,1,0,0:0:0:0:
120,140,87292,1,8,0:0:0:0:
120,140,87367,1,8,0:0:0:0:
120,140,87442,1,8,0:0:0:0:
208,216,87592,1,8,0:0:0:0:
372,236,87742,1,0,0:0:0:0:
320,168,87892,1,0,0:0:0:0:
320,168,88042,1,8,0:0:0:0:
196,120,88192,1,8,0:0:0:0:
248,176,88492,1,8,0:0:0:0:
272,272,88642,1,8,0:0:0:0:
196,248,88792,1,8,0:0:0:0:
196,248,88942,1,4,0:0:0:0:
296,160,90142,1,4,0:0:0:0:
296,160,90442,1,8,0:0:0:0:
296,160,90742,1,0,0:0:0:0:
296,160,91042,1,8,0:0:0:0:
288,160,91192,1,0,0:0:0:0:
288,160,91492,1,0,0:0:0:0:
288,160,91642,1,8,0:0:0:0:
288,160,91792,1,8,0:0:0:0:
288,160,91942,1,0,0:0:0:0:
284,160,92092,1,8,0:0:0:0:
284,160,92242,1,0,0:0:0:0:
288,168,92392,1,8,0:0:0:0:
296,168,92542,1,4,0:0:0:0:
276,164,92842,1,8,0:0:0:0:
280,168,92992,1,8,0:0:0:0:
268,176,93142,1,0,0:0:0:0:
264,168,93442,1,8,0:0:0:0:
276,168,93592,1,8,0:0:0:0:
272,168,93742,1,0,0:0:0:0:
264,168,94042,1,8,0:0:0:0:
264,168,94342,1,0,0:0:0:0:
280,168,94492,1,0,0:0:0:0:
276,176,94567,1,0,0:0:0:0:
264,168,94642,1,8,0:0:0:0:
276,168,94792,1,8,0:0:0:0:
276,172,94942,1,4,0:0:0:0:
280,168,95242,1,8,0:0:0:0:
280,168,95392,1,8,0:0:0:0:
280,168,95542,1,0,0:0:0:0:
276,172,95842,1,8,0:0:0:0:
280,168,95992,1,0,0:0:0:0:
280,172,96142,1,8,0:0:0:0:
276,172,96442,1,8,0:0:0:0:
280,168,96592,1,8,0:0:0:0:
280,168,96742,1,0,0:0:0:0:
280,168,96892,1,0,0:0:0:0:
280,168,97042,1,8,0:0:0:0:
276,172,97192,1,0,0:0:0:0:
276,172,97342,1,0,0:0:0:0:
280,172,97492,1,8,0:0:0:0:
276,172,97567,1,8,0:0:0:0:
280,172,97642,1,8,0:0:0:0:
284,168,97792,1,0,0:0:0:0:
240,172,97942,1,0,0:0:0:0:
276,160,98092,1,8,0:0:0:0:
276,160,98167,1,8,0:0:0:0:
276,160,98242,1,8,0:0:0:0:
236,164,98392,1,0,0:0:0:0:
256,160,98692,1,0,0:0:0:0:
248,160,98842,1,8,0:0:0:0:
248,160,98992,1,0,0:0:0:0:
248,160,99067,1,0,0:0:0:0:
248,160,99142,1,8,0:0:0:0:
240,160,99292,1,8,0:0:0:0:
268,156,99442,1,0,0:0:0:0:
256,156,99592,1,8,0:0:0:0:
256,156,99742,1,0,0:0:0:0:
256,160,100042,1,0,0:0:0:0:
256,160,100192,1,8,0:0:0:0:
256,164,100342,1,0,0:0:0:0:
248,160,100642,1,0,0:0:0:0:
268,156,100792,1,8,0:0:0:0:
268,156,100942,1,8,0:0:0:0:
256,156,101242,1,0,0:0:0:0:
248,152,101392,1,0,0:0:0:0:
240,172,101542,1,8,0:0:0:0:
236,172,101692,1,0,0:0:0:0:
252,160,101842,1,0,0:0:0:0:
248,160,102142,1,0,0:0:0:0:
244,164,102442,1,8,0:0:0:0:
264,172,102742,1,0,0:0:0:0:
240,152,103042,1,8,0:0:0:0:
236,152,103192,1,0,0:0:0:0:
252,160,103342,1,0,0:0:0:0:
228,160,103492,1,8,0:0:0:0:
228,160,103642,1,8,0:0:0:0:
244,164,103792,1,0,0:0:0:0:
240,160,103942,1,0,0:0:0:0:
240,164,104092,1,0,0:0:0:0:
248,168,104242,1,8,0:0:0:0:
236,160,104392,1,0,0:0:0:0:
236,160,104542,1,0,0:0:0:0:
232,156,104842,1,0,0:0:0:0:
232,156,104992,1,0,0:0:0:0:
236,156,105142,1,8,0:0:0:0:
220,148,105442,1,8,0:0:0:0:
240,152,105742,1,0,0:0:0:0:
236,152,106042,1,0,0:0:0:0:
232,156,106192,1,0,0:0:0:0:
232,156,106342,1,0,0:0:0:0:
232,156,106567,1,8,0:0:0:0:
228,152,106942,1,4,0:0:0:0:
252,232,107242,1,0,0:0:0:0:
232,236,107392,1,0,0:0:0:0:
248,224,107542,1,8,0:0:0:0:
240,224,107692,1,0,0:0:0:0:
240,224,107842,1,0,0:0:0:0:
248,220,108142,1,0,0:0:0:0:
248,220,108292,1,0,0:0:0:0:
244,224,108442,1,8,0:0:0:0:
264,208,108592,1,8,0:0:0:0:
248,220,108742,1,0,0:0:0:0:
244,216,108892,1,0,0:0:0:0:
244,216,109342,1,0,0:0:0:0:
256,212,109942,1,0,0:0:0:0:
248,212,110542,1,0,0:0:0:0:
248,204,110842,1,8,0:0:0:0:
248,212,110992,1,8,0:0:0:0:
236,216,111142,1,0,0:0:0:0:
240,216,111292,1,0,0:0:0:0:
232,208,111442,1,8,0:0:0:0:
248,212,111742,1,0,0:0:0:0:
248,212,112042,1,8,0:0:0:0:
244,212,112192,1,8,0:0:0:0:
248,212,112342,1,0,0:0:0:0:
240,208,112642,1,0,0:0:0:0:
236,208,112792,1,8,0:0:0:0:
232,208,112942,1,0,0:0:0:0:
252,204,113392,1,8,0:0:0:0:
236,204,113542,1,0,0:0:0:0:
240,200,113692,1,0,0:0:0:0:
240,200,113767,1,0,0:0:0:0:
240,204,113842,1,0,0:0:0:0:
236,200,113992,1,8,0:0:0:0:
232,204,114142,1,0,0:0:0:0:
220,212,114442,1,0,0:0:0:0:
288,172,114592,1,0,0:0:0:0:
248,184,114742,1,8,0:0:0:0:
256,184,115042,1,0,0:0:0:0:
280,164,115192,1,0,0:0:0:0:
296,180,115342,1,0,0:0:0:0:
304,184,115642,1,0,0:0:0:0:
276,168,115792,1,0,0:0:0:0:
296,180,115942,1,8,0:0:0:0:
288,184,116092,1,8,0:0:0:0:
288,184,116242,1,0,0:0:0:0:
296,180,116542,1,0,0:0:0:0:
288,184,116692,1,0,0:0:0:0:
300,192,116767,1,0,0:0:0:0:
288,184,116842,1,8,0:0:0:0:
296,184,117142,1,8,0:0:0:0:
296,180,117292,1,8,0:0:0:0:
296,192,117367,1,8,0:0:0:0:
296,180,117442,1,0,0:0:0:0:
288,184,117742,1,0,0:0:0:0:
292,184,117892,1,0,0:0:0:0:
292,184,118042,1,8,0:0:0:0:
288,184,118192,1,8,0:0:0:0:
288,184,118342,1,8,0:0:0:0:
244,212,118942,1,0,0:0:0:0:
184,212,119392,1,0,0:0:0:0:
192,176,119542,1,8,0:0:0:0:
340,180,119842,1,0,0:0:0:0:
288,136,119992,1,8,0:0:0:0:
276,148,120142,1,8,0:0:0:0:
156,140,120442,1,0,0:0:0:0:
156,140,120592,1,8,0:0:0:0:
220,140,120742,1,0,0:0:0:0:
192,176,120892,1,0,0:0:0:0:
204,168,121042,1,8,0:0:0:0:
216,152,121342,1,0,0:0:0:0:
216,160,121492,1,0,0:0:0:0:
272,168,121792,1,0,0:0:0:0:
252,136,121942,1,8,0:0:0:0:
184,128,122242,1,8,0:0:0:0:
168,128,122392,1,0,0:0:0:0:
172,128,122542,1,8,0:0:0:0:
284,176,122692,1,8,0:0:0:0:
160,128,122842,1,0,0:0:0:0:
160,128,122992,1,8,0:0:0:0:
192,176,123292,1,0,0:0:0:0:
160,132,123442,1,0,0:0:0:0:
300,196,123742,1,0,0:0:0:0:
264,164,124192,1,8,0:0:0:0:
256,164,124342,1,8,0:0:0:0:
256,164,124642,1,0,0:0:0:0:
264,164,124792,1,0,0:0:0:0:
288,168,124942,1,0,0:0:0:0:
288,168,125242,1,0,0:0:0:0:
288,168,125392,1,8,0:0:0:0:
284,168,125692,1,0,0:0:0:0:
284,168,125842,1,8,0:0:0:0:
284,168,125992,1,8,0:0:0:0:
280,168,126142,1,0,0:0:0:0:
280,168,126292,1,0,0:0:0:0:
280,168,126442,1,8,0:0:0:0:
280,168,126592,1,8,0:0:0:0:
320,176,126892,1,0,0:0:0:0:
320,176,127042,1,8,0:0:0:0:
320,176,127192,1,8,0:0:0:0:
320,176,127342,1,0,0:0:0:0:
256,192,127492,12,8,130642,0:0:0:0:
252,188,130942,5,0,0:0:0:0:
256,148,131092,1,0,0:0:0:0:
228,156,131242,1,8,0:0:0:0:
248,156,131392,1,0,0:0:0:0:
256,148,131542,1,0,0:0:0:0:
256,148,131692,1,0,0:0:0:0:
256,148,131767,1,0,0:0:0:0:
256,148,131842,1,0,0:0:0:0:
248,144,131992,1,8,0:0:0:0:
248,144,132142,1,0,0:0:0:0:
248,144,132442,1,0,0:0:0:0:
248,144,132742,1,8,0:0:0:0:
248,144,133042,1,0,0:0:0:0:
248,144,133342,1,4,0:0:0:0:
212,136,133642,1,8,0:0:0:0:
228,136,133792,1,8,0:0:0:0:
252,136,133942,1,0,0:0:0:0:
240,152,134242,1,8,0:0:0:0:
236,140,134392,1,0,0:0:0:0:
236,140,134542,1,0,0:0:0:0:
228,136,134842,1,8,0:0:0:0:
224,136,134992,1,8,0:0:0:0:
224,136,135142,1,0,0:0:0:0:
228,136,135292,1,8,0:0:0:0:
220,136,135442,1,8,0:0:0:0:
220,136,135592,1,0,0:0:0:0:
220,136,135742,1,0,0:0:0:0:
220,136,136042,1,8,0:0:0:0:
204,160,136192,1,8,0:0:0:0:
228,136,136342,1,8,0:0:0:0:
216,136,136642,1,0,0:0:0:0:
204,148,136792,1,8,0:0:0:0:
220,136,137092,1,0,0:0:0:0:
220,136,137167,1,0,0:0:0:0:
220,136,137242,1,8,0:0:0:0:
200,144,137542,1,8,0:0:0:0:
200,152,137842,1,0,0:0:0:0:
200,152,138142,1,0,0:0:0:0:
192,152,138292,1,0,0:0:0:0:
192,152,138442,1,8,0:0:0:0:
196,140,138742,1,8,0:0:0:0:
200,144,138892,1,0,0:0:0:0:
200,144,139042,1,8,0:0:0:0:
192,140,139342,1,0,0:0:0:0:
192,140,139492,1,8,0:0:0:0:
192,140,139642,1,8,0:0:0:0:
184,140,139942,1,0,0:0:0:0:
184,140,140092,1,0,0:0:0:0:
184,140,140242,1,8,0:0:0:0:
200,144,140392,1,8,0:0:0:0:
188,132,140542,1,0,0:0:0:0:
216,132,140842,1,0,0:0:0:0:
212,132,141142,1,8,0:0:0:0:
252,136,141442,1,8,0:0:0:0:
232,132,141592,1,0,0:0:0:0:
232,144,141892,1,0,0:0:0:0:
208,136,142042,1,8,0:0:0:0:
244,144,142192,1,8,0:0:0:0:
264,144,142342,1,0,0:0:0:0:
232,148,142492,1,0,0:0:0:0:
232,144,142642,1,8,0:0:0:0:
240,140,142792,1,8,0:0:0:0:
244,140,142942,1,0,0:0:0:0:
232,144,143242,1,0,0:0:0:0:
232,144,143392,1,0,0:0:0:0:
220,140,143542,1,8,0:0:0:0:
244,144,143842,1,8,0:0:0:0:
240,144,144142,1,8,0:0:0:0:
240,144,144442,1,0,0:0:0:0:
240,144,144592,1,0,0:0:0:0:
240,144,144742,1,8,0:0:0:0:
232,144,145042,1,8,0:0:0:0:
228,148,145192,1,8,0:0:0:0:
224,148,145342,1,0,0:0:0:0:
220,156,145642,1,8,0:0:0:0:
216,156,145792,1,8,0:0:0:0:
216,156,145942,1,0,0:0:0:0:
208,156,146242,1,0,0:0:0:0:
208,156,146392,1,8,0:0:0:0:
208,156,146542,1,0,0:0:0:0:
184,144,146842,1,8,0:0:0:0:
204,144,146992,1,8,0:0:0:0:
204,144,147142,1,0,0:0:0:0:
204,144,147292,1,8,0:0:0:0:
204,144,147442,1,0,0:0:0:0:
196,144,147592,1,8,0:0:0:0:
196,144,147742,1,0,0:0:0:0:
192,144,147892,1,0,0:0:0:0:
192,144,147967,1,0,0:0:0:0:
192,144,148042,1,0,0:0:0:0:
204,136,148342,1,0,0:0:0:0:
208,136,148492,1,8,0:0:0:0:
208,136,148567,1,8,0:0:0:0:
208,136,148642,1,8,0:0:0:0:
200,132,148942,1,0,0:0:0:0:
200,132,149242,1,0,0:0:0:0:
200,132,149542,1,0,0:0:0:0:
192,128,149692,1,8,0:0:0:0:
192,128,149767,1,8,0:0:0:0:
200,132,149842,1,8,0:0:0:0:
196,128,150142,1,0,0:0:0:0:
200,132,150442,1,0,0:0:0:0:
196,128,150592,1,8,0:0:0:0:
196,128,150742,1,0,0:0:0:0:
180,136,151042,1,0,0:0:0:0:
180,136,151192,1,0,0:0:0:0:
172,128,151342,1,8,0:0:0:0:
176,108,151642,1,0,0:0:0:0:
176,108,151792,1,8,0:0:0:0:
176,108,151942,1,0,0:0:0:0:
176,100,152242,1,8,0:0:0:0:
176,100,152392,1,8,0:0:0:0:
172,100,152542,1,0,0:0:0:0:
204,112,152842,1,0,0:0:0:0:
184,116,153142,1,0,0:0:0:0:
184,116,153442,1,8,0:0:0:0:
188,112,153892,1,0,0:0:0:0:
296,168,153967,1,0,0:0:0:0:
192,112,154042,1,8,0:0:0:0:
288,160,154192,1,8,0:0:0:0:
192,120,154342,1,0,0:0:0:0:
192,120,154492,1,0,0:0:0:0:
192,104,154642,1,8,0:0:0:0:
192,176,154792,1,8,0:0:0:0:
276,200,154942,1,0,0:0:0:0:
312,152,155242,1,0,0:0:0:0:
312,152,155392,1,0,0:0:0:0:
280,140,155542,1,8,0:0:0:0:
264,132,155842,1,0,0:0:0:0:
264,132,155992,1,8,0:0:0:0:
264,132,156142,1,8,0:0:0:0:
260,128,156442,1,0,0:0:0:0:
256,128,156592,1,0,0:0:0:0:
248,148,156742,1,0,0:0:0:0:
248,136,157042,1,8,0:0:0:0:
248,136,157192,1,8,0:0:0:0:
244,136,157342,1,0,0:0:0:0:
244,136,157642,1,8,0:0:0:0:
312,140,157942,1,8,0:0:0:0:
296,140,158242,1,0,0:0:0:0:
296,140,158392,1,8,0:0:0:0:
292,140,158692,1,0,0:0:0:0:
292,140,158842,1,8,0:0:0:0:
288,136,158992,1,0,0:0:0:0:
288,136,159142,1,0,0:0:0:0:
280,128,159292,1,0,0:0:0:0:
280,128,159442,1,8,0:0:0:0:
268,128,159592,1,8,0:0:0:0:
264,124,159742,1,0,0:0:0:0:
264,124,160042,1,0,0:0:0:0:
264,124,160192,1,0,0:0:0:0:
264,124,160342,1,8,0:0:0:0:
280,136,160642,1,8,0:0:0:0:
296,124,160942,1,0,0:0:0:0:
292,120,161242,1,0,0:0:0:0:
280,120,161392,1,0,0:0:0:0:
264,124,161542,1,8,0:0:0:0:
264,124,161842,1,0,0:0:0:0:
240,152,161992,1,8,0:0:0:0:
264,120,162142,1,0,0:0:0:0:
240,136,162442,1,0,0:0:0:0:
260,132,162592,1,0,0:0:0:0:
260,132,162742,1,8,0:0:0:0:
172,148,162892,1,8,0:0:0:0:
240,132,163042,1,0,0:0:0:0:
216,124,163192,1,0,0:0:0:0:
216,124,163342,1,8,0:0:0:0:
212,140,163492,1,8,0:0:0:0:
200,120,163642,1,0,0:0:0:0:
200,120,163792,1,0,0:0:0:0:
200,120,163942,1,8,0:0:0:0:
200,148,164092,1,8,0:0:0:0:
