osu file format v14

[General]
AudioFilename: optc.mp3
AudioLeadIn: 0
PreviewTime: 60582
Countdown: 0
SampleSet: None
StackLeniency: 0.7
Mode: 0
LetterboxInBreaks: 0
WidescreenStoryboard: 1

[Editor]
Bookmarks: 14994,32641,46759,60877,80288,99700,106758,126170,145581,163228
DistanceSpacing: 1.8
BeatDivisor: 6
GridSize: 32
TimelineZoom: 1.3

[Metadata]
Title:Qing Shen Shen Yu Meng Meng
TitleUnicode:情深深雨濛濛
Artist:Zhao Wei
ArtistUnicode:趙薇
Creator:Shad0w1and
Version:Romance in the Rain
Source:情深深雨濛濛
Tags:Vicki 煙雨濛濛 Yan Yu Meng Meng Pata-Mon
BeatmapID:976674
BeatmapSetID:455690

[Difficulty]
HPDrainRate:5
CircleSize:3.5
OverallDifficulty:5
ApproachRate:6
SliderMultiplier:2.5
SliderTickRate:1

[Events]
//Background and Video events
0,0,"BG.png",0,0
Video,0,"optc.flv"
//Break Periods
//Storyboard Layer 0 (Background)
//Storyboard Layer 1 (Fail)
//Storyboard Layer 2 (Pass)
//Storyboard Layer 3 (Foreground)
//Storyboard Sound Samples

[TimingPoints]
877,882.352941176471,4,3,1,20,1,0
877,-133.333333333333,4,3,1,20,0,0
14112,-133.333333333333,4,3,1,30,0,0
14995,-100,4,3,1,60,0,0
25729,-100,4,3,1,40,0,0
29112,-100,4,3,1,60,0,0
29259,-100,4,3,1,40,0,0
32642,-133.333333333333,4,3,1,50,0,0
46759,-117.647058823529,4,3,1,60,0,0
57348,-111.111111111111,4,3,1,60,0,0
60877,-90.9090909090909,4,3,1,70,0,1
78524,-90.9090909090909,4,3,1,70,0,0
80289,882.352941176471,4,3,1,70,1,1
80289,-90.9090909090909,4,3,1,70,0,1
97936,-100,4,3,1,60,0,0
99700,882.352941176471,4,3,1,40,1,0
101464,-133.333333333333,4,3,1,50,0,0
102641,-133.333333333333,4,3,1,60,0,0
106758,-90.9090909090909,4,3,1,70,0,1
124405,-90.9090909090909,4,3,1,70,0,0
126170,882.352941176471,4,3,1,70,1,1
126170,-90.9090909090909,4,3,1,70,0,1
143817,-100,4,3,1,70,0,0
145581,882.352941176471,4,3,1,70,1,0
147346,-100,4,3,1,40,0,0
149110,-100,4,3,1,50,0,0
159700,-111.111111111111,4,3,1,40,0,0
163228,-133.333333333333,4,3,1,30,0,0
164992,-133.333333333333,4,3,1,20,0,0
166757,-133.333333333333,4,3,1,12,0,0
168522,-133.333333333333,4,3,1,8,0,0
170286,-133.333333333333,4,3,1,5,0,0

[Colours]
Combo1 : 252,58,64
Combo2 : 184,255,119
Combo3 : 164,89,255
Combo4 : 247,104,125
Combo5 : 255,192,0

[HitObjects]
110,85,877,6,0,P|100:117|75:164,2,62.5000023841859,2|0|0,0:0|0:0|0:0,0:0:0:0:
245,65,1759,1,0,0:0:0:0:
188,132,2053,1,0,0:0:0:0:
290,192,2347,1,0,0:0:0:0:
222,247,2641,6,0,P|208:157|284:104,1,187.500007152558,2|0,0:0|0:0,0:0:0:0:
303,279,3818,1,0,0:0:0:0:
383,246,4112,1,0,0:0:0:0:
290,192,4406,6,0,L|215:192,1,62.5000023841859,2|0,0:0|0:0,0:0:0:0:
396,188,4994,1,0,0:0:0:0:
303,279,5288,2,0,L|309:348,1,62.5000023841859,0|0,0:0|0:0,0:0:0:0:
292,165,5877,1,0,0:0:0:0:
117,284,6171,5,2,0:0:0:0:
117,284,7053,2,0,L|202:288,1,62.5000023841859,0|0,0:0|0:0,0:0:0:0:
292,165,7641,1,0,0:0:0:0:
185,124,7935,6,0,L|188:208,1,62.5000023841859,2|0,0:0|0:0,0:0:0:0:
104,84,8524,1,0,0:0:0:0:
260,78,8818,2,0,L|348:76,1,62.5000023841859,0|0,0:0|0:0,0:0:0:0:
185,124,9406,1,0,0:0:0:0:
104,84,9700,6,0,P|183:36|261:80,1,187.500007152558,2|0,0:0|0:0,0:0:0:0:
241,211,10877,1,0,0:0:0:0:
185,124,11171,1,0,0:0:0:0:
340,127,11465,6,0,L|355:66,2,62.5000023841859,2|0|0,0:0|0:0|0:0,0:0:0:0:
256,236,12347,2,0,L|271:314,2,62.5000023841859,0|0|0,0:0|0:0|0:0,0:0:0:0:
128,196,13229,5,2,0:0:0:0:
122,223,13376,1,0,0:0:0:0:
123,251,13524,1,0,0:0:0:0:
129,279,13671,1,0,0:0:0:0:
141,304,13818,1,0,0:0:0:0:
158,326,13965,1,0,0:0:0:0:
180,345,14112,6,0,L|200:321,1,31.2500011920929,2|0,0:0|0:0,0:0:0:0:
281,292,14406,2,0,L|291:260,1,31.2500011920929
364,216,14700,2,0,L|364:170,1,31.2500011920929,0|0,0:0|0:0,0:0:0:0:
293,135,14994,6,0,P|355:269|431:132,1,375.000014305115,6|0,0:2|0:0,0:0:0:0:
108,123,17641,2,0,P|120:165|125:212,2,83.3333333333333,0|0|8,0:0|0:0|0:0,0:0:0:0:
256,236,18524,6,0,B|255:129|209:32|209:32|314:65|365:125|365:125|374:57|407:1,1,500,10|0,0:0|0:0,0:0:0:0:
484,328,21171,2,0,P|444:332|399:331,2,83.3333333333333,0|0|8,0:0|0:0|0:0,0:0:0:0:
372,204,22053,6,0,P|300:150|263:70,1,166.666666666667,10|0,0:0|0:0,0:0:0:0:
379,109,22935,2,0,P|294:140|200:145,1,166.666666666667,8|0,0:0|0:0,0:0:0:0:
64,242,23818,2,0,P|146:250|227:273,1,166.666666666667,8|0,0:0|0:0,0:0:0:0:
129,336,24700,2,0,P|121:275|118:140,1,166.666666666667,8|0,0:0|0:0,0:0:0:0:
256,192,25582,5,10,0:0:0:0:
256,192,25729,12,0,28818,0:0:0:0:
256,192,29112,5,8,0:0:0:0:
256,192,29259,12,0,32347,0:0:0:0:
116,123,32641,6,0,P|124:94|131:33,2,83.3333333333333,2|0|0,0:0|0:0|0:0,0:0:0:0:
265,102,33524,2,0,P|244:78|208:45,1,62.5000023841859
79,209,34406,6,0,P|136:230|280:238,1,187.500007152558,2|0,0:0|0:0,0:0:0:0:
423,169,35582,2,0,P|385:175|346:185,1,62.5000023841859,0|0,0:0|0:0,0:0:0:0:
351,303,36171,6,0,P|362:254|360:171,1,125.000004768372,2|0,0:0|0:0,0:0:0:0:
116,123,37347,2,0,P|121:158|136:198,1,62.5000023841859
94,306,37935,6,0,P|163:269|278:276,1,187.500007152558,2|0,0:0|0:0,0:0:0:0:
304,164,39112,2,0,P|259:167|222:168,1,62.5000023841859,0|0,0:0|0:0,0:0:0:0:
116,123,39700,6,0,P|162:98|221:33,1,125.000004768372,2|0,0:0|0:0,0:0:0:0:
241,167,40582,2,0,P|234:201|231:239,2,62.5000023841859
341,228,41465,6,0,B|290:239|251:223|251:223|215:234|215:234|139:224,1,187.500007152558,2|0,0:0|0:0,0:0:0:0:
47,211,42641,2,0,P|48:243|58:282,1,62.5000023841859,0|0,0:0|0:0,0:0:0:0:
187,294,43229,6,0,P|184:238|184:144,1,125.000004768372,2|0,0:0|0:0,0:0:0:0:
320,315,44406,2,0,P|352:313|408:306,1,62.5000023841859,0|0,0:0|0:0,0:0:0:0:
484,324,44994,6,0,B|483:268|483:268|473:234|473:234|477:174|477:174|438:161,1,187.500007152558,2|0,0:0|0:0,0:0:0:0:
362,240,46171,2,0,P|337:247|288:242,1,62.5000023841859,0|0,0:0|0:0,0:0:0:0:
93,156,46759,6,0,P|157:174|250:163,1,141.666669368744,6|0,0:2|0:2,0:0:0:0:
334,106,47641,2,0,P|260:54|235:100,1,141.666669368744,8|4,0:2|0:2,0:0:0:0:
436,164,48524,2,0,P|448:110|433:19,1,141.666669368744,4|0,0:2|0:2,0:0:0:0:
340,229,49406,2,0,P|413:276|494:256,1,141.666669368744,8|0,0:2|0:2,0:0:0:0:
366,115,50288,6,0,P|303:111|209:75,1,141.666669368744,6|0,0:2|0:2,0:0:0:0:
127,259,51171,2,0,P|201:238|253:195,1,141.666669368744,8|4,0:2|0:2,0:0:0:0:
129,147,52053,2,0,P|148:232|177:312,1,141.666669368744,4|0,0:2|0:2,0:0:0:0:
330,184,52935,2,0,P|333:126|330:41,1,141.666669368744,8|0,0:2|0:2,0:0:0:0:
167,183,53818,6,0,B|130:177|103:148|103:148|109:119|155:79,1,141.666669368744,6|0,0:2|0:2,0:0:0:0:
330,184,54700,2,0,B|354:217|353:253|353:253|323:271|290:275,1,141.666669368744,8|4,0:2|0:2,0:0:0:0:
167,183,55582,2,0,P|134:237|188:216,1,141.666669368744,4|0,0:2|0:2,0:0:0:0:
226,54,56465,2,0,B|176:59|131:40|131:40|72:46,1,141.666669368744,8|0,0:2|0:2,0:0:0:0:
29,183,57347,6,0,L|37:265,1,70.833334684372,6|0,0:2|0:0,0:0:0:0:
162,308,57935,1,0,0:0:0:0:
252,200,58229,2,0,L|245:113,1,74.9999977111817,8|0,0:2|0:0,0:0:0:0:
123,67,58818,1,4,0:2:0:0:
115,237,59112,6,0,P|137:262|163:279,1,56.2499982833863,14|0,0:1|0:0,0:0:0:0:
162,308,59406,2,0,L|141:393,2,74.9999977111817,8|8|8,0:2|0:0|0:1,0:0:0:0:
296,266,60288,2,0,P|339:263|380:274,1,74.9999977111817,8|8,0:2|0:0,0:0:0:0:
392,171,60877,5,6,0:1:0:0:
323,363,61171,1,0,0:0:0:0:
287,163,61465,1,0,0:0:0:0:
439,272,61759,1,8,0:2:0:0:
239,267,62053,1,0,0:0:0:0:
410,150,62347,1,8,0:0:0:0:
410,150,62641,6,0,L|300:135,1,91.6666694641114,8|0,0:0|0:0,0:0:0:0:
245,125,63082,1,0,0:0:0:0:
245,125,63229,1,0,0:0:0:0:
373,282,63524,1,8,0:2:0:0:
214,232,63818,1,0,0:0:0:0:
410,150,64112,1,0,0:0:0:0:
410,150,64406,6,0,L|401:249,1,91.6666694641114,10|0,0:0|0:0,0:0:0:0:
401,242,64847,1,0,0:0:0:0:
401,242,64994,1,0,0:0:0:0:
250,137,65288,1,8,0:2:0:0:
415,115,65582,1,0,0:0:0:0:
289,260,65877,1,8,0:0:0:0:
250,137,66171,6,0,L|365:137,1,91.6666694641114,8|0,0:0|0:0,0:0:0:0:
239,44,66759,1,0,0:0:0:0:
151,204,67053,2,0,L|37:204,1,91.6666694641114,8|0,0:2|0:0,0:0:0:0:
151,107,67641,1,8,0:0:0:0:
255,235,67935,6,0,L|247:326,1,91.6666694641114,10|0,0:0|0:0,0:0:0:0:
247,326,68377,1,0,0:0:0:0:
247,326,68524,1,0,0:0:0:0:
367,212,68818,2,0,P|407:206|472:207,1,91.6666694641114,8|0,0:2|0:0,0:0:0:0:
331,112,69406,1,8,0:0:0:0:
382,294,69700,5,8,0:0:0:0:
236,199,69994,1,0,0:0:0:0:
435,176,70288,1,0,0:0:0:0:
315,345,70582,2,0,P|300:304|287:231,1,91.6666694641114,8|0,0:2|0:0,0:0:0:0:
132,154,71171,2,0,P|175:148|238:123,1,91.6666694641114,0|10,0:0|0:0,0:0:0:0:
119,306,71759,6,0,L|33:306,2,45.8333347320557,0|0|0,0:0|0:0|0:0,0:0:0:0:
315,345,72347,1,8,0:2:0:0:
205,222,72641,2,0,P|209:173|234:107,1,91.6666694641114,0|8,0:0|0:0,0:0:0:0:
309,227,73229,6,0,P|230:225|117:208,1,183.333338928223,10|0,0:0|0:0,0:0:0:0:
92,82,74112,1,8,0:2:0:0:
252,150,74406,1,0,0:0:0:0:
50,191,74700,1,8,0:0:0:0:
160,31,74994,6,0,P|175:84|182:135,1,91.6666694641114,10|0,0:0|0:0,0:0:0:0:
191,201,75435,1,0,0:0:0:0:
191,201,75582,1,0,0:0:0:0:
256,40,75877,1,8,0:2:0:0:
86,121,76171,1,0,0:0:0:0:
261,178,76465,1,8,0:0:0:0:
348,50,76759,6,0,P|391:41|454:48,1,91.6666694641114,8|0,0:0|0:0,0:0:0:0:
438,44,77200,1,0,0:0:0:0:
438,44,77347,1,0,0:0:0:0:
274,247,77641,6,0,L|282:306,1,45.8333347320557,8|0,0:2|0:0,0:0:0:0:
294,177,77935,2,0,L|286:236,1,45.8333347320557
270,110,78229,2,0,L|278:169,1,45.8333347320557,8|0,0:0|0:0,0:0:0:0:
182,82,78524,6,0,P|135:85|96:102,1,68.7500020980836,14|0,0:1|0:0,0:0:0:0:
79,113,78818,2,0,L|59:23,2,91.6666694641114,8|8|8,0:2|0:3|0:1,0:0:0:0:
56,274,79700,2,0,P|104:248|155:239,1,91.6666694641114,8|8,0:2|0:0,0:0:0:0:
241,318,80288,5,6,0:1:0:0:
290,155,80583,1,0,0:0:0:0:
140,240,80877,1,0,0:0:0:0:
318,270,81171,1,8,0:2:0:0:
205,145,81465,1,0,0:0:0:0:
376,156,81759,1,8,0:0:0:0:
178,240,82053,6,0,P|129:212|108:164,1,91.6666694641114,8|0,0:0|0:0,0:0:0:0:
114,100,82494,1,0,0:0:0:0:
114,100,82641,1,0,0:0:0:0:
52,257,82936,1,8,0:2:0:0:
205,145,83230,1,0,0:0:0:0:
27,145,83524,1,0,0:0:0:0:
27,145,83818,6,0,L|36:243,1,91.6666694641114,10|0,0:0|0:0,0:0:0:0:
35,236,84259,1,0,0:0:0:0:
35,236,84406,1,0,0:0:0:0:
248,221,84700,1,8,0:2:0:0:
105,131,84994,1,0,0:0:0:0:
147,306,85289,1,8,0:0:0:0:
241,131,85583,6,0,P|289:123|340:136,1,91.6666694641114,8|0,0:0|0:0,0:0:0:0:
284,265,86171,1,0,0:0:0:0:
145,227,86465,2,0,L|129:120,1,91.6666694641114,8|0,0:2|0:0,0:0:0:0:
262,62,87053,1,8,0:0:0:0:
354,217,87347,6,0,P|401:225|445:224,1,91.6666694641114,10|0,0:0|0:0,0:0:0:0:
444,224,87789,1,0,0:0:0:0:
444,224,87936,1,0,0:0:0:0:
306,341,88230,2,0,P|260:340|213:333,1,91.6666694641114,8|0,0:2|0:0,0:0:0:0:
105,217,88818,1,8,0:0:0:0:
257,184,89112,5,8,0:0:0:0:
126,309,89406,1,0,0:0:0:0:
134,133,89700,1,0,0:0:0:0:
252,276,89994,2,0,P|307:295|365:297,1,91.6666694641114,8|0,0:2|0:0,0:0:0:0:
407,83,90583,2,0,P|361:107|306:156,1,91.6666694641114,0|10,0:0|0:0,0:0:0:0:
147,161,91171,6,0,L|105:141,2,45.8333347320557,0|0|0,0:0|0:0|0:0,0:0:0:0:
195,306,91759,1,8,0:2:0:0:
365,335,92053,2,0,P|358:285|354:242,1,91.6666694641114,0|8,0:0|0:0,0:0:0:0:
230,148,92641,6,0,B|194:162|154:149|154:149|129:163|129:163|95:141|54:149,1,183.333338928223,10|0,0:0|0:0,0:0:0:0:
197,237,93524,1,8,0:2:0:0:
193,65,93818,1,0,0:0:0:0:
74,235,94112,1,8,0:0:0:0:
279,279,94406,6,0,P|287:234|290:183,1,91.6666694641114,10|0,0:0|0:0,0:0:0:0:
293,105,94847,1,0,0:0:0:0:
293,105,94994,1,0,0:0:0:0:
379,243,95289,1,8,0:2:0:0:
180,207,95583,1,0,0:0:0:0:
289,312,95877,1,8,0:0:0:0:
362,154,96171,6,0,P|405:145|467:152,1,91.6666694641114,8|0,0:0|0:0,0:0:0:0:
452,148,96612,1,0,0:0:0:0:
452,148,96759,1,0,0:0:0:0:
345,277,97053,6,0,L|353:336,1,45.8333347320557,8|0,0:2|0:0,0:0:0:0:
263,242,97347,2,0,L|239:297,1,45.8333347320557,0|0,0:0|0:0,0:0:0:0:
223,160,97641,2,0,L|167:182,1,45.8333347320557,8|0,0:0|0:0,0:0:0:0:
248,77,97936,6,0,B|319:34|429:31|429:31|409:70|409:70|419:98|419:98|410:122|410:122|412:149|412:149|360:144|298:152,1,416.666666666667,6|0,0:1|0:0,0:0:0:0:
187,298,99700,6,0,P|147:301|95:285,1,83.3333333333333,6|0,0:1|0:0,0:0:0:0:
38,255,100141,1,0,0:0:0:0:
38,255,100288,1,0,0:0:0:0:
154,177,100582,2,0,P|157:140|157:78,1,83.3333333333333,8|0,0:1|0:0,0:0:0:0:
27,150,101170,1,8,0:3:0:0:
187,298,101464,6,0,P|219:301|262:297,2,62.5000023841859,8|0|0,0:0|0:0|0:0,0:0:0:0:
227,143,102347,1,8,0:1:0:0:
395,121,102641,5,8,0:0:0:0:
386,170,102788,1,8,0:0:0:0:
377,219,102935,1,4,0:0:0:0:
179,235,103229,6,0,L|189:321,2,62.5000023841859,0|8|8,0:0|0:0|0:0,0:0:0:0:
95,141,104111,2,0,L|104:80,2,62.5000023841859,8|8|8,0:2|0:0|0:0,0:0:0:0:
70,264,104994,5,10,0:0:0:0:
185,200,105288,1,8,0:0:0:0:
28,166,105582,1,8,0:0:0:0:
147,301,105876,1,4,0:0:0:0:
290,123,106170,5,8,0:0:0:0:
240,119,106317,1,8,0:0:0:0:
190,116,106464,1,6,0:2:0:0:
251,305,106758,5,6,0:1:0:0:
380,182,107052,1,0,0:0:0:0:
205,195,107346,1,0,0:0:0:0:
367,303,107641,1,8,0:1:0:0:
197,301,107934,1,0,0:0:0:0:
392,192,108228,1,8,0:0:0:0:
187,127,108522,6,0,P|189:194|192:236,1,91.6666694641114,8|0,0:0|0:0,0:0:0:0:
197,301,108963,1,0,0:0:0:0:
197,301,109110,1,0,0:0:0:0:
93,173,109405,1,8,0:1:0:0:
272,190,109699,1,0,0:0:0:0:
104,281,109993,1,0,0:0:0:0:
158,44,110287,6,0,P|201:42|252:71,1,91.6666694641114,10|0,0:0|0:0,0:0:0:0:
294,127,110728,1,0,0:0:0:0:
294,127,110875,1,0,0:0:0:0:
344,20,111169,1,8,0:1:0:0:
187,127,111463,1,0,0:0:0:0:
352,202,111758,1,8,0:0:0:0:
453,90,112052,6,0,P|403:85|362:95,1,91.6666694641114,8|0,0:0|0:0,0:0:0:0:
274,225,112640,1,0,0:0:0:0:
137,138,112934,2,0,P|188:131|228:138,1,91.6666694641114,8|0,0:1|0:0,0:0:0:0:
125,48,113522,1,8,0:0:0:0:
183,233,113816,6,0,P|180:276|176:324,1,91.6666694641114,10|0,0:0|0:0,0:0:0:0:
175,324,114258,1,0,0:0:0:0:
175,324,114405,1,0,0:0:0:0:
295,278,114699,2,0,P|334:272|399:273,1,91.6666694641114,8|0,0:1|0:0,0:0:0:0:
465,180,115287,1,8,0:0:0:0:
419,355,115581,5,8,0:0:0:0:
362,181,115875,1,0,0:0:0:0:
482,268,116169,1,0,0:0:0:0:
295,278,116464,2,0,P|280:237|271:161,1,91.6666694641114,8|0,0:1|0:0,0:0:0:0:
92,103,117052,2,0,P|107:144|116:220,1,91.6666694641114,0|10,0:0|0:0,0:0:0:0:
214,320,117640,6,0,L|260:320,2,45.8333347320557,0|0|0,0:0|0:0|0:0,0:0:0:0:
116,192,118228,1,8,0:1:0:0:
343,206,118523,1,8,0:0:0:0:
178,74,118817,1,8,0:0:0:0:
362,23,119111,6,0,L|341:224,1,183.333338928223,6|0,0:1|0:0,0:0:0:0:
252,48,119993,1,8,0:1:0:0:
441,120,120287,1,0,0:0:0:0:
240,194,120581,1,8,0:0:0:0:
459,277,120875,6,0,P|473:237|466:180,1,91.6666694641114,10|0,0:0|0:0,0:0:0:0:
438,117,121316,1,0,0:0:0:0:
438,117,121463,1,0,0:0:0:0:
333,267,121758,1,8,0:1:0:0:
186,116,122052,1,0,0:0:0:0:
349,157,122346,1,8,0:0:0:0:
131,267,122640,6,0,P|122:225|135:164,1,91.6666694641114,8|0,0:0|0:0,0:0:0:0:
129,176,123081,1,0,0:0:0:0:
129,176,123228,1,0,0:0:0:0:
256,301,123522,6,0,L|315:293,1,45.8333347320557,8|0,0:1|0:0,0:0:0:0:
222,222,123816,2,0,L|281:214,1,45.8333347320557,0|0,0:0|0:0,0:0:0:0:
183,146,124110,2,0,L|242:138,1,45.8333347320557,8|0,0:0|0:0,0:0:0:0:
314,148,124405,6,0,P|342:180|351:219,1,68.7500020980836,14|0,0:1|0:0,0:0:0:0:
386,224,124699,2,0,P|379:270|376:319,2,91.6666694641114,8|8|8,0:2|0:3|0:1,0:0:0:0:
382,102,125582,5,8,0:2:0:0:
432,99,125729,1,8,0:2:0:0:
482,95,125876,1,6,0:2:0:0:
353,236,126169,5,6,0:1:0:0:
276,84,126464,1,0,0:0:0:0:
233,267,126758,1,0,0:0:0:0:
373,141,127052,1,8,0:1:0:0:
190,149,127346,1,0,0:0:0:0:
346,259,127640,1,8,0:0:0:0:
372,110,127934,6,0,P|331:113|277:109,1,91.6666694641114,8|0,0:0|0:0,0:0:0:0:
204,79,128375,1,0,0:0:0:0:
204,79,128522,1,0,0:0:0:0:
362,183,128817,1,8,0:1:0:0:
331,20,129111,1,0,0:0:0:0:
245,201,129405,1,0,0:0:0:0:
245,201,129699,6,0,L|343:192,1,91.6666694641114,10|0,0:0|0:0,0:0:0:0:
336,192,130140,1,0,0:0:0:0:
336,192,130287,1,0,0:0:0:0:
230,303,130581,1,8,0:1:0:0:
223,118,130875,1,0,0:0:0:0:
122,244,131170,1,8,0:0:0:0:
301,225,131464,6,0,P|309:177|296:125,1,91.6666694641114,8|0,0:0|0:0,0:0:0:0:
147,126,132052,1,0,0:0:0:0:
30,250,132346,2,0,P|70:244|135:244,1,91.6666694641114,8|0,0:1|0:0,0:0:0:0:
238,328,132934,1,8,0:0:0:0:
357,262,133228,6,0,P|405:270|449:269,1,91.6666694641114,10|0,0:0|0:0,0:0:0:0:
448,269,133670,1,0,0:0:0:0:
448,269,133817,1,0,0:0:0:0:
315,163,134111,2,0,P|316:116|323:69,1,91.6666694641114,8|0,0:1|0:0,0:0:0:0:
175,55,134699,1,8,0:0:0:0:
155,238,134993,5,8,0:0:0:0:
315,163,135287,1,0,0:0:0:0:
151,123,135581,1,0,0:0:0:0:
288,283,135875,2,0,P|340:282|385:262,1,91.6666694641114,8|0,0:1|0:0,0:0:0:0:
342,75,136464,2,0,P|318:143|313:185,1,91.6666694641114,0|10,0:0|0:0,0:0:0:0:
155,238,137052,6,0,L|157:293,2,45.8333347320557
114,89,137640,1,8,0:1:0:0:
260,188,137934,1,8,0:0:0:0:
28,225,138228,1,8,0:0:0:0:
138,55,138522,6,0,B|155:242,1,183.333338928223,6|0,0:1|0:0,0:0:0:0:
309,194,139405,1,8,0:1:0:0:
217,83,139699,1,0,0:0:0:0:
75,187,139993,1,8,0:0:0:0:
229,328,140287,6,0,P|238:283|241:232,1,91.6666694641114,10|0,0:0|0:0,0:0:0:0:
243,161,140728,1,0,0:0:0:0:
243,161,140875,1,0,0:0:0:0:
335,302,141170,1,8,0:1:0:0:
484,236,141464,1,0,0:0:0:0:
395,108,141758,1,8,0:0:0:0:
332,241,142052,6,0,P|280:240|228:236,1,91.6666694641114,8|0,0:0|0:0,0:0:0:0:
240,237,142493,1,0,0:0:0:0:
240,237,142640,1,0,0:0:0:0:
55,267,142934,6,0,L|63:326,1,45.8333347320557,8|0,0:1|0:0,0:0:0:0:
143,216,143228,2,0,L|135:275,1,45.8333347320557
61,143,143522,2,0,L|69:202,1,45.8333347320557,8|0,0:0|0:0,0:0:0:0:
50,55,143817,6,0,B|122:49|157:107|229:198|307:-1|200:-62|50:18|167:113|150:183,1,416.666666666667,2|0,0:1|0:0,0:0:0:0:
104,344,145581,6,0,B|184:377|191:307|275:353,1,166.666666666667,10|0,0:3|0:0,0:0:0:0:
341,246,146463,2,0,B|261:214|254:284|170:237,1,166.666666666667,8|0,0:1|0:0,0:0:0:0:
224,175,147345,5,6,0:1:0:0:
224,175,148522,5,0,0:0:0:0:
165,29,148816,1,0,0:0:0:0:
132,125,149110,6,0,B|186:139|231:114|231:114|268:120|293:145|293:145|238:149|216:187,1,250,2|0,0:0|0:0,0:0:0:0:
318,281,150286,2,0,P|356:291|401:273,1,83.3333333333333,0|0,0:0|0:0,0:0:0:0:
188,217,150875,6,0,B|157:265|176:309|176:309|146:326|104:322|104:322|130:365|167:361,1,250,2|0,0:0|0:0,0:0:0:0:
56,244,152051,2,0,P|66:202|86:157,1,83.3333333333333,0|0,0:0|0:0,0:0:0:0:
146,45,152639,6,0,B|188:90|234:88|234:88|249:64|278:45|278:45|278:97|314:128,1,250,2|0,0:0|0:0,0:0:0:0:
472,51,153816,2,0,P|433:48|376:49,1,83.3333333333333,0|0,0:0|0:0,0:0:0:0:
340,220,154404,6,0,B|284:222|244:195|244:195|185:226|185:226|148:200|92:209,1,250,2|0,0:0|0:0,0:0:0:0:
144,344,155581,2,0,P|191:353|233:341,1,83.3333333333333,0|0,0:0|0:0,0:0:0:0:
378,359,156169,6,0,B|388:321|376:290|376:290|403:275|423:235|418:206,1,166.666666666667,10|0,0:0|0:0,0:0:0:0:
352,54,157051,2,0,B|298:73|247:46|247:46|222:58|185:64,1,166.666666666667,0|0,0:0|0:0,0:0:0:0:
79,189,157933,6,0,B|109:170|150:168|177:183|177:183|189:219|218:239,1,166.666666666667,2|0,0:0|0:0,0:0:0:0:
402,150,158816,2,0,P|344:101|292:157,1,166.666666666667,0|8,0:0|0:0,0:0:0:0:
209,307,159698,6,0,P|171:311|121:310,1,83.3333333333333,10|0,0:0|0:0,0:0:0:0:
239,208,160286,1,0,0:0:0:0:
309,287,160581,2,0,P|340:294|390:298,1,74.9999977111817,0|0,0:0|0:0,0:0:0:0:
298,122,161169,1,0,0:0:0:0:
239,208,161463,6,0,B|250:157|219:143|228:118|228:118|244:86|297:122|297:122|347:79|402:135|377:196|247:243,1,412.499987411499,2|0,0:0|0:0,0:0:0:0:
256,192,163228,12,0,173816,0:0:0:0:
