osu file format v14

[General]
AudioFilename: optc.mp3
AudioLeadIn: 0
PreviewTime: 60582
Countdown: 0
SampleSet: None
StackLeniency: 0.7
Mode: 0
LetterboxInBreaks: 0
WidescreenStoryboard: 1

[Editor]
Bookmarks: 14994,32641,46759,60877,80288,99700,106758,126170,145581,163228
DistanceSpacing: 1.2
BeatDivisor: 3
GridSize: 16
TimelineZoom: 1.3

[Metadata]
Title:Qing Shen Shen Yu Meng Meng
TitleUnicode:情深深雨濛濛
Artist:Zhao Wei
ArtistUnicode:趙薇
Creator:Shad0w1and
Version:Pata-Mon's Normal
Source:情深深雨濛濛
Tags:Vicki 煙雨濛濛 Yan Yu Meng Meng Pata-Mon
BeatmapID:1002765
BeatmapSetID:455690

[Difficulty]
HPDrainRate:4
CircleSize:3.2
OverallDifficulty:4
ApproachRate:5
SliderMultiplier:2
SliderTickRate:1

[Events]
//Background and Video events
0,0,"BG.png",0,0
Video,0,"optc.flv"
//Break Periods
//Storyboard Layer 0 (Background)
//Storyboard Layer 1 (Fail)
//Storyboard Layer 2 (Pass)
//Storyboard Layer 3 (Foreground)
//Storyboard Sound Samples

[TimingPoints]
877,882.352941176471,4,3,1,20,1,0
877,-100,4,3,1,20,0,0
14112,-100,4,3,1,30,0,0
14995,-100,4,3,1,60,0,0
25729,-100,4,3,1,40,0,0
29112,-100,4,3,1,60,0,0
29259,-100,4,3,1,40,0,0
32642,-100,4,3,1,50,0,0
46759,-100,4,3,1,60,0,0
57348,-100,4,3,1,60,0,0
60877,-100,4,3,1,70,0,1
78524,-100,4,3,1,70,0,0
80289,882.352941176471,4,3,1,70,1,1
80289,-100,4,3,1,70,0,1
97936,-100,4,3,1,60,0,0
99700,882.352941176471,4,3,1,40,1,0
101464,-100,4,3,1,50,0,0
102641,-100,4,3,1,60,0,0
106758,-100,4,3,1,70,0,1
124405,-100,4,3,1,70,0,0
126170,882.352941176471,4,3,1,70,1,1
126170,-100,4,3,1,70,0,1
143817,-100,4,3,1,70,0,0
145581,882.352941176471,4,3,1,70,1,0
147346,-100,4,3,1,40,0,0
149110,-100,4,3,1,50,0,0
159700,-100,4,3,1,40,0,0
163228,-100,4,3,1,30,0,0
164992,-100,4,3,1,20,0,0
166757,-100,4,3,1,12,0,0
168522,-100,4,3,1,8,0,0
170286,-100,4,3,1,5,0,0

[Colours]
Combo1 : 252,58,64
Combo2 : 184,255,119
Combo3 : 164,89,255
Combo4 : 247,104,125
Combo5 : 255,192,0

[HitObjects]
356,302,877,6,0,P|401:254|420:190,1,133.333333333333,2|0,0:0|0:0,0:0:0:0:
465,124,1759,2,0,B|394:76|338:171|274:122,1,200,0|2,0:0|0:0,0:0:0:0:
50,36,3524,1,0,0:0:0:0:
111,86,3818,2,0,L|92:150,1,66.6666666666667,0|0,0:0|0:0,0:0:0:0:
151,203,4406,6,0,P|218:206|282:190,1,133.333333333333,2|0,0:0|0:0,0:0:0:0:
298,112,5288,2,0,B|392:142|329:219|428:249,1,200,0|2,0:0|0:0,0:0:0:0:
504,21,7053,2,0,L|507:87,1,66.6666666666667,0|0,0:0|0:0,0:0:0:0:
475,160,7641,1,0,0:0:0:0:
397,178,7935,6,0,P|330:177|271:147,1,133.333333333333,2|0,0:0|0:0,0:0:0:0:
232,77,8818,2,0,B|195:106|195:106|191:189|119:231,1,200,0|2,0:0|0:0,0:0:0:0:
343,318,10582,1,0,0:0:0:0:
419,292,10877,2,0,L|441:229,1,66.6666666666667
509,187,11465,6,0,P|456:150|393:165,1,133.333333333333,2|0,0:0|0:0,0:0:0:0:
329,212,12347,2,0,P|265:226|212:189,1,133.333333333333
256,192,13229,12,6,14994,0:2:0:0:
236,142,15877,6,0,B|173:149|129:196|129:196|138:235|123:272,2,200,0|0|0,0:0|0:0|0:0,0:0:0:0:
395,136,18229,1,8,0:0:0:0:
446,195,18524,6,0,P|454:261|439:326,1,133.333333333333,10|0,0:0|0:0,0:0:0:0:
362,307,19406,2,0,B|285:302|235:347|235:347|172:336,2,200,0|0|0,0:0|0:0|0:0,0:0:0:0:
229,216,21759,1,8,0:0:0:0:
158,255,22053,6,0,P|94:237|28:232,1,133.333333333333,10|0,0:0|0:0,0:0:0:0:
0,157,22935,2,0,P|64:139|130:134,1,133.333333333333,8|0,0:0|0:0,0:0:0:0:
210,132,23818,6,0,P|265:97|293:37,1,133.333333333333,8|0,0:0|0:0,0:0:0:0:
371,23,24700,2,0,P|433:44|472:97,1,133.333333333333,8|0,0:0|0:0,0:0:0:0:
445,172,25582,6,0,L|480:228,2,66.6666666666667,10|0|0,0:0|0:0|0:0,0:0:0:0:
365,165,26465,2,0,L|329:108,2,66.6666666666667,0|0|0,0:0|0:0|0:0,0:0:0:0:
333,238,27347,6,0,P|306:259|274:267,1,66.6666666666667,0|0,0:0|0:0,0:0:0:0:
194,267,27935,1,0,0:0:0:0:
124,227,28229,2,0,P|103:200|95:168,1,66.6666666666667,0|0,0:0|0:0,0:0:0:0:
96,88,28817,1,0,0:0:0:0:
162,43,29112,6,0,P|139:20|108:8,2,66.6666666666667,8|0|0,0:0|0:0|0:0,0:0:0:0:
209,109,29994,2,0,P|232:132|263:143,2,66.6666666666667,0|0|0,0:0|0:0|0:0,0:0:0:0:
276,64,30877,6,0,P|339:45|405:41,1,133.333333333333,0|0,0:0|0:0,0:0:0:0:
485,26,31759,2,0,B|494:79|446:100|454:152,1,133.333333333333
445,232,32641,6,0,L|511:238,2,66.6666666666667,2|0|0,0:0|0:0|0:0,0:0:0:0:
364,228,33524,1,0,0:0:0:0:
289,258,33818,2,0,P|259:245|234:223,1,66.6666666666667,0|0,0:0|0:0,0:0:0:0:
158,198,34406,6,0,P|111:244|96:308,1,133.333333333333,2|0,0:0|0:0,0:0:0:0:
154,363,35288,1,0,0:0:0:0:
233,363,35582,2,0,L|297:346,1,66.6666666666667,0|0,0:0|0:0,0:0:0:0:
331,273,36171,6,0,L|395:289,1,66.6666666666667,2|0,0:0|0:0,0:0:0:0:
460,240,36759,2,0,L|509:284,1,66.6666666666667,0|0,0:0|0:0,0:0:0:0:
467,352,37347,2,0,L|402:368,1,66.6666666666667,0|0,0:0|0:0,0:0:0:0:
396,289,37935,6,0,L|331:272,2,66.6666666666667,2|0|0,0:0|0:0|0:0,0:0:0:0:
460,240,38818,1,0,0:0:0:0:
498,170,39112,2,0,P|494:136|486:104,1,66.6666666666667,0|0,0:0|0:0,0:0:0:0:
413,70,39700,6,0,B|362:55|331:101|282:85,1,133.333333333333,2|0,0:0|0:0,0:0:0:0:
222,32,40582,2,0,L|157:14,2,66.6666666666667,0|0|0,0:0|0:0|0:0,0:0:0:0:
208,110,41465,6,0,P|185:173|139:221,1,133.333333333333,2|0,0:0|0:0,0:0:0:0:
59,221,42347,1,0,0:0:0:0:
5,161,42641,2,0,L|11:95,1,66.6666666666667,0|0,0:0|0:0,0:0:0:0:
65,35,43229,6,0,L|127:57,1,66.6666666666667,2|0,0:0|0:0,0:0:0:0:
182,117,43818,1,0,0:0:0:0:
206,41,44112,2,0,B|271:66|243:109|299:130,1,133.333333333333,0|0,0:0|0:0,0:0:0:0:
378,139,44994,6,0,P|375:172|365:204,2,66.6666666666667,2|0|0,0:0|0:0|0:0,0:0:0:0:
346,65,45877,1,0,0:0:0:0:
299,130,46171,2,0,L|183:160,1,66.6666666666667,0|0,0:0|0:0,0:0:0:0:
154,139,46759,6,0,L|160:205,1,66.6666666666667,6|0,0:2|0:0,0:0:0:0:
203,273,47347,1,0,0:2:0:0:
281,287,47641,2,0,P|346:275|407:249,1,133.333333333333,8|4,0:2|0:2,0:0:0:0:
487,239,48524,6,0,L|470:174,1,66.6666666666667,4|0,0:2|0:0,0:0:0:0:
413,117,49112,1,0,0:2:0:0:
346,161,49406,1,8,0:2:0:0:
288,104,49700,2,0,L|271:39,1,66.6666666666667,0|0,0:0|0:2,0:0:0:0:
192,27,50288,6,0,P|133:59|92:111,1,133.333333333333,6|0,0:2|0:2,0:0:0:0:
128,183,51171,2,0,L|93:240,1,66.6666666666667,8|0,0:2|0:0,0:0:0:0:
17,263,51759,1,4,0:2:0:0:
75,318,52053,6,0,L|141:326,1,66.6666666666667,4|0,0:2|0:0,0:0:0:0:
221,326,52641,1,0,0:2:0:0:
263,258,52935,2,0,B|319:293|283:337|332:366,1,133.333333333333,8|0,0:2|0:2,0:0:0:0:
412,374,53818,6,0,P|460:330|474:266,1,133.333333333333,6|0,0:2|0:2,0:0:0:0:
427,201,54700,2,0,L|445:137,1,66.6666666666667,8|0,0:2|0:0,0:0:0:0:
425,59,55288,1,4,0:2:0:0:
347,80,55582,6,0,L|283:61,2,66.6666666666667,4|0|0,0:2|0:0|0:2,0:0:0:0:
305,149,56465,2,0,P|277:166|245:176,1,66.6666666666667,8|0,0:2|0:0,0:0:0:0:
166,182,57053,1,0,0:2:0:0:
92,149,57347,6,0,P|67:210|62:276,1,133.333333333333,6|0,0:2|0:0,0:0:0:0:
137,307,58229,2,0,L|137:373,2,66.6666666666667,8|0|4,0:2|0:0|0:2,0:0:0:0:
201,259,59112,6,0,L|201:192,2,66.6666666666667,14|8|8,0:1|0:2|0:0,0:0:0:0:
265,307,59994,1,8,0:1:0:0:
338,275,60288,1,8,0:2:0:0:
346,195,60582,1,8,0:0:0:0:
388,126,60877,6,0,P|421:132|452:144,1,66.6666666666667,6|0,0:1|0:0,0:0:0:0:
506,203,61465,1,0,0:0:0:0:
427,221,61759,2,0,P|426:254|432:286,1,66.6666666666667,8|0,0:2|0:0,0:0:0:0:
464,359,62347,1,8,0:0:0:0:
384,351,62641,6,0,L|319:369,2,66.6666666666667,8|0|0,0:0|0:0|0:0,0:0:0:0:
432,287,63524,2,0,P|386:238|325:213,1,133.333333333333,8|0,0:2|0:0,0:0:0:0:
273,273,64406,6,0,L|208:291,2,66.6666666666667,10|0|0,0:0|0:0|0:0,0:0:0:0:
248,197,65288,1,8,0:2:0:0:
93,155,65877,1,8,0:0:0:0:
118,231,66171,6,0,L|94:293,2,66.6666666666667,8|0|0,0:0|0:0|0:0,0:0:0:0:
194,206,67053,2,0,P|227:207|258:218,1,66.6666666666667,8|0,0:2|0:0,0:0:0:0:
316,273,67641,1,8,0:0:0:0:
335,194,67935,6,0,P|396:170|463:164,1,133.333333333333,10|0,0:0|0:0,0:0:0:0:
500,93,68818,2,0,P|438:68|371:62,1,133.333333333333,8|8,0:2|0:0,0:0:0:0:
305,106,69700,6,0,L|253:169,2,66.6666666666667,8|0|0,0:0|0:0|0:0,0:0:0:0:
301,26,70582,2,0,P|269:18|236:16,1,66.6666666666667,8|0,0:2|0:0,0:0:0:0:
156,16,71171,1,0,0:0:0:0:
195,86,71465,6,0,P|163:95|130:91,2,66.6666666666667,10|0|0,0:0|0:0|0:0,0:0:0:0:
156,16,72347,2,0,P|123:12|91:22,1,66.6666666666667,8|0,0:2|0:0,0:0:0:0:
50,91,72935,1,8,0:0:0:0:
130,92,73229,6,0,P|146:156|152:222,1,133.333333333333,10|0,0:0|0:0,0:0:0:0:
80,259,74112,2,0,P|82:292|91:323,1,66.6666666666667,8|0,0:2|0:0,0:0:0:0:
170,337,74700,1,8,0:0:0:0:
217,273,74994,6,0,P|277:244|343:246,1,133.333333333333,10|0,0:0|0:0,0:0:0:0:
424,245,75877,2,0,L|421:311,1,66.6666666666667,8|0,0:2|0:0,0:0:0:0:
473,373,76465,1,8,0:0:0:0:
500,298,76759,6,0,L|504:164,1,133.333333333333,8|0,0:0|0:0,0:0:0:0:
451,104,77641,1,8,0:2:0:0:
377,135,77935,1,0,0:0:0:0:
383,214,78229,1,8,0:0:0:0:
309,245,78524,6,0,L|314:311,2,66.6666666666667,14|8|8,0:1|0:2|0:3,0:0:0:0:
383,214,79406,1,8,0:1:0:0:
377,135,79700,1,8,0:2:0:0:
300,116,79994,1,8,0:0:0:0:
257,183,80288,6,0,P|229:200|197:209,1,66.6666666666667,6|0,0:1|0:0,0:0:0:0:
117,213,80877,1,0,0:0:0:0:
126,292,81171,2,0,P|154:309|186:318,1,66.6666666666667,8|0,0:2|0:0,0:0:0:0:
267,322,81760,1,8,0:0:0:0:
341,293,82053,6,0,B|335:236|394:235|387:172,1,133.333333333333,8|0,0:0|0:0,0:0:0:0:
307,178,82936,2,0,P|244:156|195:111,1,133.333333333333,8|0,0:2|0:0,0:0:0:0:
172,35,83818,6,0,L|107:51,1,66.6666666666667,10|0,0:0|0:0,0:0:0:0:
51,108,84406,1,0,0:0:0:0:
30,31,84700,1,8,0:2:0:0:
142,145,85289,1,8,0:0:0:0:
163,222,85583,6,0,L|133:282,2,66.6666666666667,8|0|0,0:0|0:0|0:0,0:0:0:0:
240,206,86465,2,0,P|274:209|305:220,1,66.6666666666667,8|0,0:2|0:0,0:0:0:0:
347,288,87053,1,8,0:0:0:0:
416,250,87347,6,0,P|414:184|377:130,1,133.333333333333,10|0,0:0|0:0,0:0:0:0:
357,52,88230,2,0,L|290:57,1,66.6666666666667,8|0,0:2|0:0,0:0:0:0:
224,103,88818,1,8,0:0:0:0:
183,171,89112,6,0,L|116:165,1,66.6666666666667,8|0,0:0|0:0,0:0:0:0:
50,120,89700,1,0,0:0:0:0:
35,41,89994,2,0,P|144:19|205:46,1,133.333333333333,8|0,0:2|0:0,0:0:0:0:
221,78,90877,6,0,P|221:145|237:209,1,133.333333333333,10|0,0:0|0:0,0:0:0:0:
311,240,91759,2,0,P|308:273|301:305,1,66.6666666666667,8|0,0:2|0:0,0:0:0:0:
268,378,92347,1,8,0:0:0:0:
221,313,92641,6,0,P|157:293|110:247,1,133.333333333333,10|0,0:0|0:0,0:0:0:0:
68,179,93524,2,0,P|44:201|31:232,1,66.6666666666667,8|0,0:2|0:0,0:0:0:0:
58,308,94112,1,8,0:0:0:0:
111,248,94406,6,0,P|147:194|133:131,1,133.333333333333,10|0,0:0|0:0,0:0:0:0:
114,53,95289,2,0,L|180:44,1,66.6666666666667,8|0,0:2|0:0,0:0:0:0:
259,36,95877,1,8,0:0:0:0:
227,109,96171,6,0,L|293:117,1,66.6666666666667,8|0,0:0|0:0,0:0:0:0:
372,126,96759,1,0,0:0:0:0:
447,100,97053,2,0,L|465:164,1,66.6666666666667,8|0,0:2|0:0,0:0:0:0:
422,231,97641,1,8,0:0:0:0:
445,307,97936,5,6,0:1:0:0:
445,307,99700,6,0,P|485:254|510:192,1,133.333333333333,6|0,0:1|0:0,0:0:0:0:
470,124,100582,2,0,P|404:115|338:124,1,133.333333333333,8|8,0:1|0:3,0:0:0:0:
267,163,101464,6,0,P|241:143|221:117,1,66.6666666666667,8|0,0:0|0:0,0:0:0:0:
189,44,102052,1,0,0:0:0:0:
115,76,102347,2,0,P|88:96|68:122,1,66.6666666666667,8|8,0:1|0:0,0:0:0:0:
36,196,102935,1,4,0:0:0:0:
81,261,103229,6,0,P|60:287|34:307,2,66.6666666666667,0|8|8,0:0|0:0|0:0,0:0:0:0:
36,196,104111,2,0,P|56:169|82:149,2,66.6666666666667,8|8|8,0:2|0:0|0:0,0:0:0:0:
81,261,104994,6,0,P|108:279|140:288,1,66.6666666666667,10|8,0:0|0:0,0:0:0:0:
220,288,105582,1,8,0:0:0:0:
272,226,105876,2,0,P|299:208|331:199,1,66.6666666666667,4|8,0:0|0:0,0:0:0:0:
411,199,106464,1,6,0:0:0:0:
476,246,106758,6,0,L|471:312,1,66.6666666666667,6|0,0:1|0:0,0:0:0:0:
425,378,107347,1,0,0:0:0:0:
392,305,107641,2,0,L|328:324,1,66.6666666666667,8|0,0:1|0:0,0:0:0:0:
268,377,108229,1,8,0:0:0:0:
253,298,108523,6,0,L|190:221,2,66.6666666666667,8|0|0,0:0|0:0|0:0,0:0:0:0:
328,324,109405,2,0,P|349:299|361:268,1,66.6666666666667,8|0,0:1|0:0,0:0:0:0:
374,189,109994,1,0,0:0:0:0:
435,138,110288,6,0,P|465:125|498:119,2,66.6666666666667,10|0|0,0:0|0:0|0:0,0:0:0:0:
374,189,111170,2,0,P|309:172|252:137,1,133.333333333333,8|8,0:1|0:0,0:0:0:0:
210,70,112052,6,0,L|144:83,1,66.6666666666667,8|0,0:0|0:0,0:0:0:0:
64,76,112641,1,0,0:0:0:0:
97,149,112935,2,0,P|107:214|96:279,1,133.333333333333,8|8,0:1|0:0,0:0:0:0:
64,353,113817,6,0,P|96:359|128:353,1,66.6666666666667,10|0,0:0|0:0,0:0:0:0:
198,313,114405,1,0,0:0:0:0:
244,247,114700,2,0,P|309:241|371:265,1,133.333333333333,8|8,0:1|0:0,0:0:0:0:
430,319,115582,5,8,0:0:0:0:
486,261,115876,1,0,0:0:0:0:
502,182,116170,1,0,0:0:0:0:
425,206,116464,2,0,P|396:147|387:81,1,133.333333333333,8|0,0:1|0:0,0:0:0:0:
345,14,117347,5,10,0:0:0:0:
307,84,117641,2,0,L|242:68,1,66.6666666666667,0|0,0:0|0:0,0:0:0:0:
179,22,118229,1,8,0:1:0:0:
114,69,118523,1,8,0:0:0:0:
138,145,118817,1,8,0:0:0:0:
218,145,119111,6,0,P|235:201|177:216,1,133.333333333333,6|0,0:1|0:0,0:0:0:0:
138,145,119994,2,0,P|113:166|99:196,1,66.6666666666667,8|0,0:1|0:0,0:0:0:0:
122,272,120582,1,8,0:0:0:0:
196,302,120876,6,0,P|262:309|328:302,1,133.333333333333,10|0,0:0|0:0,0:0:0:0:
371,234,121758,2,0,P|403:241|428:262,1,66.6666666666667,8|0,0:1|0:0,0:0:0:0:
472,329,122347,1,8,0:0:0:0:
509,258,122641,6,0,P|518:192|509:126,1,133.333333333333,8|0,0:0|0:0,0:0:0:0:
428,133,123523,2,0,P|396:127|366:112,1,66.6666666666667,8|0,0:1|0:0,0:0:0:0:
306,60,124111,1,8,0:0:0:0:
289,138,124405,6,0,P|258:144|218:140,2,66.6666666666667,14|8|8,0:1|0:2|0:3,0:0:0:0:
365,112,125288,1,8,0:1:0:0:
414,177,125582,1,8,0:2:0:0:
368,243,125876,1,6,0:2:0:0:
292,219,126170,6,0,P|268:241|237:253,1,66.6666666666667,6|0,0:1|0:0,0:0:0:0:
157,263,126758,1,0,0:0:0:0:
103,203,127052,2,0,P|72:214|48:237,1,66.6666666666667,8|0,0:1|0:0,0:0:0:0:
13,309,127640,1,8,0:0:0:0:
83,342,127934,6,0,P|147:328|187:276,1,133.333333333333,8|0,0:0|0:0,0:0:0:0:
197,197,128817,2,0,L|261:178,1,66.6666666666667,8|0,0:1|0:0,0:0:0:0:
303,111,129405,1,0,0:0:0:0:
341,181,129699,6,0,P|399:168|383:110,1,133.333333333333,10|0,0:0|0:0,0:0:0:0:
303,111,130581,1,8,0:1:0:0:
173,16,131170,1,8,0:0:0:0:
104,56,131464,6,0,P|103:91|112:124,1,66.6666666666667,8|0,0:0|0:0,0:0:0:0:
173,172,132052,1,0,0:0:0:0:
236,220,132346,2,0,P|219:284|186:342,1,133.333333333333,8|8,0:1|0:0,0:0:0:0:
122,293,133228,6,0,L|56:278,2,66.6666666666667,10|0|0,0:0|0:0|0:0,0:0:0:0:
120,213,134111,2,0,P|143:151|196:111,1,133.333333333333,8|8,0:1|0:0,0:0:0:0:
272,138,134993,6,0,L|338:138,1,66.6666666666667,8|0,0:0|0:0,0:0:0:0:
414,112,135581,1,0,0:0:0:0:
488,138,135875,2,0,P|493:105|484:73,2,66.6666666666667,8|0|0,0:1|0:0|0:0,0:0:0:0:
414,112,136758,6,0,P|347:111|285:133,1,133.333333333333,10|0,0:0|0:0,0:0:0:0:
222,183,137640,1,8,0:1:0:0:
146,158,137934,1,8,0:0:0:0:
70,183,138228,1,8,0:0:0:0:
16,242,138522,6,0,P|62:288|124:311,1,133.333333333333,6|0,0:1|0:0,0:0:0:0:
194,271,139405,2,0,P|224:285|248:307,1,66.6666666666667,8|0,0:1|0:0,0:0:0:0:
289,376,139993,1,8,0:0:0:0:
328,307,140287,6,0,P|380:264|443:247,1,133.333333333333,10|0,0:0|0:0,0:0:0:0:
450,167,141170,2,0,P|418:156|385:154,1,66.6666666666667,8|0,0:1|0:0,0:0:0:0:
306,167,141758,1,8,0:0:0:0:
242,215,142052,6,0,P|192:170|167:109,1,133.333333333333,8|0,0:0|0:0,0:0:0:0:
187,32,142934,1,8,0:1:0:0:
110,54,143228,1,0,0:0:0:0:
54,111,143522,1,8,0:0:0:0:
34,188,143817,6,0,B|110:188|110:284|200:283,1,200,2|0,0:1|0:0,0:0:0:0:
434,227,145581,6,0,P|472:162|490:87,1,133.333333333333,10|0,0:0|0:0,0:0:0:0:
433,48,146463,2,0,P|366:54|305:80,1,133.333333333333,8|0,0:1|0:0,0:0:0:0:
246,132,147345,5,6,0:1:0:0:
246,132,148522,2,0,P|204:131|150:105,1,66.6666666666667
149,50,149110,6,0,P|79:25|9:132,1,200,2|0,0:0|0:0,0:0:0:0:
64,164,150286,2,0,P|67:204|61:242,1,66.6666666666667
5,285,150875,6,0,P|56:363|148:344,1,200,2|0,0:0|0:0,0:0:0:0:
180,269,152051,2,0,P|212:260|245:260,1,66.6666666666667
314,301,152639,6,0,P|370:235|274:209,1,200,2|0,0:0|0:0,0:0:0:0:
245,260,153816,2,0,P|214:213|223:154,1,66.6666666666667
245,130,154404,6,0,P|221:87|121:61,1,133.333333333333,2|0,0:0|0:0,0:0:0:0:
71,83,155286,2,0,P|85:157|90:246,1,133.333333333333
168,197,156169,6,0,P|248:201|317:215,1,133.333333333333,10|0,0:0|0:0,0:0:0:0:
320,288,157051,2,0,P|240:292|171:306,1,133.333333333333
137,363,157933,2,0,P|82:338|110:285,1,133.333333333333,2|0,0:0|0:0,0:0:0:0:
188,302,158816,2,0,P|218:318|250:327,1,66.6666666666667,0|0,0:0|0:0,0:0:0:0:
330,327,159404,1,8,0:0:0:0:
400,365,159698,6,0,P|431:306|437:240,1,133.333333333333,10|0,0:0|0:0,0:0:0:0:
363,208,160581,2,0,P|333:149|327:83,1,133.333333333333,0|0,0:0|0:0,0:0:0:0:
256,192,161463,12,0,163081,0:0:0:0:
256,192,163228,12,0,173816,0:0:0:0:
