osu file format v9

[General]
AudioFilename: Zhang shun zhong - 0800-092-000.mp3
AudioLeadIn: 0
PreviewTime: -1
Countdown: 0
SampleSet: Normal
StackLeniency: 0.7
Mode: 0
LetterboxInBreaks: 1

[Editor]
DistanceSpacing: 0.6
BeatDivisor: 6
GridSize: 8

[Metadata]
Title:0800-092-000
Artist:Zhang shun zhong
Creator:NanaDesu
Version:lol
Source:tettette-
Tags:fanzhen0019 Firce777

[Difficulty]
HPDrainRate:8
CircleSize:4
OverallDifficulty:5
ApproachRate:8
SliderMultiplier:1.8
SliderTickRate:1

[Events]
//Background and Video events
Video,0,"Zhang shun zhong - 0800-092-000.wmv"
0,0,"BG.png"
//Break Periods
//Storyboard Layer 0 (Background)
//Storyboard Layer 1 (Fail)
//Storyboard Layer 2 (Pass)
//Storyboard Layer 3 (Foreground)
//Storyboard Sound Samples
//Background Colour Transformations
3,100,163,162,255

[TimingPoints]
2871,300,4,1,1,41,1,0
8864,-133.333333333333,4,1,1,41,0,0
9471,-100,4,1,1,41,0,0
13671,-100,4,1,1,41,0,1
23121,-100,4,1,1,41,0,0
28116,300,4,1,1,41,1,0
37566,-50,4,1,1,41,0,1
42616,-50,4,1,1,20,0,1
42716,-50,4,1,1,41,0,1
45016,-50,4,1,1,20,0,1
45116,-50,4,1,1,41,0,1
47316,-100,4,1,1,41,0,0

[HitObjects]
168,144,2871,1,0
168,144,3171,1,0
168,144,3471,1,0
136,256,3621,1,0
248,224,3771,1,0
168,144,3921,1,0
168,144,4071,6,0,B|216:328,1,180,4|8
304,104,4671,1,0
264,208,4821,1,0
176,280,4971,1,8
64,304,5121,2,0,B|128:296|208:304|248:352|248:352,1,180
312,256,5571,6,0,B|392:304,1,90,8|0
336,184,5871,2,0,B|416:232,1,90,0|0
360,112,6171,2,8,B|440:160,1,90,8|8
272,128,6471,6,0,B|264:221|208:304,1,180,0|8
171,219,6921,2,0,B|224:200|296:216|352:272,1,180
212,297,7371,2,8,B|206:252|160:208,1,90
339,260,7671,6,0,B|416:240|456:128,1,180,0|8
336,136,8121,1,0
256,224,8271,2,0,B|296:256|358:263,1,90
418,172,8571,2,0,B|378:140|316:133,1,90,8|0
464,256,8871,6,0,B|512:224|504:128,2,134.999995976687,0|8|0
368,320,9621,1,0
256,360,9771,1,8
136,360,9921,1,0
288,184,10221,6,0,B|280:240|232:280,2,90,0|8|0
328,96,10671,1,0
216,152,10821,1,0
250,263,10971,1,8
360,216,11121,1,0
360,24,11271,5,0
216,336,11571,1,8
264,104,11871,1,0
312,288,12171,1,8
288,192,12321,1,0
288,192,12621,5,0
384,120,12771,1,8
408,232,12921,1,0
312,288,13071,5,0
480,184,13221,1,0
264,104,13371,1,8
96,208,13521,1,0
96,208,13671,6,0,B|48:192,2,30
208,184,13921,1,10
232,296,14071,1,0
120,320,14221,1,0
328,216,14521,6,0,B|278:209|216:240,1,90,10|0
504,320,14971,2,0,B|456:312|415:285,1,90,0|10
328,216,15271,1,0
304,104,15421,5,2
232,192,15571,1,0
120,216,15721,1,10
8,200,15871,1,0
8,200,15971,1,0
8,200,16071,6,0,B|16:256|32:304,1,90
88,56,16371,2,0,B|104:112|112:160,1,90,10|0
128,256,16671,1,0
352,192,16971,5,10
352,192,17121,1,0
272,280,17271,1,0
272,280,17421,1,0
240,176,17571,1,10
240,176,17721,1,0
272,280,17871,5,0
152,240,18021,1,0
152,112,18171,1,10
280,80,18321,1,2
352,192,18471,1,4
64,248,18771,6,0,B|168:240,1,90,10|0
272,280,19071,2,0,B|336:352,2,90,0|0|10
248,164,19521,2,0,B|288:60,1,90
320,192,19821,5,0
216,328,19971,1,10
152,168,20121,1,0
304,288,20271,1,0
136,264,20421,1,0
248,120,20571,1,10
232,224,20721,5,0
232,224,20871,1,4
416,80,21171,2,0,B|376:160,1,90,10|0
416,272,21471,1,0
247,120,21771,1,10
136,144,21922,2,0,B|95:224,1,90,0|0
208,200,22221,1,0
320,168,22371,2,0,B|384:248,1,90,10|0
264,264,22671,5,0
96,304,22821,1,0
232,344,22971,1,2
400,304,23121,1,2
336,248,23271,5,4
368,264,24471,1,4
400,280,25671,1,0
432,296,26271,1,4
464,312,26871,1,0
464,312,27171,1,0
464,312,27471,5,0
368,248,27621,1,0
256,216,27771,1,0
135,206,27921,1,0
200,336,28116,6,0,B|176:240|213:160,1,180,0|8
272,264,28566,1,0
135,206,28716,2,0,B|183:166|238:152,1,90
128,128,29016,2,0,B|176:136|229:171,1,90,8|0
376,320,29316,5,0
304,224,29466,1,0
272,56,29616,5,8
344,152,29766,1,0
264,296,29916,5,0
192,200,30066,1,0
64,168,30216,5,8
136,264,30366,1,0
264,296,30516,6,0,B|240:208|264:112,1,180,0|8
193,118,30966,2,0,B|170:208|194:296,1,180,0|0
328,208,31416,1,8
102,209,31566,1,0
48,104,31716,5,0
152,56,31866,1,0
184,48,31941,1,0
216,48,32016,1,8
328,80,32166,1,0
216,104,32316,6,0,B|168:104|112:152,1,90
280,192,32616,2,0,B|328:192|384:144,1,90,8|0
360,40,32916,5,0
136,256,33216,1,8
360,40,33516,1,0
136,256,33816,1,8
168,144,33966,1,0
248,232,34116,1,0
136,256,34266,5,0
24,216,34416,1,8
56,104,34566,1,0
168,144,34716,1,0
136,256,34866,1,0
152,368,35016,2,0,B|208:360|240:304,1,90,8|0
416,344,35316,6,0,B|368:272|272:224,1,180,0|8
416,344,35916,1,0
355,277,36066,1,0
281,228,36216,1,8
200,200,36366,1,0
112,192,36516,6,0,B|144:96,1,90
104,280,36816,2,0,B|16:240,1,90,8|0
192,288,37116,2,0,B|160:376,1,90
200,200,37416,2,4,B|288:232,1,90
64,48,37716,6,0,B|5:77|-13:164|56:240|141:203|170:135|160:96|112:48,1,360,0|8
312,160,38316,6,0,B|300:223|358:291|460:281|482:191|445:127|409:111|341:121,1,360,0|8
216,88,38766,5,0
136,128,38916,1,0
136,216,39066,1,0
216,248,39216,1,8
224,344,39366,1,0
136,360,39516,1,0
80,288,39666,1,0
176,232,39816,1,8
272,176,39966,1,0
392,152,40116,6,0,B|336:200|272:80|408:40|496:144|424:288|320:296,1,360,0|8
90,125,40716,6,0,B|116:59|150:79|242:92|163:192|110:225|110:225|222:198,1,360,0|8
299,178,41166,1,0
272,264,41316,5,0
360,240,41466,1,0
248,344,41616,1,8
424,296,41766,1,0
176,240,41916,1,0
424,168,42066,1,4
160,320,42216,1,4
488,224,42366,1,4
80,80,42516,6,0,B|46:96|34:147|75:192|125:170|142:130|136:108|108:80,1,180,0|0
216,112,42816,2,0,B|182:128|170:179|211:224|261:202|278:162|272:140|244:112,1,180,8|0
352,152,43116,2,0,B|318:168|306:219|347:264|397:242|414:202|408:180|380:152,1,180,0|0
280,272,43416,2,0,B|80:216,1,180,8|0
256,192,43716,6,0,B|289:208|301:259|260:304|210:282|193:242|199:220|227:192,1,180,0|0
296,128,44016,2,0,B|293:90|332:54|390:67|397:121|371:156|348:162|310:152,1,180,8|0
224,128,44316,2,0,B|192:148|142:133|124:75|168:43|211:48|227:64|238:103,1,180,0|0
256,192,44616,1,8
104,312,44916,6,0,B|71:296|59:245|100:200|150:222|167:262|161:284|133:312,1,180,0|0
264,288,45216,2,0,B|244:320|218:268|251:236|309:236|328:313|244:404,1,180,8|0
376,272,45516,2,0,B|400:224|450:257|422:307|400:340|400:340|455:324,1,180
320,192,45816,2,0,B|136:160,1,180,8|0
112,72,46116,5,0
216,88,46266,1,0
320,104,46416,1,0
424,120,46566,1,0
392,224,46716,5,0
288,248,46866,1,0
184,272,47016,1,0
80,296,47166,1,0
152,184,47316,5,4
