osu file format v12

[General]
AudioFilename: lpshdlm.mp3
AudioLeadIn: 1000
PreviewTime: 66815
Countdown: 0
SampleSet: Soft
StackLeniency: 0.7
Mode: 0
LetterboxInBreaks: 0

[Editor]
DistanceSpacing: 1
BeatDivisor: 4
GridSize: 4

[Metadata]
Title:Lan Pi Shu Yu Da Lian Mao
TitleUnicode:蓝皮鼠与大脸猫
Artist:Zhang Zhongjin
ArtistUnicode:章中锦
Creator:sherrie__fay
Version:Insane
Source:
Tags:
BeatmapID:189559
BeatmapSetID:64404

[Difficulty]
HPDrainRate:7
CircleSize:4
OverallDifficulty:7
ApproachRate:8
SliderMultiplier:1.6
SliderTickRate:1

[Events]
//Background and Video events
0,0,"BG.png",0,0
//Break Periods
2,31154,35661
2,61197,65704
//Storyboard Layer 0 (Background)
//Storyboard Layer 1 (Fail)
//Storyboard Layer 2 (Pass)
//Storyboard Layer 3 (Foreground)
//Storyboard Sound Samples
//Background Colour Transformations
3,100,163,162,255

[TimingPoints]
1111,375.539838517869,4,2,0,60,1,0
13128,-100,4,2,0,50,0,0
13409,-100,4,2,0,60,0,0
13879,-100,4,2,0,50,0,0
14161,-100,4,2,0,60,0,0
36411,-100,4,1,0,30,0,0
36505,-100,4,1,0,29,0,0
36599,-100,4,1,0,28,0,0
36693,-100,4,1,0,27,0,0
36787,-100,4,1,0,26,0,0
36881,-100,4,1,0,25,0,0
36975,-100,4,1,0,24,0,0
37068,-100,4,1,0,23,0,0
37162,-100,4,2,0,60,0,0
66830,-100,4,1,0,30,0,0
67206,-100,4,2,0,60,0,0
90865,-100,4,2,0,80,0,0

[HitObjects]
104,108,1111,2,0,P|140:88|208:100,1,80,4|0,0:0|0:0,0:0:0:0:
220,92,1392,1,0,0:0:0:0:
256,112,1486,2,0,P|296:128|340:120,1,80,8|0,0:0|0:0,0:0:0:0:
372,112,1768,1,0,0:0:0:0:
404,84,1862,1,0,0:0:0:0:
348,232,2049,1,2,0:0:0:0:
256,24,2237,1,10,0:0:0:0:
256,24,2613,6,0,P|208:52|196:92,1,80,0|0,0:0|0:0,0:0:0:0:
176,104,2894,1,0,0:0:0:0:
184,144,2988,1,8,0:0:0:0:
256,296,3176,1,8,0:0:0:0:
328,144,3364,1,2,0:0:0:0:
328,144,3739,5,2,0:0:0:0:
360,168,3833,1,0,0:0:0:0:
396,188,3927,1,2,0:0:0:0:
436,200,4021,1,0,0:0:0:0:
476,204,4115,2,0,P|460:252|432:276,1,80,8|0,0:0|0:0,0:0:0:0:
404,288,4396,1,0,0:0:0:0:
364,288,4490,2,0,P|316:272|280:288,1,80,8|0,0:0|0:0,0:0:0:0:
256,296,4772,1,0,0:0:0:0:
256,336,4866,5,2,0:0:0:0:
116,188,5054,1,2,0:0:0:0:
396,188,5241,1,8,0:0:0:0:
396,188,5617,5,0,0:0:0:0:
304,104,5805,1,0,0:0:0:0:
256,80,5899,1,0,0:0:0:0:
208,104,5993,1,8,0:0:0:0:
116,188,6180,1,8,0:0:0:0:
256,296,6368,2,0,L|256:320,4,20,0|0|8|0|8,0:0|0:0|0:0|0:0|0:0,0:0:0:0:
256,296,6744,1,8,0:0:0:0:
408,308,6931,1,2,0:0:0:0:
408,308,7025,1,2,0:0:0:0:
408,308,7119,5,4,0:0:0:0:
492,172,7307,1,0,0:0:0:0:
332,192,7495,1,8,0:0:0:0:
388,44,7682,1,0,0:0:0:0:
256,132,7870,1,0,0:0:0:0:
124,44,8058,1,0,0:0:0:0:
180,192,8246,1,8,0:0:0:0:
20,172,8434,1,0,0:0:0:0:
104,308,8621,5,0,0:0:0:0:
256,244,8809,1,0,0:0:0:0:
256,244,8903,1,0,0:0:0:0:
256,244,8997,1,8,0:0:0:0:
408,308,9185,1,0,0:0:0:0:
376,192,9372,5,0,0:0:0:0:
332,180,9466,1,0,0:0:0:0:
328,136,9560,1,8,0:0:0:0:
292,108,9654,1,0,0:0:0:0:
256,132,9748,1,8,0:0:0:0:
220,108,9842,1,0,0:0:0:0:
184,136,9936,1,0,0:0:0:0:
180,180,10030,1,0,0:0:0:0:
136,192,10123,6,0,L|80:192,2,40
168,276,10499,2,0,L|136:304,2,40,2|0|0,0:0|0:0|0:0,0:0:0:0:
256,288,10875,2,0,L|256:336,2,40
344,276,11250,2,0,L|374:302,2,40,2|0|0,0:0|0:0|0:0,0:0:0:0:
376,192,11626,2,2,L|420:192,3,40,0|0|2|0,0:0|0:0|0:0|0:0,0:0:0:0:
376,192,12001,6,0,P|320:168|304:132,1,80,2|0,0:0|0:0,0:0:0:0:
256,84,12377,2,0,P|216:104|204:136,1,80,0|0,0:0|0:0,0:0:0:0:
180,220,12752,2,0,P|236:220|268:192,1,80,2|0,0:0|0:0,0:0:0:0:
92,68,13128,6,0,P|80:152|100:196,1,120,8|0,0:0|0:0,0:0:0:0:
128,208,13503,1,2,0:0:0:0:
256,84,13691,1,0,0:0:0:0:
232,312,13879,2,0,P|272:272|268:200,1,120,8|0,0:0|0:0,0:0:0:0:
256,172,14254,1,2,0:0:0:0:
56,152,14442,1,0,0:0:0:0:
224,48,14630,6,0,L|280:32,2,40,0|0|0,0:0|0:0|0:0,0:0:0:0:
396,132,15005,2,0,L|344:148,2,40,8|0|0,0:0|0:0|0:0,0:0:0:0:
404,220,15381,5,0,0:0:0:0:
376,256,15475,1,0,0:0:0:0:
332,252,15569,1,8,0:0:0:0:
296,280,15663,1,0,0:0:0:0:
256,260,15757,1,8,0:0:0:0:
216,280,15850,1,0,0:0:0:0:
180,252,15944,1,0,0:0:0:0:
136,256,16038,1,0,0:0:0:0:
108,220,16132,6,0,L|48:204,2,40
144,104,16508,2,0,L|184:144,2,40,2|0|0,0:0|0:0|0:0,0:0:0:0:
256,152,16883,2,0,L|256:96,2,40
368,104,17259,2,0,L|328:144,2,40,2|0|0,0:0|0:0|0:0,0:0:0:0:
404,220,17634,6,0,P|352:256|336:312,1,120,0|0,0:0|0:0,0:0:0:0:
356,344,18010,1,2,0:0:0:0:
256,264,18198,1,0,0:0:0:0:
156,344,18385,2,0,P|169:284|101:214,1,160,0|2,0:0|0:0,0:0:0:0:
196,120,19136,6,0,P|248:92|312:108,2,120,0|8|0,0:0|0:0|0:0,0:0:0:0:
260,172,19887,1,0,0:0:0:0:
116,96,20075,2,0,P|52:156|100:216,1,160,8|0,0:0|0:0,0:0:0:0:
140,260,20639,5,0,0:0:0:0:
156,296,20732,1,0,0:0:0:0:
188,324,20826,1,2,0:0:0:0:
228,328,20920,1,0,0:0:0:0:
264,316,21014,1,2,0:0:0:0:
320,232,21202,1,2,0:0:0:0:
320,232,21577,5,0,0:0:0:0:
264,316,21765,1,2,0:0:0:0:
264,316,22141,6,0,P|324:328|380:308,2,120,0|8|0,0:0|0:0|0:0,0:0:0:0:
200,268,22892,1,0,0:0:0:0:
256,72,23080,2,0,P|256:144|184:176,1,160,8|0,0:0|0:0,0:0:0:0:
188,104,23643,5,0,0:0:0:0:
220,124,23737,1,0,0:0:0:0:
256,144,23831,1,8,0:0:0:0:
292,164,23925,1,0,0:0:0:0:
328,184,24018,1,8,0:0:0:0:
416,232,24206,1,0,0:0:0:0:
416,232,24582,5,0,0:0:0:0:
420,124,24770,2,0,P|376:112|344:120,1,80,8|0,0:0|0:0,0:0:0:0:
420,124,25145,6,0,P|368:60|308:64,2,120,0|8|0,0:0|0:0|0:0,0:0:0:0:
416,232,25896,1,0,0:0:0:0:
208,260,26084,2,0,P|224:192|308:184,1,160,8|0,0:0|0:0,0:0:0:0:
292,276,26647,5,0,0:0:0:0:
248,264,26741,1,0,0:0:0:0:
208,260,26835,1,2,0:0:0:0:
164,272,26929,1,0,0:0:0:0:
128,296,27023,1,2,0:0:0:0:
136,148,27211,1,2,0:0:0:0:
136,148,27586,5,0,0:0:0:0:
256,44,27774,1,2,0:0:0:0:
256,44,28149,6,0,P|264:120|312:152,2,120,0|8|0,0:0|0:0|0:0,0:0:0:0:
332,72,28900,1,0,0:0:0:0:
256,216,29088,1,8,0:0:0:0:
180,72,29276,1,8,0:0:0:0:
364,176,29464,1,0,0:0:0:0:
256,332,29652,5,0,0:0:0:0:
148,176,29839,1,2,0:0:0:0:
364,176,30027,1,2,0:0:0:0:
256,216,30215,1,0,0:0:0:0:
256,100,30403,1,4,0:0:0:0:
136,140,36411,5,0,0:0:0:0:
155,105,36505,1,0,0:0:0:0:
184,78,36599,1,0,0:0:0:0:
220,61,36693,1,0,0:0:0:0:
260,56,36787,1,0,0:0:0:0:
299,63,36881,1,0,0:0:0:0:
334,81,36975,1,0,0:0:0:0:
362,110,37068,1,0,0:0:0:0:
380,145,37162,5,6,0:0:0:0:
380,145,37350,1,0,0:0:0:0:
436,252,37538,1,8,0:0:0:0:
436,252,37726,1,0,0:0:0:0:
316,244,37913,1,2,0:0:0:0:
316,244,38101,1,0,0:0:0:0:
220,316,38289,1,8,0:0:0:0:
220,316,38477,1,0,0:0:0:0:
104,292,38664,1,0,0:0:0:0:
104,292,38852,2,2,P|116:220|212:216,1,160,8|0,0:0|0:0,0:0:0:0:
256,31,39416,5,0,0:0:0:0:
288,56,39509,1,0,0:0:0:0:
304,92,39603,1,8,0:0:0:0:
304,132,39697,1,0,0:0:0:0:
288,168,39791,1,8,0:0:0:0:
260,196,39885,1,0,0:0:0:0:
232,224,39979,1,0,0:0:0:0:
212,260,40073,1,0,0:0:0:0:
200,300,40167,6,2,P|204:344|232:372,1,80
280,308,40542,1,2,0:0:0:0:
280,308,40730,1,2,0:0:0:0:
340,256,40918,2,2,P|376:284|416:276,1,80
400,200,41293,1,2,0:0:0:0:
400,200,41481,1,2,0:0:0:0:
368,128,41669,6,0,P|316:96|308:68,1,80,2|0,0:0|0:0,0:0:0:0:
288,48,41950,1,0,0:0:0:0:
256,24,42044,1,10,0:0:0:0:
228,100,42232,1,0,0:0:0:0:
160,144,42420,2,0,L|116:172,3,40
108,200,42795,2,0,L|96:244,3,40,8|0|0|0,0:0|0:0|0:0|0:0,0:0:0:0:
92,280,43171,6,0,P|160:272|228:288,1,120,8|0,0:0|0:0,0:0:0:0:
248,296,43547,1,2,0:0:0:0:
368,276,43734,1,0,0:0:0:0:
452,192,43922,2,0,P|384:176|320:192,1,120,8|0,0:0|0:0,0:0:0:0:
296,196,44298,1,2,0:0:0:0:
180,160,44485,1,0,0:0:0:0:
104,68,44673,5,2,0:0:0:0:
100,148,44861,1,0,0:0:0:0:
80,184,44955,1,0,0:0:0:0:
68,220,45049,1,8,0:0:0:0:
84,300,45236,1,0,0:0:0:0:
156,268,45424,2,2,P|224:240|328:248,1,160,2|8,0:0|0:0,0:0:0:0:
432,136,46175,6,0,P|412:224|424:276,1,120,2|0,0:0|0:0,0:0:0:0:
432,292,46551,1,2,0:0:0:0:
432,292,46739,1,0,0:0:0:0:
324,236,46926,2,0,P|328:156|308:112,1,120,2|0,0:0|0:0,0:0:0:0:
292,84,47302,1,2,0:0:0:0:
292,84,47490,1,0,0:0:0:0:
200,164,47677,6,0,P|140:168|104:240,2,120,2|0|0,0:0|0:0|0:0,0:0:0:0:
180,240,48429,2,0,P|220:284|320:268,1,160,2|0,0:0|0:0,0:0:0:0:
256,124,49180,6,0,P|332:168|332:208,2,120,2|8|2,0:0|0:0|0:0,0:0:0:0:
256,44,49931,1,0,0:0:0:0:
188,84,50118,2,0,P|256:124|324:84,1,160,8|0,0:0|0:0,0:0:0:0:
256,44,50682,5,0,0:0:0:0:
220,64,50776,1,0,0:0:0:0:
188,84,50870,1,2,0:0:0:0:
160,112,50963,1,0,0:0:0:0:
136,144,51057,1,2,0:0:0:0:
108,220,51245,1,2,0:0:0:0:
108,220,51621,5,0,0:0:0:0:
256,344,51808,1,2,0:0:0:0:
256,344,52184,6,0,P|296:296|284:240,2,120,0|8|2,0:0|0:0|0:0,0:0:0:0:
212,276,52935,1,0,0:0:0:0:
368,320,53123,1,0,0:0:0:0:
448,176,53311,2,0,P|376:188|352:216,1,80,8|0,0:0|0:0,0:0:0:0:
300,228,53686,5,0,0:0:0:0:
292,188,53780,1,0,0:0:0:0:
300,148,53874,1,8,0:0:0:0:
328,120,53968,1,0,0:0:0:0:
368,108,54062,1,8,0:0:0:0:
460,76,54249,1,0,0:0:0:0:
460,76,54625,5,0,0:0:0:0:
436,272,54813,2,0,P|432:232|448:188,1,80,8|0,0:0|0:0,0:0:0:0:
436,272,55188,6,0,P|376:256|356:196,2,120,0|8|0,0:0|0:0|0:0,0:0:0:0:
448,176,55939,1,0,0:0:0:0:
308,108,56127,2,0,P|256:156|256:244,1,160,8|0,0:0|0:0,0:0:0:0:
340,200,56690,5,0,0:0:0:0:
304,184,56784,1,0,0:0:0:0:
264,176,56878,1,2,0:0:0:0:
224,180,56972,1,0,0:0:0:0:
184,192,57066,1,2,0:0:0:0:
116,236,57254,1,2,0:0:0:0:
116,236,57629,5,0,0:0:0:0:
280,336,57817,1,2,0:0:0:0:
280,336,58193,6,0,P|300:268|280:212,2,120,0|8|2,0:0|0:0|0:0,0:0:0:0:
212,248,58944,1,0,0:0:0:0:
232,164,59131,1,8,0:0:0:0:
320,152,59319,1,10,0:0:0:0:
360,240,59507,1,0,0:0:0:0:
292,300,59695,5,0,0:0:0:0:
292,300,59789,1,0,0:0:0:0:
292,300,59882,1,0,0:0:0:0:
220,84,60070,2,0,L|220:40,2,40,8|0|0,0:0|0:0|0:0,0:0:0:0:
256,192,60446,5,4,0:0:0:0:
160,96,66454,5,8,0:0:0:0:
180,132,66548,1,8,0:0:0:0:
200,168,66642,1,8,0:0:0:0:
352,96,66830,1,0,0:0:0:0:
332,132,66924,1,0,0:0:0:0:
312,168,67018,1,0,0:0:0:0:
256,312,67206,5,6,0:0:0:0:
96,192,67393,1,0,0:0:0:0:
180,132,67581,1,8,0:0:0:0:
180,252,67769,1,0,0:0:0:0:
256,72,67957,5,0,0:0:0:0:
416,192,68144,1,0,0:0:0:0:
332,252,68332,1,8,0:0:0:0:
332,132,68520,1,0,0:0:0:0:
256,312,68708,6,0,L|256:360,2,40,0|0|0,0:0|0:0|0:0,0:0:0:0:
256,72,69083,2,0,L|256:24,2,40,8|0|0,0:0|0:0|0:0,0:0:0:0:
364,176,69459,5,0,0:0:0:0:
342,196,69553,1,0,0:0:0:0:
316,211,69647,1,8,0:0:0:0:
287,221,69740,1,0,0:0:0:0:
258,224,69834,1,8,0:0:0:0:
228,220,69928,1,0,0:0:0:0:
200,210,70022,1,0,0:0:0:0:
174,194,70116,1,0,0:0:0:0:
153,173,70210,6,0,L|120:132,2,40
196,104,70585,2,0,L|172:48,2,40,2|0|0,0:0|0:0|0:0,0:0:0:0:
256,48,70961,2,0,L|256:4,2,40
316,104,71336,2,0,L|340:48,2,40,2|0|0,0:0|0:0|0:0,0:0:0:0:
358,173,71712,2,0,L|392:132,2,40
432,212,72088,1,2,0:0:0:0:
316,296,72275,1,0,0:0:0:0:
204,196,72463,5,0,0:0:0:0:
172,220,72557,1,0,0:0:0:0:
132,232,72651,1,0,0:0:0:0:
92,224,72745,1,0,0:0:0:0:
56,204,72839,1,2,0:0:0:0:
36,172,72932,1,0,0:0:0:0:
32,132,73026,1,0,0:0:0:0:
40,92,73120,1,0,0:0:0:0:
64,60,73214,6,0,P|104:112|172:120,1,120,8|0,0:0|0:0,0:0:0:0:
188,100,73590,2,0,P|236:92|264:112,1,80,2|0,0:0|0:0,0:0:0:0:
256,276,73965,2,0,P|328:276|364:232,1,120,8|0,0:0|0:0,0:0:0:0:
348,208,74341,2,0,P|364:164|400:148,1,80,2|0,0:0|0:0,0:0:0:0:
428,220,74716,1,0,0:0:0:0:
320,56,74904,2,0,P|264:108|240:192,1,160,8|0,0:0|0:0,0:0:0:0:
356,304,75467,2,0,P|410:272|428:218,1,120
428,180,75843,1,8,0:0:0:0:
256,276,76031,1,8,0:0:0:0:
84,180,76218,6,0,P|116:252|152:272,1,120,0|0,0:0|0:0,0:0:0:0:
136,308,76594,2,0,P|184:344|216:348,1,80,2|0,0:0|0:0,0:0:0:0:
256,276,76970,2,0,P|280:208|320:184,1,120,0|0,0:0|0:0,0:0:0:0:
356,200,77345,2,0,P|404:168|408:144,1,80,2|0,0:0|0:0,0:0:0:0:
256,28,77721,6,0,P|220:88|232:152,2,120,0|2|0,0:0|0:0|0:0,0:0:0:0:
324,72,78472,2,0,P|264:32|160:36,1,160,0|2,0:0|0:0,0:0:0:0:
92,164,79223,6,0,L|24:232,2,80,0|0|8,0:0|0:0|0:0,0:0:0:0:
160,208,79786,2,0,P|208:136|288:112,1,160,0|0,0:0|0:0,0:0:0:0:
319,45,80349,2,0,P|351:97|349:136,1,80,8|0,0:0|0:0,0:0:0:0:
304,188,80725,6,0,L|340:248,3,40,0|0|0|0,0:0|0:0|0:0|0:0,0:0:0:0:
376,188,81100,2,0,L|424:224,3,40,8|0|0|0,0:0|0:0|0:0|0:0,0:0:0:0:
448,172,81476,2,0,L|492:172,3,40,0|0|8|0,0:0|0:0|0:0|0:0,0:0:0:0:
476,108,81852,2,0,L|520:84,3,40,8|0|0|0,0:0|0:0|0:0|0:0,0:0:0:0:
420,88,82227,6,0,P|380:128|384:208,1,120,0|0,0:0|0:0,0:0:0:0:
388,228,82603,1,8,0:0:0:0:
256,156,82790,2,8,P|200:224|216:312,1,160,0|0,0:0|0:0,0:0:0:0:
280,264,83354,2,0,P|288:312|260:352,1,80,8|0,0:0|0:0,0:0:0:0:
120,312,83729,6,0,L|88:276,3,40,0|0|0|0,0:0|0:0|0:0|0:0,0:0:0:0:
120,232,84105,2,0,L|104:188,3,40,8|0|0|0,0:0|0:0|0:0|0:0,0:0:0:0:
144,156,84480,2,0,L|148:108,3,40,0|0|8|0,0:0|0:0|0:0|0:0,0:0:0:0:
196,104,84856,2,0,P|216:56|256:32,1,80,8|0,0:0|0:0,0:0:0:0:
272,112,85231,6,0,P|300:168|352:192,1,120,0|0,0:0|0:0,0:0:0:0:
392,196,85607,1,8,0:0:0:0:
196,272,85795,1,0,0:0:0:0:
196,272,86170,2,0,P|148:208|60:192,1,160,8|0,0:0|0:0,0:0:0:0:
268,72,86734,6,0,L|332:56,3,40,0|0|0|0,0:0|0:0|0:0|0:0,0:0:0:0:
352,104,87109,2,0,L|408:112,3,40,8|0|0|0,0:0|0:0|0:0|0:0,0:0:0:0:
400,168,87485,2,0,L|444:208,3,40,0|0|8|0,0:0|0:0|0:0|0:0,0:0:0:0:
404,248,87860,2,0,L|424:296,3,40,8|0|0|0,0:0|0:0|0:0|0:0,0:0:0:0:
380,332,88236,6,0,P|324:288|256:288,1,120,0|0,0:0|0:0,0:0:0:0:
224,304,88611,1,8,0:0:0:0:
120,168,88799,1,0,0:0:0:0:
120,168,89175,2,0,P|152:92|236:88,1,160,4|0,0:0|0:0,0:0:0:0:
340,72,89738,1,8,0:0:0:0:
256,320,89926,6,0,P|174:331|127:261,1,160,4|2,0:0|0:0,0:0:0:0:
256,192,90489,1,2,0:0:0:0:
256,192,90865,5,2,0:0:0:0:
256,192,90958,1,2,0:0:0:0:
256,192,91052,1,2,0:0:0:0:
