osu file format v13

[General]
AudioFilename: Zhang Liang Ying - Di Qi Gan.mp3
AudioLeadIn: 0
PreviewTime: 55453
Countdown: 0
SampleSet: Soft
StackLeniency: 0.7
Mode: 0
LetterboxInBreaks: 1
WidescreenStoryboard: 0

[Editor]
DistanceSpacing: 1.5
BeatDivisor: 4
GridSize: 4
TimelineZoom: 1.3

[Metadata]
Title:Di Qi Gan
TitleUnicode:第七感
Artist:Zhang Liang Ying
ArtistUnicode:张靓颖
Creator:CET 6
Version:Hard
Source:第七感
Tags:Jane Zhang seventh sense 余琛懋 娜偲瓴 Frejat Fredrik Fencke Hanif Sabzevari
BeatmapID:426062
BeatmapSetID:176984

[Difficulty]
HPDrainRate:5
CircleSize:4
OverallDifficulty:5
ApproachRate:7
SliderMultiplier:1.6
SliderTickRate:1

[Events]
//Background and Video events
0,0,"BG.jpg",0,0
//Break Periods
//Storyboard Layer 0 (Background)
//Storyboard Layer 1 (Fail)
//Storyboard Layer 2 (Pass)
//Storyboard Layer 3 (Foreground)
//Storyboard Sound Samples
//Background Colour Transformations
3,100,163,162,255

[TimingPoints]
4595,571.428571428571,4,2,1,30,1,0
11452,-100,4,2,1,40,0,0
14737,-100,4,2,1,5,0,0
14880,-100,4,2,1,40,0,0
19166,-100,4,2,1,5,0,0
20023,-100,4,2,1,30,0,0
20880,-100,4,2,1,50,0,0
28880,-100,4,2,1,40,0,0
29737,-100,4,2,1,30,0,0
30023,-100,4,2,1,50,0,0
38880,-100,4,2,1,30,0,0
39166,-100,4,2,1,50,0,0
48023,-100,4,2,1,30,0,0
48309,-100,4,2,1,50,0,0
54880,-100,4,2,1,30,0,0
56023,-100,4,2,1,60,0,0
57166,-100,4,2,1,30,0,1
57737,-100,4,2,1,60,0,1
66309,-100,4,2,1,30,0,1
66880,-100,4,2,1,60,0,1
75452,-100,4,2,1,30,0,1
76023,-100,4,2,1,60,0,1
84594,-100,4,2,1,30,0,1
85166,-100,4,2,1,60,0,1
93737,-100,4,2,1,30,0,1
93880,-100,4,2,1,5,0,1
96023,-100,4,2,1,5,0,0

[Colours]
Combo1 : 255,191,255
Combo2 : 255,255,128
Combo3 : 128,255,128
Combo4 : 149,202,255

[HitObjects]
256,64,6309,5,8,0:0:0:0:
36,168,6880,6,0,P|40:256|92:320,1,160,2|8,0:0|0:0,0:0:0:0:
250,142,8023,2,0,P|309:142|358:175,1,120,2|2,0:0|0:0,0:0:0:0:
400,218,8594,2,0,P|444:216|476:190,1,80,8|2,0:0|0:0,0:0:0:0:
354,218,9166,2,0,P|309:283|308:362,1,160,2|8,0:0|0:0,0:0:0:0:
76,308,10309,5,2,0:0:0:0:
120,196,10594,2,0,L|140:144,1,40,8|8,3:0|3:0,0:0:0:0:
160,104,10880,2,0,P|198:92|237:94,1,80,8|4,0:0|0:3,0:0:0:0:
323,179,11452,2,0,P|388:223|467:224,1,160,2|8,0:0|0:0,0:0:0:0:
226,224,12594,6,0,L|182:336,1,120,2|2,0:0|0:0,0:0:0:0:
122,336,13166,1,8,0:0:0:0:
37,251,13452,1,2,0:0:0:0:
121,166,13737,2,0,L|149:240,1,80,2|0,0:0|0:0,0:0:0:0:
260,192,14309,2,0,L|309:62,1,120,8|0,0:0|0:0,0:0:0:0:
345,37,14880,6,0,P|389:25|449:37,1,80,2|2,0:0|0:0,0:0:0:0:
465,70,15309,1,2,0:0:0:0:
429,117,15452,2,0,P|385:129|325:117,1,80,8|2,0:0|0:0,0:0:0:0:
233,105,16023,1,2,0:0:0:0:
290,213,16309,1,0,0:0:0:0:
374,128,16594,2,0,P|413:125|451:137,1,80,8|0,0:0|0:0,0:0:0:0:
290,213,17166,6,0,P|250:215|212:203,2,80,2|2|8,0:0|0:0|0:0,0:0:0:0:
258,97,18023,1,2,0:0:0:0:
137,97,18309,2,0,L|72:265,1,160,2|8,0:0|0:0,0:0:0:0:
256,192,19166,12,8,20023,0:0:0:0:
256,52,20594,5,6,0:0:0:0:
368,92,20880,1,0,0:0:0:0:
257,137,21166,2,0,L|335:122,1,80,8|0,0:0|0:0,0:0:0:0:
455,103,21737,2,0,P|469:140|469:180,1,80,2|2,0:0|0:0,0:0:0:0:
364,240,22309,2,0,P|348:298|364:350,2,80,8|2|2,0:0|0:0|0:0,0:0:0:0:
469,180,23166,5,0,0:0:0:0:
364,240,23452,2,0,L|285:254,1,80,8|0,0:0|0:0,0:0:0:0:
168,280,24023,1,2,0:0:0:0:
47,280,24309,2,0,L|125:265,1,80,2|8,0:0|0:0,0:0:0:0:
210,180,24880,1,2,0:0:0:0:
89,180,25166,1,2,0:0:0:0:
4,95,25452,6,0,P|44:68|88:60,1,80,0|8,0:0|0:0,0:0:0:0:
194,60,26023,1,0,0:0:0:0:
278,144,26309,2,0,L|322:256,1,120,2|2,0:0|0:0,0:0:0:0:
382,256,26880,1,8,0:0:0:0:
467,171,27166,1,2,0:0:0:0:
382,86,27452,6,0,L|324:235,1,160,2|8,0:0|0:0,0:0:0:0:
276,348,28309,1,0,0:0:0:0:
200,252,28594,1,2,0:0:0:0:
80,252,28880,2,0,L|100:200,1,40,8|8,3:0|3:0,0:0:0:0:
116,160,29166,2,0,L|194:145,1,80,8|4,0:0|3:0,0:0:0:0:
312,124,29737,1,6,0:0:0:0:
412,60,30023,5,0,0:0:0:0:
496,144,30309,1,8,0:0:0:0:
412,60,30594,2,0,L|404:156,1,80,0|2,0:0|0:0,0:0:0:0:
392,260,31166,1,2,0:0:0:0:
271,260,31452,2,0,P|223:268|188:288,1,80,8|2,0:0|0:0,0:0:0:0:
315,282,32023,1,2,0:0:0:0:
230,197,32309,6,0,P|194:179|154:174,1,80,0|8,0:0|0:0,0:0:0:0:
112,288,32880,1,0,0:0:0:0:
124,168,33166,2,0,L|132:76,2,80,2|2|8,0:0|0:0|0:0,0:0:0:0:
12,216,34023,1,2,0:0:0:0:
124,168,34309,1,2,0:0:0:0:
212,83,34594,6,0,P|256:72|312:72,1,80,0|8,0:0|0:0,0:0:0:0:
410,71,35166,1,0,0:0:0:0:
352,176,35452,2,0,P|344:244|363:326,1,120,2|2,0:0|0:0,0:0:0:0:
412,308,36023,2,0,P|373:297|333:295,1,80,8|2,0:0|0:0,0:0:0:0:
215,328,36594,6,0,P|138:346|58:345,1,160,2|8,0:0|0:0,0:0:0:0:
32,228,37452,1,0,0:0:0:0:
58,345,37737,1,2,0:0:0:0:
143,260,38023,1,2,0:0:0:0:
143,260,38166,1,2,0:0:0:0:
144,260,38309,2,0,P|154:221|156:181,1,80,8|2,0:0|0:0,0:0:0:0:
96,76,38880,1,6,0:0:0:0:
36,181,39166,5,0,0:0:0:0:
120,96,39452,2,0,P|158:85|198:83,1,80,8|0,0:0|0:0,0:0:0:0:
283,168,40023,2,0,P|321:178|361:180,1,80,2|2,0:0|0:0,0:0:0:0:
446,95,40594,1,8,0:0:0:0:
332,56,40880,5,2,0:0:0:0:
284,168,41166,2,0,P|272:248|272:280,1,80,2|0,0:0|0:0,0:0:0:0:
392,264,41737,2,0,P|431:267|470:275,2,80,8|0|2,0:0|0:0|0:0,0:0:0:0:
316,356,42594,1,2,0:0:0:0:
231,271,42880,2,0,P|234:231|242:192,1,80,8|2,0:0|0:0,0:0:0:0:
272,76,43452,1,2,0:0:0:0:
156,104,43737,5,0,0:0:0:0:
36,104,44023,2,0,P|27:143|24:182,1,80,8|0,0:0|0:0,0:0:0:0:
108,268,44594,1,2,0:0:0:0:
224,296,44880,1,2,0:0:0:0:
108,268,45166,2,0,P|68:271|29:279,2,80,8|2|2,0:0|0:0|0:0,0:0:0:0:
224,296,46023,6,0,P|263:292|302:284,1,80,0|8,0:0|0:0,0:0:0:0:
303,163,46594,1,0,0:0:0:0:
186,191,46880,1,2,0:0:0:0:
224,76,47166,1,2,0:0:0:0:
303,163,47452,2,0,P|342:166|381:174,1,80,8|2,0:0|0:0,0:0:0:0:
466,90,48023,5,6,0:0:0:0:
348,68,48309,2,0,P|308:59|269:56,1,80,0|8,0:0|0:0,0:0:0:0:
389,56,48880,1,0,0:0:0:0:
420,172,49166,2,0,P|436:244|420:300,1,120,2|2,0:0|0:0,0:0:0:0:
368,276,49737,2,0,P|328:267|289:264,1,80,8|2,0:0|0:0,0:0:0:0:
204,179,50309,6,0,P|164:182|125:190,1,80,2|0,0:0|0:0,0:0:0:0:
40,275,50880,1,8,0:0:0:0:
96,168,51166,1,0,0:0:0:0:
120,284,51452,2,0,P|128:323|131:362,2,80,2|2|8,0:0|0:0|0:0,0:0:0:0:
96,168,52309,1,2,0:0:0:0:
72,52,52594,1,2,0:0:0:0:
188,80,52880,5,0,0:0:0:0:
188,80,53166,2,0,P|227:71|266:68,1,80,8|0,0:0|0:0,0:0:0:0:
388,60,53737,2,0,P|404:111|392:208,1,120,2|2,0:0|0:0,0:0:0:0:
359,219,54309,2,0,P|347:257|356:330,2,80,8|2|4,0:0|0:0|0:1,0:0:0:0:
156,330,55452,5,8,0:0:0:0:
71,245,55737,1,10,0:0:0:0:
71,125,56023,2,0,L|51:181,2,40,2|8|8,0:0|0:0|0:0,0:0:0:0:
156,210,56594,2,0,L|176:266,2,40,8|8|2,0:0|0:0|0:0,0:0:0:0:
240,125,57166,2,0,P|312:98|396:110,1,160,6|8,0:0|0:0,0:0:0:0:
380,348,58309,6,0,P|344:361|302:355,1,80,2|2,0:0|0:0,0:0:0:0:
218,270,58880,2,0,P|204:234|210:192,1,80,8|2,0:0|0:0,0:0:0:0:
329,193,59452,2,0,P|257:220|173:208,1,160,2|8,0:0|0:0,0:0:0:0:
412,160,60594,6,0,P|451:154|488:168,1,80,2|2,0:0|0:0,0:0:0:0:
412,328,61166,2,0,P|372:333|335:319,1,80,8|2,0:0|0:0,0:0:0:0:
250,234,61737,2,0,P|240:155|272:83,1,160,2|8,0:0|0:0,0:0:0:0:
353,174,62594,1,0,0:0:0:0:
268,258,62880,2,0,P|224:265|172:262,1,80,2|2,0:0|0:0,0:0:0:0:
68,264,63452,1,8,0:0:0:0:
132,163,63737,5,2,0:0:0:0:
47,247,64023,2,0,P|86:246|126:253,1,80,2|2,0:0|0:0,0:0:0:0:
220,179,64594,2,0,P|227:139|226:99,1,80,8|2,0:0|0:0,0:0:0:0:
124,39,65166,5,2,0:0:0:0:
124,39,65452,1,2,0:0:0:0:
39,123,65737,2,0,P|78:130|118:129,1,80,8|2,0:0|0:0,0:0:0:0:
238,129,66309,2,0,B|252:187|236:239|236:239|180:263,1,160,6|8,0:0|0:0,0:0:0:0:
361,88,67452,6,0,L|392:161,1,80,2|2,0:0|0:0,0:0:0:0:
477,246,68023,2,0,L|445:319,1,80,8|2,0:0|0:0,0:0:0:0:
324,307,68594,2,0,B|266:293|214:309|214:309|190:365,1,160,2|8,0:0|0:0,0:0:0:0:
69,150,69737,6,0,L|100:76,1,80,2|2,0:0|0:0,0:0:0:0:
184,161,70309,2,0,L|216:234,1,80,8|2,0:0|0:0,0:0:0:0:
131,319,70880,2,0,B|150:363|150:363|202:379|260:365,1,160,2|8,0:0|0:0,0:0:0:0:
377,326,71737,1,0,0:0:0:0:
293,238,72023,2,0,P|253:230|213:231,1,80,2|2,0:0|0:0,0:0:0:0:
131,319,72594,1,8,0:0:0:0:
46,234,72880,5,2,0:0:0:0:
130,149,73166,2,0,P|169:148|209:155,1,80,2|0,0:0|0:0,0:0:0:0:
47,234,73737,2,0,P|46:194|53:154,1,80,8|0,0:0|0:0,0:0:0:0:
132,65,74309,6,0,L|188:45,2,40,2|8|8,0:0|0:0|0:0,0:0:0:0:
217,150,74880,2,0,L|273:170,2,40,8|8|2,0:0|0:0|0:0,0:0:0:0:
301,65,75452,2,0,P|380:37|464:57,1,160,14|8,0:0|0:0,0:0:0:0:
272,209,76594,2,0,P|261:150|282:95,1,120,2|2,0:0|0:0,0:0:0:0:
340,113,77166,2,0,L|452:153,1,80,8|2,0:0|0:0,0:0:0:0:
415,260,77737,2,0,P|336:288|252:268,1,160,2|8,0:0|0:0,0:0:0:0:
93,104,78880,6,0,L|49:216,1,120,2|2,0:0|0:0,0:0:0:0:
25,272,79452,1,8,0:0:0:0:
109,356,79737,1,2,0:0:0:0:
109,235,80023,2,0,P|188:207|272:227,1,160,2|8,0:0|0:0,0:0:0:0:
345,136,80880,1,0,0:0:0:0:
429,51,81166,6,0,L|396:135,1,80,2|2,0:0|0:0,0:0:0:0:
279,125,81737,2,0,L|246:209,1,80,8|2,0:0|0:0,0:0:0:0:
334,284,82309,1,2,0:0:0:0:
418,199,82594,1,0,0:0:0:0:
502,283,82880,2,0,L|418:250,1,80,8|0,0:0|0:0,0:0:0:0:
316,214,83452,2,0,P|280:238|263:280,1,80,2|2,0:0|0:0,0:0:0:0:
179,355,84023,2,0,P|145:333|127:298,1,80,8|2,0:0|0:0,0:0:0:0:
40,216,84594,6,0,P|119:188|203:208,1,160,6|8,0:0|0:0,0:0:0:0:
380,52,85737,2,0,P|400:107|389:165,1,120,2|2,0:0|0:0,0:0:0:0:
333,146,86309,2,0,L|445:186,1,80,8|2,0:0|0:0,0:0:0:0:
493,257,86880,1,2,0:0:0:0:
259,316,87452,6,0,L|183:289,1,80,8|2,0:0|0:0,0:0:0:0:
268,204,88023,2,0,L|380:244,2,80,2|2|8,0:0|0:0|0:0,0:0:0:0:
183,119,88880,1,2,0:0:0:0:
116,218,89166,2,0,P|193:231|267:204,1,160,2|8,0:0|0:0,0:0:0:0:
492,119,90309,2,0,P|454:105|416:112,1,80,2|2,0:0|0:0,0:0:0:0:
331,197,90880,2,0,L|304:272,1,80,8|2,0:0|0:0,0:0:0:0:
424,272,91452,1,2,0:0:0:0:
339,356,91737,5,0,0:0:0:0:
254,271,92023,2,0,L|227:195,1,80,8|0,0:0|0:0,0:0:0:0:
106,195,92594,2,0,L|86:139,2,40,2|8|8,0:0|0:0|0:0,0:0:0:0:
191,110,93166,2,0,L|211:54,2,40,8|8|2,0:0|0:0|0:0,0:0:0:0:
278,200,93737,1,4,0:1:0:0:
256,192,93880,12,0,96023,0:0:0:0:
