osu file format v14

[General]
AudioFilename: Sayonara Zetsubou Sensei - Zetsubou Restaurant (TV Size).mp3
AudioLeadIn: 0
PreviewTime: 51894
Countdown: 0
SampleSet: Normal
StackLeniency: 0.7
Mode: 1
LetterboxInBreaks: 0
WidescreenStoryboard: 0

[Editor]
DistanceSpacing: 1
BeatDivisor: 4
GridSize: 32
TimelineZoom: 2.1

[Metadata]
Title:Zetsubou Restaurant (TV Size)
TitleUnicode:絶望レストラン(TVサイズ)
Artist:Zetsubou Shoujotachi
ArtistUnicode:絶望少女達
Creator:Tarrasky
Version:gh's Oni
Source:懺・さよなら絶望先生
Tags:ghm12 Near Ending Zan Sayonara Zetsubou Sensei Tanii Asuka Sanada Asami Gotou Yuuko Matsuki Miyu
BeatmapID:587271
BeatmapSetID:255637

[Difficulty]
HPDrainRate:6
CircleSize:4
OverallDifficulty:6
ApproachRate:8
SliderMultiplier:1.4
SliderTickRate:1

[Events]
//Background and Video events
Video,325,"Zan Sayonara Zetsubou Sensei - Zetsubou Restaurant.avi"
0,0,"tbg.png",0,50
//Break Periods
//Storyboard Layer 0 (Background)
//Storyboard Layer 1 (Fail)
//Storyboard Layer 2 (Pass)
//Storyboard Layer 3 (Foreground)
//Storyboard Sound Samples

[TimingPoints]
470,400,4,1,0,80,1,0
53270,-100,4,1,0,80,0,1
77270,-100,4,1,0,80,0,0

[Colours]
Combo1 : 0,128,128
Combo2 : 255,0,0
Combo3 : 128,0,128
Combo4 : 255,128,64

[HitObjects]
256,192,470,5,0,0:0:0:0:
256,192,670,1,8,0:0:0:0:
256,192,1070,1,0,0:0:0:0:
256,192,1170,1,8,0:0:0:0:
256,192,1270,1,8,0:0:0:0:
256,192,1470,1,8,0:0:0:0:
256,192,1670,1,0,0:0:0:0:
256,192,1870,1,8,0:0:0:0:
256,192,2070,1,8,0:0:0:0:
256,192,2470,1,0,0:0:0:0:
256,192,2870,1,8,0:0:0:0:
256,192,3270,1,0,0:0:0:0:
256,192,3670,1,8,0:0:0:0:
256,192,3870,1,0,0:0:0:0:
256,192,4070,1,8,0:0:0:0:
256,192,4470,1,0,0:0:0:0:
256,192,4870,1,8,0:0:0:0:
256,192,5270,1,0,0:0:0:0:
256,192,5470,1,0,0:0:0:0:
256,192,5670,1,8,0:0:0:0:
256,192,6070,1,8,0:0:0:0:
256,192,6470,1,0,0:0:0:0:
256,192,6870,1,8,0:0:0:0:
256,192,7070,1,0,0:0:0:0:
256,192,7270,1,8,0:0:0:0:
256,192,7670,1,0,0:0:0:0:
256,192,8070,1,8,0:0:0:0:
256,192,8470,1,0,0:0:0:0:
256,192,8670,1,0,0:0:0:0:
256,192,8870,1,8,0:0:0:0:
256,192,9270,1,8,0:0:0:0:
256,192,9670,1,0,0:0:0:0:
256,192,10070,1,8,0:0:0:0:
256,192,10270,1,8,0:0:0:0:
256,192,10470,1,0,0:0:0:0:
256,192,10670,1,8,0:0:0:0:
256,192,10870,1,0,0:0:0:0:
256,192,11070,1,8,0:0:0:0:
256,192,11270,1,0,0:0:0:0:
256,192,11470,1,0,0:0:0:0:
256,192,11536,1,8,0:0:0:0:
256,192,11603,1,8,0:0:0:0:
256,192,11670,1,8,0:0:0:0:
256,192,12670,1,8,0:0:0:0:
256,192,12870,1,0,0:0:0:0:
256,192,12970,1,8,0:0:0:0:
256,192,13070,1,8,0:0:0:0:
256,192,13170,1,0,0:0:0:0:
256,192,13270,1,8,0:0:0:0:
256,192,13670,1,0,0:0:0:0:
256,192,14070,1,8,0:0:0:0:
256,192,14470,1,0,0:0:0:0:
256,192,14670,1,8,0:0:0:0:
256,192,14870,1,8,0:0:0:0:
256,192,15070,1,0,0:0:0:0:
256,192,15270,1,8,0:0:0:0:
256,192,15470,1,0,0:0:0:0:
256,192,15670,1,8,0:0:0:0:
256,192,15770,1,8,0:0:0:0:
256,192,15870,1,0,0:0:0:0:
256,192,15970,1,8,0:0:0:0:
256,192,16070,1,0,0:0:0:0:
256,192,16170,1,8,0:0:0:0:
256,192,16270,1,8,0:0:0:0:
256,192,16370,1,0,0:0:0:0:
256,192,16470,1,8,0:0:0:0:
256,192,16670,1,8,0:0:0:0:
256,192,17070,1,8,0:0:0:0:
256,192,17470,1,8,0:0:0:0:
256,192,17870,1,8,0:0:0:0:
256,192,17970,1,0,0:0:0:0:
256,192,18070,1,8,0:0:0:0:
256,192,18270,1,8,0:0:0:0:
256,192,18670,1,8,0:0:0:0:
256,192,19070,1,8,0:0:0:0:
256,192,19270,1,0,0:0:0:0:
256,192,19470,1,8,0:0:0:0:
256,192,19570,1,8,0:0:0:0:
256,192,19670,1,0,0:0:0:0:
256,192,19870,1,8,0:0:0:0:
256,192,20270,1,8,0:0:0:0:
256,192,20470,1,0,0:0:0:0:
256,192,20670,1,8,0:0:0:0:
256,192,20870,1,0,0:0:0:0:
256,192,21070,1,8,0:0:0:0:
256,192,21136,1,0,0:0:0:0:
256,192,21203,1,0,0:0:0:0:
256,192,21270,1,8,0:0:0:0:
256,192,21470,1,8,0:0:0:0:
256,192,21670,1,0,0:0:0:0:
256,192,21870,1,12,0:0:0:0:
256,192,22270,1,0,0:0:0:0:
256,192,22470,1,8,0:0:0:0:
256,192,22570,1,8,0:0:0:0:
256,192,22670,1,0,0:0:0:0:
256,192,22770,1,8,0:0:0:0:
256,192,22870,1,0,0:0:0:0:
256,192,23070,1,8,0:0:0:0:
256,192,23470,1,8,0:0:0:0:
256,192,23870,1,8,0:0:0:0:
256,192,24070,1,0,0:0:0:0:
256,192,24170,1,8,0:0:0:0:
256,192,24270,1,8,0:0:0:0:
256,192,24370,1,0,0:0:0:0:
256,192,24470,1,8,0:0:0:0:
256,192,24670,1,8,0:0:0:0:
256,192,25070,1,8,0:0:0:0:
256,192,25470,1,8,0:0:0:0:
256,192,25670,1,0,0:0:0:0:
256,192,25870,1,8,0:0:0:0:
256,192,25970,1,0,0:0:0:0:
256,192,26070,1,8,0:0:0:0:
256,192,26270,1,8,0:0:0:0:
256,192,26470,1,8,0:0:0:0:
256,192,26670,1,0,0:0:0:0:
256,192,26870,1,8,0:0:0:0:
256,192,27070,1,0,0:0:0:0:
256,192,27270,1,8,0:0:0:0:
256,192,27470,1,8,0:0:0:0:
256,192,27536,1,0,0:0:0:0:
256,192,27603,1,0,0:0:0:0:
256,192,27670,1,8,0:0:0:0:
256,192,27870,1,8,0:0:0:0:
256,192,28070,1,0,0:0:0:0:
256,192,28270,1,12,0:0:0:0:
256,192,28670,1,0,0:0:0:0:
256,192,28870,1,8,0:0:0:0:
256,192,28970,1,8,0:0:0:0:
256,192,29070,1,0,0:0:0:0:
256,192,29270,1,12,0:0:0:0:
256,192,29470,1,8,0:0:0:0:
256,192,29570,1,8,0:0:0:0:
256,192,29670,1,0,0:0:0:0:
256,192,29870,1,12,0:0:0:0:
256,192,30270,1,8,0:0:0:0:
256,192,30470,1,0,0:0:0:0:
256,192,30670,1,12,0:0:0:0:
256,192,31070,1,8,0:0:0:0:
256,192,31270,1,0,0:0:0:0:
256,192,31470,1,12,0:0:0:0:
256,192,31870,1,0,0:0:0:0:
256,192,32070,1,8,0:0:0:0:
256,192,32270,1,0,0:0:0:0:
256,192,32470,1,12,0:0:0:0:
256,192,32870,1,12,0:0:0:0:
256,192,33270,1,12,0:0:0:0:
256,192,33670,1,12,0:0:0:0:
256,192,33870,1,4,0:0:0:0:
256,192,34270,1,4,0:0:0:0:
256,192,34470,1,12,0:0:0:0:
256,192,34670,1,12,0:0:0:0:
256,192,35070,1,0,0:0:0:0:
256,192,35270,1,8,0:0:0:0:
256,192,35370,1,8,0:0:0:0:
256,192,35470,1,0,0:0:0:0:
256,192,35570,1,8,0:0:0:0:
256,192,35670,1,0,0:0:0:0:
256,192,35870,1,8,0:0:0:0:
256,192,36070,1,0,0:0:0:0:
256,192,36470,1,8,0:0:0:0:
256,192,36870,1,0,0:0:0:0:
256,192,37270,1,8,0:0:0:0:
256,192,37470,1,0,0:0:0:0:
256,192,37670,1,8,0:0:0:0:
256,192,37870,1,8,0:0:0:0:
256,192,38070,1,0,0:0:0:0:
256,192,38270,1,0,0:0:0:0:
256,192,38336,1,8,0:0:0:0:
256,192,38403,1,8,0:0:0:0:
256,192,38470,1,0,0:0:0:0:
256,192,38670,1,0,0:0:0:0:
256,192,38870,1,8,0:0:0:0:
256,192,39070,1,8,0:0:0:0:
256,192,39270,1,0,0:0:0:0:
256,192,39670,1,8,0:0:0:0:
256,192,40070,1,0,0:0:0:0:
256,192,40470,1,8,0:0:0:0:
256,192,40670,1,8,0:0:0:0:
256,192,40870,1,0,0:0:0:0:
256,192,41070,1,8,0:0:0:0:
256,192,41270,1,0,0:0:0:0:
256,192,41470,1,0,0:0:0:0:
256,192,41536,1,8,0:0:0:0:
256,192,41603,1,8,0:0:0:0:
256,192,41670,1,8,0:0:0:0:
256,192,41870,1,0,0:0:0:0:
256,192,42070,1,12,0:0:0:0:
256,192,42270,1,0,0:0:0:0:
256,192,42470,1,8,0:0:0:0:
256,192,42670,1,0,0:0:0:0:
256,192,43070,1,0,0:0:0:0:
256,192,43270,1,8,0:0:0:0:
256,192,43470,1,0,0:0:0:0:
256,192,43670,1,8,0:0:0:0:
256,192,43870,1,8,0:0:0:0:
256,192,44070,1,8,0:0:0:0:
256,192,44270,1,0,0:0:0:0:
256,192,44470,1,8,0:0:0:0:
256,192,44670,1,0,0:0:0:0:
256,192,44736,1,8,0:0:0:0:
256,192,44803,1,8,0:0:0:0:
256,192,44870,1,8,0:0:0:0:
256,192,45070,1,0,0:0:0:0:
256,192,45270,1,12,0:0:0:0:
256,192,45870,1,4,0:0:0:0:
256,192,46070,1,4,0:0:0:0:
256,192,46670,1,4,0:0:0:0:
256,192,46870,1,12,0:0:0:0:
256,192,47470,1,12,0:0:0:0:
256,192,47670,1,4,0:0:0:0:
256,192,48070,1,4,0:0:0:0:
256,192,48270,1,12,0:0:0:0:
256,192,48470,1,0,0:0:0:0:
256,192,48670,1,0,0:0:0:0:
256,192,48870,1,8,0:0:0:0:
256,192,49070,1,0,0:0:0:0:
256,192,49270,1,8,0:0:0:0:
256,192,49370,1,8,0:0:0:0:
256,192,49470,1,0,0:0:0:0:
256,192,49670,1,0,0:0:0:0:
256,192,49770,1,8,0:0:0:0:
256,192,49870,1,8,0:0:0:0:
256,192,49970,1,0,0:0:0:0:
256,192,50070,1,8,0:0:0:0:
256,192,50270,1,8,0:0:0:0:
256,192,50470,1,0,0:0:0:0:
256,192,50670,1,0,0:0:0:0:
256,192,50770,1,8,0:0:0:0:
256,192,50870,1,0,0:0:0:0:
256,192,50970,1,8,0:0:0:0:
256,192,51070,1,0,0:0:0:0:
256,192,51270,1,8,0:0:0:0:
256,192,51470,1,0,0:0:0:0:
256,192,51536,1,8,0:0:0:0:
256,192,51603,1,8,0:0:0:0:
256,192,51670,1,0,0:0:0:0:
256,192,52070,1,8,0:0:0:0:
256,192,52670,1,8,0:0:0:0:
256,192,52770,1,0,0:0:0:0:
256,192,52870,1,8,0:0:0:0:
256,192,52970,1,0,0:0:0:0:
256,192,53070,1,8,0:0:0:0:
256,192,53170,1,8,0:0:0:0:
256,192,53270,1,0,0:0:0:0:
256,192,53470,1,8,0:0:0:0:
256,192,53670,1,0,0:0:0:0:
256,192,53870,1,8,0:0:0:0:
256,192,54070,1,0,0:0:0:0:
256,192,54270,1,8,0:0:0:0:
256,192,54370,1,8,0:0:0:0:
256,192,54470,1,0,0:0:0:0:
256,192,54670,1,8,0:0:0:0:
256,192,54870,1,0,0:0:0:0:
256,192,55070,1,8,0:0:0:0:
256,192,55270,1,0,0:0:0:0:
256,192,55470,1,8,0:0:0:0:
256,192,55570,1,8,0:0:0:0:
256,192,55670,1,0,0:0:0:0:
256,192,55870,1,8,0:0:0:0:
256,192,56070,1,0,0:0:0:0:
256,192,56170,1,0,0:0:0:0:
256,192,56270,1,8,0:0:0:0:
256,192,56370,1,0,0:0:0:0:
256,192,56470,1,8,0:0:0:0:
256,192,56670,1,8,0:0:0:0:
256,192,56870,1,0,0:0:0:0:
256,192,57070,1,8,0:0:0:0:
256,192,57270,1,8,0:0:0:0:
256,192,57470,1,0,0:0:0:0:
256,192,57670,1,0,0:0:0:0:
256,192,57770,1,0,0:0:0:0:
256,192,57870,1,8,0:0:0:0:
256,192,58070,1,8,0:0:0:0:
256,192,58170,1,8,0:0:0:0:
256,192,58270,1,0,0:0:0:0:
256,192,58470,1,0,0:0:0:0:
256,192,58670,1,8,0:0:0:0:
256,192,59070,1,8,0:0:0:0:
256,192,59170,1,8,0:0:0:0:
256,192,59270,1,0,0:0:0:0:
256,192,59470,1,0,0:0:0:0:
256,192,59570,1,0,0:0:0:0:
256,192,59670,1,8,0:0:0:0:
256,192,59870,1,0,0:0:0:0:
256,192,60070,1,8,0:0:0:0:
256,192,60270,1,8,0:0:0:0:
256,192,60470,1,0,0:0:0:0:
256,192,60670,1,8,0:0:0:0:
256,192,60870,1,0,0:0:0:0:
256,192,61070,1,8,0:0:0:0:
256,192,61270,1,8,0:0:0:0:
256,192,61470,1,0,0:0:0:0:
256,192,61670,1,8,0:0:0:0:
256,192,61870,1,8,0:0:0:0:
256,192,62070,1,0,0:0:0:0:
256,192,62270,1,8,0:0:0:0:
256,192,62470,1,8,0:0:0:0:
256,192,62670,1,8,0:0:0:0:
256,192,62870,1,0,0:0:0:0:
256,192,63070,1,0,0:0:0:0:
256,192,63170,1,8,0:0:0:0:
256,192,63270,1,0,0:0:0:0:
256,192,63470,1,8,0:0:0:0:
256,192,63670,1,0,0:0:0:0:
256,192,63870,1,0,0:0:0:0:
256,192,64070,1,8,0:0:0:0:
256,192,64270,1,8,0:0:0:0:
256,192,64470,1,4,0:0:0:0:
256,192,64670,1,0,0:0:0:0:
256,192,64770,1,0,0:0:0:0:
256,192,64870,1,8,0:0:0:0:
256,192,65070,1,4,0:0:0:0:
256,192,65370,1,8,0:0:0:0:
256,192,65470,1,0,0:0:0:0:
256,192,65670,1,8,0:0:0:0:
256,192,65870,1,0,0:0:0:0:
256,192,66070,1,12,0:0:0:0:
256,192,66270,1,0,0:0:0:0:
256,192,66470,1,8,0:0:0:0:
256,192,66670,1,0,0:0:0:0:
256,192,66870,1,8,0:0:0:0:
256,192,67070,1,0,0:0:0:0:
256,192,67270,1,0,0:0:0:0:
256,192,67370,1,8,0:0:0:0:
256,192,67470,1,0,0:0:0:0:
256,192,67670,1,8,0:0:0:0:
256,192,67870,1,8,0:0:0:0:
256,192,68070,1,0,0:0:0:0:
256,192,68270,1,8,0:0:0:0:
256,192,68470,1,8,0:0:0:0:
256,192,68670,1,8,0:0:0:0:
256,192,68770,1,0,0:0:0:0:
256,192,68870,1,8,0:0:0:0:
256,192,69070,1,0,0:0:0:0:
256,192,69170,1,8,0:0:0:0:
256,192,69270,1,8,0:0:0:0:
256,192,69470,1,8,0:0:0:0:
256,192,69670,1,0,0:0:0:0:
256,192,69870,1,8,0:0:0:0:
256,192,70270,1,0,0:0:0:0:
256,192,70470,1,8,0:0:0:0:
256,192,70570,1,0,0:0:0:0:
256,192,70670,1,0,0:0:0:0:
256,192,70870,1,8,0:0:0:0:
256,192,71070,1,0,0:0:0:0:
256,192,71270,1,8,0:0:0:0:
256,192,71470,1,8,0:0:0:0:
256,192,71570,1,8,0:0:0:0:
256,192,71670,1,0,0:0:0:0:
256,192,71870,1,8,0:0:0:0:
256,192,72070,1,0,0:0:0:0:
256,192,72170,1,8,0:0:0:0:
256,192,72270,1,8,0:0:0:0:
256,192,72370,1,0,0:0:0:0:
256,192,72470,1,8,0:0:0:0:
256,192,72670,1,0,0:0:0:0:
256,192,72870,1,8,0:0:0:0:
256,192,72970,1,8,0:0:0:0:
256,192,73070,1,0,0:0:0:0:
256,192,73270,1,8,0:0:0:0:
256,192,73470,1,0,0:0:0:0:
256,192,73570,1,8,0:0:0:0:
256,192,73670,1,8,0:0:0:0:
256,192,73870,1,0,0:0:0:0:
256,192,74070,1,8,0:0:0:0:
256,192,74270,1,0,0:0:0:0:
256,192,74370,1,8,0:0:0:0:
256,192,74470,1,8,0:0:0:0:
256,192,74670,1,0,0:0:0:0:
256,192,74870,1,0,0:0:0:0:
256,192,74970,1,8,0:0:0:0:
256,192,75070,1,8,0:0:0:0:
256,192,75270,1,8,0:0:0:0:
256,192,75470,1,0,0:0:0:0:
256,192,75670,1,8,0:0:0:0:
256,192,75770,1,0,0:0:0:0:
256,192,75870,1,0,0:0:0:0:
256,192,76070,1,8,0:0:0:0:
256,192,76270,1,0,0:0:0:0:
256,192,76470,1,8,0:0:0:0:
256,192,76670,1,0,0:0:0:0:
256,192,76770,1,8,0:0:0:0:
256,192,76870,1,0,0:0:0:0:
256,192,76970,1,8,0:0:0:0:
256,192,77070,1,8,0:0:0:0:
256,192,77170,1,0,0:0:0:0:
256,192,77270,1,8,0:0:0:0:
256,192,77470,1,8,0:0:0:0:
256,192,77870,1,0,0:0:0:0:
256,192,78270,1,0,0:0:0:0:
256,192,78470,1,8,0:0:0:0:
256,192,78570,1,8,0:0:0:0:
256,192,78670,1,0,0:0:0:0:
256,192,78870,1,12,0:0:0:0:
256,192,79070,1,8,0:0:0:0:
256,192,79170,1,0,0:0:0:0:
256,192,79270,1,0,0:0:0:0:
256,192,79470,1,12,0:0:0:0:
256,192,79870,1,8,0:0:0:0:
256,192,80070,1,0,0:0:0:0:
256,192,80270,1,12,0:0:0:0:
256,192,80670,1,8,0:0:0:0:
256,192,80870,1,0,0:0:0:0:
256,192,81070,1,12,0:0:0:0:
256,192,81470,1,0,0:0:0:0:
256,192,81670,1,0,0:0:0:0:
256,192,81770,1,8,0:0:0:0:
256,192,81870,1,0,0:0:0:0:
256,192,81970,1,0,0:0:0:0:
256,192,82070,1,8,0:0:0:0:
256,192,83470,1,0,0:0:0:0:
256,192,83670,1,12,0:0:0:0:
256,192,83870,1,12,0:0:0:0:
256,192,84270,1,12,0:0:0:0:
256,192,84670,1,8,0:0:0:0:
256,192,84870,1,0,0:0:0:0:
256,192,85070,1,0,0:0:0:0:
256,192,85136,1,0,0:0:0:0:
256,192,85203,1,0,0:0:0:0:
256,192,85270,1,8,0:0:0:0:
256,192,85870,1,0,0:0:0:0:
256,192,86270,1,0,0:0:0:0:
256,192,86370,1,0,0:0:0:0:
256,192,86470,1,8,0:0:0:0:
256,192,86570,1,8,0:0:0:0:
256,192,86670,1,0,0:0:0:0:
256,192,86870,1,12,0:0:0:0:
256,192,87070,1,12,0:0:0:0:
256,192,87470,1,12,0:0:0:0:
256,192,87870,1,8,0:0:0:0:
256,192,87970,1,0,0:0:0:0:
256,192,88070,1,8,0:0:0:0:
256,192,88170,1,8,0:0:0:0:
256,192,88270,1,0,0:0:0:0:
256,192,88370,1,0,0:0:0:0:
256,192,88470,1,8,0:0:0:0:
256,192,88670,1,0,0:0:0:0:
256,192,88870,1,0,0:0:0:0:
256,192,89070,1,12,0:0:0:0:
