osu file format v14

[General]
AudioFilename: Sayonara Zetsubou Sensei - Zetsubou Restaurant (TV Size).mp3
AudioLeadIn: 0
PreviewTime: 51894
Countdown: 0
SampleSet: Soft
StackLeniency: 0.7
Mode: 0
LetterboxInBreaks: 0
WidescreenStoryboard: 1

[Editor]
DistanceSpacing: 0.5
BeatDivisor: 4
GridSize: 4
TimelineZoom: 2.1

[Metadata]
Title:Zetsubou Restaurant (TV Size)
TitleUnicode:絶望レストラン(TVサイズ)
Artist:Zetsubou Shoujotachi
ArtistUnicode:絶望少女達
Creator:Tarrasky
Version:Easy
Source:懺・さよなら絶望先生
Tags:ghm12 Near Ending Zan Sayonara Zetsubou Sensei Tanii Asuka Sanada Asami Gotou Yuuko Matsuki Miyu
BeatmapID:662650
BeatmapSetID:255637

[Difficulty]
HPDrainRate:2
CircleSize:3
OverallDifficulty:2
ApproachRate:3
SliderMultiplier:0.8
SliderTickRate:1

[Events]
//Background and Video events
Video,325,"Zan Sayonara Zetsubou Sensei - Zetsubou Restaurant.avi"
0,0,"zetsubourestaurant.png",0,0
//Break Periods
//Storyboard Layer 0 (Background)
//Storyboard Layer 1 (Fail)
//Storyboard Layer 2 (Pass)
//Storyboard Layer 3 (Foreground)
//Storyboard Sound Samples

[TimingPoints]
470,400,4,2,3,100,1,0
16470,-100,4,2,3,70,0,0
51670,-117.647058823529,4,2,3,50,0,0
53270,-100,4,2,2,100,0,1
77270,-100,4,2,3,100,0,0

[Colours]
Combo1 : 0,128,128
Combo2 : 255,0,0
Combo3 : 128,0,128
Combo4 : 255,128,64

[HitObjects]
143,48,470,6,0,P|132:127|139:206,1,160
196,284,1670,1,2,0:0:0:0:
292,276,2070,2,0,P|330:265|359:239,1,80,2|0,0:0|0:0,0:0:0:0:
404,152,2870,2,0,P|433:125|471:115,1,80,0|2,0:0|0:0,0:0:0:0:
400,48,3670,6,0,P|324:40|300:184,1,240,4|2,0:0|0:0,0:0:0:0:
292,268,5270,2,0,P|216:345|140:268,1,240,4|2,0:0|0:0,0:0:0:0:
216,208,6870,6,0,L|216:48,1,160,4|8,0:0|0:0,0:0:0:0:
120,48,8070,1,2,0:0:0:0:
24,48,8470,2,0,B|28:228|28:228|48:252|88:248,1,240,4|2,0:0|0:0,0:0:0:0:
144,176,10070,6,0,P|208:188|328:168,1,160,4|8,0:0|0:0,0:0:0:0:
384,128,11270,1,2,0:0:0:0:
464,180,11670,1,2,0:0:0:0:
256,288,12670,6,0,L|256:152,1,120,2|4,0:0|0:0,0:0:0:0:
256,192,14870,12,12,16470,0:0:0:0:
187,104,17270,6,0,P|179:142|183:182,1,80,2|0,0:0|0:0,0:0:0:0:
208,276,18070,2,0,P|212:315|203:354,1,80,8|0,0:0|0:0,0:0:0:0:
296,332,18870,2,0,L|384:316,2,80,0|8|8,0:0|0:0|0:0,0:0:0:0:
308,236,20070,5,0,0:0:0:0:
272,148,20470,2,0,P|267:108|276:69,1,80,2|0,0:0|0:0,0:0:0:0:
368,96,21270,2,0,P|412:144|476:160,2,120,2|4|8,0:0|0:0|0:0,0:0:0:0:
287,43,22870,6,0,P|248:39|209:47,1,80,4|0,0:0|0:0,0:0:0:0:
120,80,23670,2,0,P|80:87|41:83,1,80,2|0,0:0|0:0,0:0:0:0:
28,180,24470,2,0,P|32:240|176:316,1,240,8|8,0:0|0:0,0:0:0:0:
264,284,26070,5,4,0:0:0:0:
340,224,26470,2,0,L|360:312,2,80,0|2|0,0:0|0:0|0:0,0:0:0:0:
308,132,27670,2,0,P|264:84|200:68,2,120,2|8|0,0:0|0:0|0:0,0:0:0:0:
256,212,29270,6,0,L|124:216,1,120,4|2,0:0|0:0,0:0:0:0:
20,64,30670,2,0,L|184:60,1,160,4|2,0:0|0:0,0:0:0:0:
324,56,32070,1,2,0:0:0:0:
416,36,32470,6,0,P|405:112|337:149,1,160,2|2,0:0|0:0,0:0:0:0:
244,168,33670,2,0,P|176:204|165:281,1,160,2|2,0:0|0:0,0:0:0:0:
256,260,34870,2,0,L|344:260,1,80,8|2,0:0|0:0,0:0:0:0:
424,296,35670,6,0,P|456:185|396:85,1,240,4|8,0:0|0:0,0:0:0:0:
336,160,37270,2,0,L|336:288,2,120,8|2|2,0:0|0:0|0:0,0:0:0:0:
264,96,38870,6,0,P|203:195|236:307,1,240,4|8,0:0|0:0,0:0:0:0:
148,344,40470,2,0,L|28:308,2,120,8|2|2,0:0|0:0|0:0,0:0:0:0:
244,340,42070,6,0,B|396:280|396:280|420:196,1,240,4|8,0:0|0:0,0:0:0:0:
392,112,43670,2,0,P|372:80|296:40,2,120,2|8|2,0:0|0:0|0:0,0:0:0:0:
340,192,45270,5,6,0:0:0:0:
176,288,46070,1,6,0:0:0:0:
176,96,46870,1,6,0:0:0:0:
348,192,47670,2,0,L|264:192,2,80,4|2|4,0:0|0:0|0:0,0:0:0:0:
444,191,48870,6,0,P|481:125|441:60,1,160,2|2,0:0|0:0,0:0:0:0:
344,60,50070,2,0,P|270:173|193:62,1,320,4|4,0:0|0:0,0:0:0:0:
268,92,52070,6,0,L|268:236,1,136.000002593994,2|0,0:0|0:0,0:0:0:0:
360,196,53270,5,8,0:0:0:0:
336,288,53670,2,0,P|267:324|200:288,1,160,2|2,0:0|0:0,0:0:0:0:
184,192,54870,2,0,B|184:72|184:72|92:160|92:160|92:240,1,320,4|8,0:0|0:0,0:0:0:0:
124,324,56870,6,0,P|202:311|280:328,1,160,2|2,0:0|0:0,0:0:0:0:
372,308,58070,2,0,B|448:332|448:332|476:298|475:258,1,160,4|4,0:0|0:0,0:0:0:0:
480,164,59270,1,2,0:0:0:0:
428,84,59670,5,8,0:0:0:0:
332,56,60070,2,0,L|320:148,2,80,2|4|2,0:0|0:0|0:0,0:0:0:0:
240,84,61270,1,0,0:0:0:0:
148,116,61670,2,0,L|137:36,2,80,2|4|2,0:0|0:0|0:0,0:0:0:0:
164,212,62870,5,0,0:0:0:0:
244,264,63270,2,0,P|338:291|416:184,1,240,2|8,0:0|0:0,0:0:0:0:
404,48,65070,2,0,P|448:88|484:148,1,120,2|2,0:0|0:0,0:0:0:0:
384,152,66070,6,0,B|260:204|260:116|150:163,1,240,8|2,0:0|0:0,0:0:0:0:
100,244,67670,2,0,P|52:268|152:324,1,240,4|2,0:0|0:0,0:0:0:0:
204,256,69270,6,0,B|328:308|328:220|437:267,1,240,8|2,0:0|0:0,0:0:0:0:
468,176,70870,2,0,B|436:100|436:100|372:140|268:124,1,240,4|2,0:0|0:0,0:0:0:0:
188,108,72470,6,0,P|113:186|191:260,1,240,8|2,0:0|0:0,0:0:0:0:
288,256,74070,2,0,P|365:180|289:103,1,240,8|2,0:0|0:0,0:0:0:0:
216,40,75670,6,0,B|156:140|216:196|216:196|192:224|172:272|204:316|226:329,1,320,8|2,0:0|0:0,0:0:0:0:
432,128,78470,6,0,L|432:220,1,80,2|4,0:0|0:0,0:0:0:0:
296,260,79470,2,0,P|256:228|264:120,2,160,2|4|2,0:0|0:0|0:0,0:0:0:0:
404,164,81670,2,0,L|416:72,1,80,8|4,0:0|0:0,0:0:0:0:
144,64,83670,6,0,P|88:81|62:133,2,120,4|8|2,0:0|0:0|0:0,0:0:0:0:
236,88,85270,1,4,0:0:0:0:
236,88,86870,6,0,B|208:208|208:208|332:168,1,240,4|2,0:0|0:0,0:0:0:0:
412,148,88470,2,0,L|384:264,1,120,8|8,0:0|0:0,0:0:0:0:
