osu file format v14

[General]
AudioFilename: Sayonara Zetsubou Sensei - Zetsubou Restaurant (TV Size).mp3
AudioLeadIn: 0
PreviewTime: 51894
Countdown: 0
SampleSet: Soft
StackLeniency: 0.7
Mode: 0
LetterboxInBreaks: 0
WidescreenStoryboard: 0

[Editor]
DistanceSpacing: 0.8
BeatDivisor: 4
GridSize: 4
TimelineZoom: 2.1

[Metadata]
Title:Zetsubou Restaurant (TV Size)
TitleUnicode:絶望レストラン(TVサイズ)
Artist:Zetsubou Shoujotachi
ArtistUnicode:絶望少女達
Creator:Tarrasky
Version:Insane
Source:懺・さよなら絶望先生
Tags:ghm12 Near Ending Zan Sayonara Zetsubou Sensei Tanii Asuka Sanada Asami Gotou Yuuko Matsuki Miyu
BeatmapID:587103
BeatmapSetID:255637

[Difficulty]
HPDrainRate:6
CircleSize:4
OverallDifficulty:7
ApproachRate:9
SliderMultiplier:2
SliderTickRate:1

[Events]
//Background and Video events
Video,325,"Zan Sayonara Zetsubou Sensei - Zetsubou Restaurant.avi"
0,0,"zetsubourestaurant.png",0,0
//Break Periods
//Storyboard Layer 0 (Background)
//Storyboard Layer 1 (Fail)
//Storyboard Layer 2 (Pass)
//Storyboard Layer 3 (Foreground)
//Storyboard Sound Samples

[TimingPoints]
470,400,4,2,3,100,1,0
52070,-200,4,2,3,50,0,0
53270,-83.3333333333333,4,2,2,100,0,1
77270,-100,4,2,3,100,0,0

[Colours]
Combo1 : 0,128,128
Combo2 : 255,0,0
Combo3 : 128,0,128
Combo4 : 255,128,64

[HitObjects]
104,72,470,6,0,P|132:113|179:128,1,100,0|2,0:0|0:0,0:0:0:0:
264,88,1070,1,2,0:0:0:0:
284,80,1170,1,2,0:0:0:0:
304,72,1270,1,2,0:0:0:0:
404,76,1470,1,2,0:0:0:0:
436,172,1670,1,2,0:0:0:0:
388,260,1870,1,2,0:0:0:0:
288,276,2070,5,2,0:0:0:0:
116,176,2470,1,2,0:0:0:0:
240,52,2870,1,2,0:0:0:0:
376,88,3070,2,0,P|419:110|439:155,1,100,0|2,0:0|0:0,0:0:0:0:
320,244,3470,1,0,0:0:0:0:
192,164,3670,6,0,P|192:115|220:74,1,100,8|0,0:0|0:0,0:0:0:0:
352,144,4070,1,2,0:0:0:0:
367,292,4270,2,0,P|308:363|223:325,1,200,8|2,0:0|0:0,0:0:0:0:
188,199,4870,2,0,P|190:150|162:110,1,100,10|0,0:0|0:0,0:0:0:0:
52,32,5270,6,0,P|139:77|238:77,1,200,8|2,0:0|0:0,0:0:0:0:
384,32,5870,2,0,L|328:244,1,200,8|2,0:0|0:0,0:0:0:0:
212,312,6470,1,10,0:0:0:0:
212,311,6870,6,0,P|162:311|121:285,1,100,8|2,0:0|0:0,0:0:0:0:
148,168,7270,1,0,0:0:0:0:
88,64,7470,1,10,0:0:0:0:
88,64,7870,2,0,P|152:84|188:64,1,100,2|10,0:0|0:0,0:0:0:0:
280,4,8270,1,0,0:0:0:0:
336,112,8470,6,0,P|376:201|463:246,1,200,8|2,0:0|0:0,0:0:0:0:
364,336,9070,2,0,P|318:248|229:208,1,200,8|2,0:0|0:0,0:0:0:0:
96,264,9670,1,10,0:0:0:0:
96,264,10070,5,8,0:0:0:0:
256,184,10270,1,0,0:0:0:0:
88,136,10470,1,2,0:0:0:0:
248,56,10670,1,10,0:0:0:0:
248,56,11070,1,2,0:0:0:0:
256,184,11270,1,10,0:0:0:0:
404,160,11470,6,0,L|421:113,2,50,2|2|2,0:0|0:0|0:0,0:0:0:0:
404,160,12670,5,2,0:0:0:0:
288,340,12870,1,2,0:0:0:0:
108,224,13070,1,2,0:0:0:0:
224,44,13270,1,2,0:0:0:0:
232,64,13670,5,2,0:0:0:0:
240,84,14070,5,2,0:0:0:0:
248,100,14470,5,2,0:0:0:0:
404,12,14670,1,2,0:0:0:0:
352,152,14870,1,2,0:0:0:0:
424,284,15070,1,2,0:0:0:0:
276,268,15270,1,2,0:0:0:0:
132,312,15470,6,0,P|88:244|108:104,1,200,4|2,0:0|0:0,0:0:0:0:
120,84,15970,1,0,0:0:0:0:
156,52,16070,1,2,0:0:0:0:
200,32,16170,1,0,0:0:0:0:
248,24,16270,1,8,0:0:0:0:
296,28,16370,1,0,0:0:0:0:
340,52,16470,5,4,0:0:0:0:
428,128,16670,1,0,0:0:0:0:
436,248,16870,2,0,P|416:292|372:324,1,100,8|0,0:0|0:0,0:0:0:0:
217,374,17270,2,0,P|240:328|284:296,1,100,8|0,0:0|0:0,0:0:0:0:
360,248,17670,2,0,L|344:144|344:144,1,100,8|0,0:0|0:0,0:0:0:0:
236,52,18070,5,8,0:0:0:0:
256,192,18270,1,0,0:0:0:0:
384,128,18470,1,8,0:0:0:0:
236,52,18670,1,0,0:0:0:0:
114,168,18870,1,8,0:0:0:0:
190,319,19070,1,8,0:0:0:0:
190,319,19170,1,8,0:0:0:0:
190,319,19270,1,8,0:0:0:0:
256,192,19470,1,2,0:0:0:0:
356,293,19670,1,8,0:0:0:0:
384,128,19870,5,0,0:0:0:0:
291,64,20070,2,0,P|256:98|209:113,1,100,8|0,0:0|0:0,0:0:0:0:
124,28,20470,1,8,0:0:0:0:
84,140,20670,1,0,0:0:0:0:
88,260,20870,1,8,0:0:0:0:
156,360,21070,1,0,0:0:0:0:
156,360,21170,1,8,0:0:0:0:
156,360,21270,5,2,0:0:0:0:
288,288,21470,1,2,0:0:0:0:
420,16,21870,2,0,B|444:48|444:48|412:84|412:84|436:148|426:193,1,200,12|2,0:0|0:0,0:0:0:0:
416,352,22470,1,8,0:0:0:0:
368,356,22570,1,0,0:0:0:0:
320,344,22670,1,0,0:0:0:0:
280,316,22770,1,0,0:0:0:0:
256,272,22870,5,4,0:0:0:0:
272,172,23070,1,0,0:0:0:0:
192,104,23270,2,0,P|149:79|99:75,1,100,8|0,0:0|0:0,0:0:0:0:
272,172,23670,2,0,P|313:195|368:200,1,100,8|0,0:0|0:0,0:0:0:0:
448,148,24070,1,8,0:0:0:0:
440,48,24270,1,0,0:0:0:0:
344,15,24470,6,0,P|297:32|263:68,1,100,8|0,0:0|0:0,0:0:0:0:
192,224,24870,2,0,P|238:207|272:171,1,100,8|0,0:0|0:0,0:0:0:0:
352,88,25270,1,8,0:0:0:0:
448,148,25470,1,8,0:0:0:0:
448,148,25570,1,8,0:0:0:0:
448,148,25670,1,8,0:0:0:0:
488,272,25870,1,2,0:0:0:0:
384,352,26070,1,8,0:0:0:0:
255,347,26270,5,0,0:0:0:0:
203,227,26470,2,0,P|188:180|194:131,1,100,8|0,0:0|0:0,0:0:0:0:
284,40,26870,2,0,P|299:87|293:136,1,100,8|0,0:0|0:0,0:0:0:0:
168,108,27270,1,8,0:0:0:0:
92,176,27470,1,8,0:0:0:0:
92,224,27570,1,8,0:0:0:0:
112,260,27670,5,2,0:0:0:0:
212,344,27870,1,10,0:0:0:0:
440,96,28270,2,0,B|400:112|400:112|368:92|368:92|320:116|252:104,1,200,12|2,0:0|0:0,0:0:0:0:
144,144,28870,1,2,0:0:0:0:
156,184,28970,1,0,0:0:0:0:
184,212,29070,1,0,0:0:0:0:
220,232,29170,1,0,0:0:0:0:
260,240,29270,6,0,P|309:244|353:223,1,100,4|0,0:0|0:0,0:0:0:0:
396,132,29670,1,2,0:0:0:0:
189,32,29870,2,0,P|141:48|102:78,1,100,4|0,0:0|0:0,0:0:0:0:
41,155,30270,1,0,0:0:0:0:
34,254,30470,1,2,0:0:0:0:
328,280,30670,6,0,P|357:240|362:192,1,100,4|0,0:0|0:0,0:0:0:0:
352,92,31070,1,0,0:0:0:0:
284,20,31270,1,2,0:0:0:0:
88,312,31470,2,0,P|160:320|256:228,1,200,4|0,0:0|0:0,0:0:0:0:
292,152,32070,1,2,0:0:0:0:
368,88,32270,1,0,0:0:0:0:
378,377,32470,5,2,0:0:0:0:
363,364,32870,5,2,0:0:0:0:
348,352,33270,5,2,0:0:0:0:
332,339,33670,5,2,0:0:0:0:
192,112,33870,1,2,0:0:0:0:
192,112,34270,5,2,0:0:0:0:
404,136,34470,1,2,0:0:0:0:
240,32,34669,2,0,P|136:36|100:120,1,200,2|8,0:0|0:0,0:0:0:0:
192,196,35270,1,2,0:0:0:0:
170,209,35370,1,0,0:0:0:0:
148,222,35470,1,8,0:0:0:0:
126,235,35570,1,0,0:0:0:0:
104,247,35670,6,0,P|134:287|180:304,1,100,4|0,0:0|0:0,0:0:0:0:
276,292,36070,1,2,0:0:0:0:
368,248,36270,2,0,P|433:176|437:78,1,200,8|2,0:0|0:0,0:0:0:0:
348,28,36870,2,0,B|286:4|253:60|253:60,1,100,2|0,0:0|0:0,0:0:0:0:
136,188,37270,5,4,0:0:0:0:
321,101,37470,1,8,0:0:0:0:
154,33,37670,1,2,0:0:0:0:
252,224,37870,2,0,P|350:217|424:153,1,200,8|2,0:0|0:0,0:0:0:0:
444,112,38370,1,2,0:0:0:0:
455,67,38470,2,0,P|434:22|389:3,1,100,10|0,0:0|0:0,0:0:0:0:
288,164,38870,5,4,0:0:0:0:
108,184,39070,1,8,0:0:0:0:
24,24,39270,1,2,0:0:0:0:
244,40,39470,2,0,P|339:67|439:62,1,200,8|2,0:0|0:0,0:0:0:0:
468,148,40070,2,0,P|461:196|480:242,1,100,10|0,0:0|0:0,0:0:0:0:
344,360,40470,5,4,0:0:0:0:
184,276,40670,1,8,0:0:0:0:
360,236,40870,1,2,0:0:0:0:
107,311,41070,2,0,P|60:224|100:128,1,200,8|2,0:0|0:0,0:0:0:0:
124,96,41570,1,2,0:0:0:0:
164,68,41670,2,0,P|206:41|255:36,1,100,10|0,0:0|0:0,0:0:0:0:
344,84,42070,5,4,0:0:0:0:
260,208,42270,1,8,0:0:0:0:
380,300,42470,1,2,0:0:0:0:
261,112,42670,2,0,B|196:20|196:20|196:20|136:16|119:48,1,200,8|2,0:0|0:0,0:0:0:0:
56,196,43270,2,0,L|56:96,1,100,10|0,0:0|0:0,0:0:0:0:
104,372,43670,5,4,0:0:0:0:
152,248,43870,1,10,0:0:0:0:
148,228,44270,2,0,P|136:168|200:48,1,200,8|2,0:0|0:0,0:0:0:0:
248,52,44770,1,2,0:0:0:0:
296,64,44870,2,0,B|328:76|352:96|366:130,1,100,10|0,0:0|0:0,0:0:0:0:
448,260,45270,5,12,0:0:0:0:
448,260,45870,5,2,0:0:0:0:
256,368,46070,1,4,0:0:0:0:
256,368,46670,5,2,0:0:0:0:
64,260,46870,1,4,0:0:0:0:
64,260,47470,5,2,0:0:0:0:
132,32,47670,1,4,0:0:0:0:
256,192,47870,1,4,0:0:0:0:
380,32,48070,1,2,0:0:0:0:
256,368,48270,1,4,0:0:0:0:
268,132,48470,6,0,P|314:115|364:121,1,100,4|0,0:0|0:0,0:0:0:0:
468,228,48870,2,0,P|421:244|371:238,1,100,2|0,0:0|0:0,0:0:0:0:
316,96,49270,2,0,L|359:5,1,100,4|0,0:0|0:0,0:0:0:0:
408,268,49670,2,0,L|364:358,1,100,2|0,0:0|0:0,0:0:0:0:
176,332,50070,6,0,P|168:283|181:235,1,100,4|0,0:0|0:0,0:0:0:0:
336,48,50470,2,0,P|343:96|330:144,1,100,2|0,0:0|0:0,0:0:0:0:
325,289,50870,2,0,P|375:297|424:288,1,100,4|0,0:0|0:0,0:0:0:0:
180,95,51270,2,0,P|131:86|83:96,1,100,2|0,0:0|0:0,0:0:0:0:
256,272,51670,5,4,0:0:0:0:
256,272,52070,6,0,L|256:116,1,150,2|0,0:0|0:0,0:0:0:0:
292,84,52770,1,0,0:0:0:0:
340,64,52870,1,2,0:0:0:0:
388,60,52970,1,0,0:0:0:0:
436,76,53070,1,0,0:0:0:0:
472,112,53170,1,0,0:0:0:0:
492,156,53270,6,0,P|498:214|470:266,1,119.999996337891,8|4,0:0|0:0,0:0:0:0:
364,324,53670,1,2,0:0:0:0:
244,308,53870,1,4,0:0:0:0:
100,140,54070,2,0,P|133:92|190:77,1,119.999996337891,0|4,0:0|0:0,0:0:0:0:
308,104,54470,1,2,0:0:0:0:
424,80,54670,1,4,0:0:0:0:
364,324,54870,6,0,P|306:322|267:278,1,119.999996337891,0|4,0:0|0:0,0:0:0:0:
232,164,55270,1,2,0:0:0:0:
136,96,55470,1,4,0:0:0:0:
340,20,55670,1,0,0:0:0:0:
280,228,55870,1,4,0:0:0:0:
184,36,56070,1,2,0:0:0:0:
372,140,56270,1,4,0:0:0:0:
52,208,56470,6,0,L|75:325,1,119.999996337891,8|4,0:0|0:0,0:0:0:0:
192,344,56870,1,2,0:0:0:0:
304,300,57070,1,4,0:0:0:0:
460,176,57270,2,0,L|437:59,1,119.999996337891,0|4,0:0|0:0,0:0:0:0:
320,40,57670,1,2,0:0:0:0:
208,84,57870,1,4,0:0:0:0:
192,344,58070,6,0,P|250:338|296:301,1,119.999996337891,0|4,0:0|0:0,0:0:0:0:
356,196,58470,1,2,0:0:0:0:
332,80,58670,1,4,0:0:0:0:
500,216,58870,1,0,0:0:0:0:
312,328,59070,1,6,0:0:0:0:
312,328,59170,1,2,0:0:0:0:
312,328,59270,1,0,0:0:0:0:
172,296,59470,1,6,0:0:0:0:
172,296,59570,1,2,0:0:0:0:
172,296,59670,6,0,P|130:253|112:196,1,119.999996337891,8|4,0:0|0:0,0:0:0:0:
120,76,60070,1,2,0:0:0:0:
220,12,60270,1,4,0:0:0:0:
256,224,60470,1,0,0:0:0:0:
64,128,60670,1,4,0:0:0:0:
280,104,60870,1,2,0:0:0:0:
100,224,61070,1,4,0:0:0:0:
423,236,61270,6,0,P|380:275|321:276,1,119.999996337891,0|4,0:0|0:0,0:0:0:0:
216,216,61670,1,2,0:0:0:0:
84,248,61870,1,4,0:0:0:0:
292,188,62070,1,0,0:0:0:0:
100,88,62270,1,4,0:0:0:0:
128,304,62470,1,2,0:0:0:0:
204,104,62670,1,4,0:0:0:0:
472,104,62870,6,0,P|500:172|496:228,1,119.999996337891,0|4,0:0|0:0,0:0:0:0:
452,328,63270,1,2,0:0:0:0:
340,368,63470,1,4,0:0:0:0:
392,160,63670,1,0,0:0:0:0:
260,332,63870,1,4,0:0:0:0:
464,264,64070,1,2,0:0:0:0:
268,172,64270,1,4,0:0:0:0:
88,36,64470,6,0,P|72:116|84:168,1,119.999996337891,8|4,0:0|0:0,0:0:0:0:
132,260,64870,1,2,0:0:0:0:
392,376,65070,6,0,P|424:280|396:136,1,239.999992675781,8|6,0:0|0:0,0:0:0:0:
376,104,65570,1,2,0:0:0:0:
344,68,65670,1,0,0:0:0:0:
300,48,65770,1,0,0:0:0:0:
252,44,65870,1,6,0:0:0:0:
204,56,65970,1,2,0:0:0:0:
164,80,66070,6,0,P|120:120|99:176,1,119.999996337891,8|4,0:0|0:0,0:0:0:0:
124,296,66470,1,2,0:0:0:0:
228,356,66670,1,4,0:0:0:0:
336,163,66870,2,0,P|371:117|429:110,1,119.999996337891,0|4,0:0|0:0,0:0:0:0:
500,208,67270,1,2,0:0:0:0:
452,316,67470,1,4,0:0:0:0:
195,60,67670,6,0,P|176:116|176:176,1,119.999996337891,0|4,0:0|0:0,0:0:0:0:
232,284,68070,1,2,0:0:0:0:
332,352,68270,1,4,0:0:0:0:
312,136,68470,1,0,0:0:0:0:
224,332,68670,1,4,0:0:0:0:
412,208,68870,1,2,0:0:0:0:
152,280,69070,1,4,0:0:0:0:
300,232,69270,6,0,P|360:204|428:212,1,119.999996337891,8|4,0:0|0:0,0:0:0:0:
508,280,69670,1,2,0:0:0:0:
436,376,69870,1,4,0:0:0:0:
144,200,70070,2,0,P|93:168|68:114,1,119.999996337891,0|4,0:0|0:0,0:0:0:0:
136,16,70470,1,2,0:0:0:0:
256,12,70670,1,4,0:0:0:0:
444,208,70870,6,0,P|425:263|376:296,1,119.999996337891,0|4,0:0|0:0,0:0:0:0:
256,312,71270,1,2,0:0:0:0:
144,272,71470,1,4,0:0:0:0:
124,56,71670,1,0,0:0:0:0:
36,252,71870,1,6,0:0:0:0:
240,184,72070,1,2,0:0:0:0:
296,352,72270,1,6,0:0:0:0:
188,296,72470,6,0,P|157:246|155:187,1,119.999996337891,8|4,0:0|0:0,0:0:0:0:
200,72,72870,1,2,0:0:0:0:
308,12,73070,1,4,0:0:0:0:
264,224,73270,1,0,0:0:0:0:
400,56,73470,1,4,0:0:0:0:
204,152,73670,1,2,0:0:0:0:
420,160,73870,1,4,0:0:0:0:
47,228,74070,6,0,P|44:286|81:332,1,119.999996337891,8|4,0:0|0:0,0:0:0:0:
200,344,74470,1,2,0:0:0:0:
316,320,74670,1,4,0:0:0:0:
160,172,74870,1,0,0:0:0:0:
372,212,75070,1,4,0:0:0:0:
216,60,75270,1,2,0:0:0:0:
144,264,75470,1,4,0:0:0:0:
336,280,75670,6,0,P|368:230|368:171,1,119.999996337891,8|4,0:0|0:0,0:0:0:0:
316,60,76070,1,2,0:0:0:0:
200,28,76270,1,4,0:0:0:0:
132,232,76470,1,0,0:0:0:0:
44,92,76670,1,4,0:0:0:0:
68,348,76870,1,2,0:0:0:0:
128,340,76970,1,2,0:0:0:0:
180,312,77070,1,2,0:0:0:0:
220,268,77170,1,2,0:0:0:0:
248,216,77270,5,2,0:0:0:0:
252,200,77470,5,2,0:0:0:0:
260,176,77870,6,0,B|300:36|300:36|352:80,1,200,2|8,0:0|0:0,0:0:0:0:
420,204,78470,1,2,0:0:0:0:
420,232,78570,1,0,0:0:0:0:
412,260,78670,1,0,0:0:0:0:
396,288,78770,1,0,0:0:0:0:
376,308,78870,6,0,P|332:336|280:336,1,100,4|0,0:0|0:0,0:0:0:0:
188,320,79270,1,2,0:0:0:0:
100,160,79470,2,0,P|138:129|187:119,1,100,4|0,0:0|0:0,0:0:0:0:
288,128,79870,1,8,0:0:0:0:
380,168,80070,1,2,0:0:0:0:
160,332,80270,6,0,P|119:303|102:257,1,100,4|0,0:0|0:0,0:0:0:0:
100,160,80670,1,8,0:0:0:0:
140,68,80870,1,2,0:0:0:0:
424,80,81070,2,0,P|470:166|462:265,1,200,4|8,0:0|0:0,0:0:0:0:
404,348,81670,1,2,0:0:0:0:
304,360,81870,1,8,0:0:0:0:
100,160,82070,1,2,0:0:0:0:
100,160,83470,5,0,0:0:0:0:
100,160,83570,1,0,0:0:0:0:
100,160,83670,1,2,0:0:0:0:
268,288,83870,1,2,0:0:0:0:
444,80,84270,1,2,0:0:0:0:
444,80,84870,1,0,0:0:0:0:
444,88,84970,1,0,0:0:0:0:
444,96,85070,1,0,0:0:0:0:
444,104,85170,1,0,0:0:0:0:
444,112,85270,5,2,0:0:0:0:
444,112,86670,5,0,0:0:0:0:
444,120,86770,1,0,0:0:0:0:
444,128,86870,1,2,0:0:0:0:
436,280,87070,1,2,0:0:0:0:
312,104,87270,1,8,0:0:0:0:
204,244,87470,1,2,0:0:0:0:
200,252,88070,1,0,0:0:0:0:
196,260,88170,1,0,0:0:0:0:
192,268,88270,1,0,0:0:0:0:
188,276,88370,1,0,0:0:0:0:
184,284,88470,5,8,0:0:0:0:
180,292,89070,5,8,0:0:0:0:
