osu file format v13

[General]
AudioFilename: music.mp3
AudioLeadIn: 1500
PreviewTime: 27975
Countdown: 0
SampleSet: Soft
StackLeniency: 0.7
Mode: 0
LetterboxInBreaks: 0
WidescreenStoryboard: 0

[Editor]
DistanceSpacing: 1.1
BeatDivisor: 1
GridSize: 32
TimelineZoom: 0.750002

[Metadata]
Title:Zi Mo Feng Tian
TitleUnicode:紫陌丰田
Artist:Zeng Zhi Hao
ArtistUnicode:曾志豪
Creator:zjwautumn
Version:Beginner
Source:仙剑奇侠传三
Tags:Pal3 xian jian qi xia zhuan san SoftStar Legend of Sword and Fairy Chinese Paladin 3
BeatmapID:515318
BeatmapSetID:205645

[Difficulty]
HPDrainRate:2
CircleSize:2.5
OverallDifficulty:1
ApproachRate:2
SliderMultiplier:1.1
SliderTickRate:1

[Events]
//Background and Video events
0,0,"cc11728b4710b9124c6f8012c2fdfc03934522ab.jpg",0,0
//Break Periods
//Storyboard Layer 0 (Background)
//Storyboard Layer 1 (Fail)
//Storyboard Layer 2 (Pass)
//Storyboard Layer 3 (Foreground)
//Storyboard Sound Samples
//Background Colour Transformations
3,100,163,162,255

[TimingPoints]
465,572.847049837693,3,2,1,30,1,0
7339,-100,3,2,1,35,0,0
9057,-100,3,2,1,45,0,0
14213,-100,3,2,1,50,0,0
15675,572.847049837693,3,2,1,50,1,0
15961,572.847049837693,3,2,1,50,1,0
21101,572.847049837693,3,2,1,40,1,0
24538,-100,3,2,1,35,0,0
27975,-100,3,2,1,40,0,0
53180,-100,3,2,1,25,0,0
53466,-100,3,2,1,40,0,0
53753,-100,3,2,1,30,0,0
57180,572.847049837693,3,2,1,40,1,0
58898,-100,3,2,1,35,0,0
66988,572.847049837693,3,2,1,35,1,0
67560,-100,3,2,1,40,0,0
68157,572.847049837693,3,2,1,40,1,0
69302,638.297872340426,3,2,1,35,1,0
71216,-100,3,2,1,20,0,0
71536,-100,3,2,1,10,0,0
75046,-100,3,2,1,5,0,0

[Colours]
Combo1 : 145,253,193
Combo2 : 206,128,253
Combo3 : 157,249,253
SliderBorder : 255,255,255

[HitObjects]
60,196,465,6,0,B|156:196|156:196|188:132|254:132,1,220,4|0,0:0|3:0,0:0:0:0:
256,252,2183,2,0,B|322:252|354:188|354:188|450:188,1,220,2|0,0:0|3:0,0:0:0:0:
392,80,3902,6,0,P|352:48|296:40,1,110,2|0,0:0|0:0,0:0:0:0:
304,160,5047,1,0,3:0:0:0:
184,184,5620,2,0,P|248:269|356:271,1,220,4|0,0:0|3:0,0:0:0:0:
304,160,7339,6,0,L|216:94,1,110,2|0,0:0|0:0,0:0:0:0:
99,125,8484,1,0,3:0:0:0:
182,213,9057,2,0,B|270:277|270:277|326:277,1,165,4|2,0:0|0:0,0:0:0:0:
386,277,10203,1,0,3:0:0:0:
466,185,10776,6,0,B|402:161|386:97|386:97|316:32,1,220,4|0,0:0|0:0,0:0:0:0:
196,32,12494,2,0,B|125:97|125:97|109:161|45:185,1,220,4|0,0:0|3:0,0:0:0:0:
30,305,14213,6,0,B|104:304|144:280|192:240|208:192,1,220,4|0,0:0|3:0,0:0:0:0:
256,308,15961,2,0,B|304:268|328:224|336:164|316:112,1,220,4|0,0:0|3:0,0:0:0:0:
196,112,17679,6,0,B|176:164|184:224|208:268|256:308,1,220,4|2,0:0|3:2,0:0:0:0:
278,189,19398,2,0,B|298:238|347:267|389:287|462:289,1,220,4|2,0:0|0:0,0:0:0:0:
368,368,21101,6,0,P|315:353|269:322,1,110,0|0,0:0|0:0,0:0:0:0:
154,358,22246,1,0,3:0:0:0:
164,238,22819,2,0,P|255:187|347:238,1,220,4|2,0:0|0:0,0:0:0:0:
412,136,24538,5,4,0:0:0:0:
347,239,25110,2,0,L|319:287,2,55,0|0|2,0:0|0:0|0:0,0:0:0:0:
256,160,26256,1,4,0:0:0:0:
165,239,26829,2,0,L|193:287,2,55,0|0|2,0:0|0:0|0:0,0:0:0:0:
160,118,27975,6,0,B|212:106|256:160|256:160|300:106|352:118,1,220,4|0,0:0|3:0,0:0:0:0:
460,168,29693,2,0,B|476:248|444:312|380:360,1,220,2|0,0:0|3:0,0:0:0:0:
256,352,31412,2,0,L|256:232,2,110,2|0|0,0:0|0:0|3:0,0:0:0:0:
132,360,33130,2,0,B|68:312|36:248|52:168,1,220,4|2,0:0|0:0,0:0:0:0:
167,131,34849,6,0,P|221:134|269:160,1,110,2|0,0:0|0:0,0:0:0:0:
188,252,35995,1,0,3:0:0:0:
302,297,36567,2,0,P|380:252|408:179,1,165,4|2,0:0|0:0,0:0:0:0:
386,128,37713,1,0,3:0:0:0:
268,158,38286,6,0,P|157:149|65:93,1,220,4|0,0:0|0:0,0:0:0:0:
31,209,40004,2,0,P|128:257|237:271,1,220,4|0,0:0|3:0,0:0:0:0:
327,352,41723,6,0,P|354:305|355:250,1,110,2|0,0:0|0:0,0:0:0:0:
463,191,42869,1,0,3:0:0:0:
432,74,43442,2,0,B|387:85|343:125|327:185|355:251,1,220,4|0,0:0|3:0,0:0:0:0:
242,294,45160,6,0,L|146:349,1,110,4|0,0:0|0:0,0:0:0:0:
48,277,46306,1,0,3:0:0:0:
151,215,46879,2,0,P|248:173|342:225,1,220,2|0,0:0|3:0,0:0:0:0:
241,294,48597,6,0,P|281:333|334:348,2,110,2|0|0,0:0|0:0|3:0,0:0:0:0:
152,214,50316,2,0,P|93:127|128:27,1,220,4|0,0:0|3:0,0:0:0:0:
217,110,52034,6,0,P|308:155|413:109,1,220,4|2,0:0|3:0,0:0:0:0:
459,76,53466,2,0,L|501:42,1,55,0|4,3:0|0:0,0:0:0:0:
56,262,55471,6,0,P|160:214|232:134,1,220,4|0,0:0|0:0,0:0:0:0:
281,245,57180,2,0,P|355:166|455:122,1,220,4|0,0:0|3:0,0:0:0:0:
461,243,58898,6,0,P|489:288|494:344,1,110,2|0,0:0|0:0,0:0:0:0:
373,328,60044,1,0,3:0:0:0:
281,245,60617,2,0,P|204:177|86:157,1,220,0|0,0:0|3:0,0:0:0:0:
147,46,62335,6,0,P|202:52|251:75,1,110,2|0,0:0|0:0,0:0:0:0:
347,150,63481,1,0,3:0:0:0:
238,196,64054,2,0,P|134:204|78:300,1,220,4|0,0:0|3:0,0:0:0:0:
198,311,65772,6,0,P|246:335|302:327,1,110,2|0,0:0|0:0,0:0:0:0:
336,200,66988,2,0,P|389:192|437:217,1,110,4|2,0:0|0:0,0:0:0:0:
116,144,69302,6,0,B|132:132|160:120|196:132|220:156|220:156|256:192|256:192|292:156|292:156|316:132|352:120|380:132|396:144,1,330,4|2,0:0|0:0,0:0:0:0:
256,192,71536,12,0,75046,0:0:0:0:
