osu file format v9

[General]
AudioFilename: zektbach - God Snake.mp3
AudioLeadIn: 0
PreviewTime: 6151
Countdown: 1
SampleSet: Normal
StackLeniency: 0.7
Mode: 0
LetterboxInBreaks: 1

[Editor]
Bookmarks: 30175,52764,64058,75352,86646,109210,120504
DistanceSpacing: 1.7
BeatDivisor: 4
GridSize: 8

[Metadata]
Title:Kagachi
Artist:Zektbach
Creator:ouranhshc
Version:Sharp x ouran
Source:Pop'n Music 18 Sengoku Retsuden
Tags:Sharp Verdisphena happy30

[Difficulty]
HPDrainRate:7
CircleSize:4
OverallDifficulty:7
ApproachRate:8
SliderMultiplier:1.7
SliderTickRate:2

[Events]
//Background and Video events
0,0,"Sunset_by_ArashiHikari.jpg"
//Break Periods
//Storyboard Layer 0 (Background)
//Storyboard Layer 1 (Fail)
//Storyboard Layer 2 (Pass)
//Storyboard Layer 3 (Foreground)
//Storyboard Sound Samples
//Background Colour Transformations
3,100,163,162,255

[TimingPoints]
6152,352.941176470588,4,1,0,70,1,0
30151,-200,4,1,0,70,0,0
41446,-100,4,1,0,70,0,0
75328,-200,4,2,0,70,0,0
86622,-100,4,1,0,70,0,0
109210,-200,4,2,0,70,0,0

[HitObjects]
160,336,6151,5,0
48,272,6328,2,0,B|0:240,2,42.5,0|0|2
112,160,6681,1,0
176,272,6857,5,0
288,208,7034,2,0,B|336:176,2,42.5,0|0|2
224,96,7387,1,0
160,208,7563,5,0
48,144,7740,2,0,B|0:112,2,42.5,0|0|2
112,32,8093,1,0
144,48,8181,1,0
176,64,8269,1,0
208,80,8357,1,0
240,96,8446,1,0
272,112,8534,1,0
304,128,8622,2,0,B|368:160,2,42.5,2|0|0
352,336,8975,5,0
464,272,9152,2,0,B|512:240,2,42.5,0|0|2
400,160,9505,1,0
336,272,9681,5,0
224,208,9858,2,0,B|176:176,2,42.5,0|0|2
288,96,10211,1,0
352,208,10387,5,0
464,144,10564,2,0,B|512:112,2,42.5,0|0|2
400,32,10917,1,0
368,48,11005,1,0
336,64,11093,1,0
304,80,11181,1,0
272,96,11270,1,0
240,112,11358,1,0
208,128,11446,2,0,B|144:160,2,42.5,2|0|0
192,352,11799,5,0
80,288,11975,1,0
80,288,12063,1,0
80,288,12151,1,2
144,176,12328,1,0
320,240,12504,5,0
432,176,12680,1,0
432,176,12768,1,0
432,176,12856,1,2
368,64,13033,1,0
192,128,13210,5,0
128,16,13387,1,0
128,16,13475,1,0
128,16,13563,1,2
16,80,13740,1,0
32,112,13828,1,0
48,144,13916,1,0
64,176,14004,1,0
80,208,14093,1,0
96,240,14181,1,0
112,272,14269,2,0,B|144:336,2,42.5,2|0|0
304,288,14622,5,0
400,224,14799,2,0,B|448:192,2,42.5,0|0|2
336,128,15151,1,0
208,64,15328,5,0
80,128,15504,2,0,B|32:160,2,42.5,0|0|2
144,256,15857,1,0
304,320,16034,5,0
464,256,16210,2,0,B|512:224,2,42.5,0|0|2
400,96,16563,1,0
368,112,16651,1,0
336,128,16740,1,0
304,144,16828,1,0
272,160,16916,1,0
240,176,17004,1,0
208,192,17093,2,0,B|144:224,2,42.5,2|0|0
128,32,17446,5,2
32,96,17622,1,0
32,96,17710,1,0
32,96,17799,1,0
96,192,17975,1,2
32,288,18151,1,0
32,288,18240,1,0
32,288,18328,1,0
128,352,18504,1,0
128,352,18593,1,0
128,352,18681,1,0
224,288,18857,5,2
160,192,19034,1,0
160,192,19122,1,0
160,192,19210,1,0
256,128,19387,1,2
352,192,19563,1,0
352,192,19651,1,0
352,192,19740,1,0
416,96,19916,1,0
288,352,20269,5,2
192,288,20446,1,0
192,288,20534,1,0
192,288,20622,1,0
96,352,20799,1,2
32,256,20975,1,0
32,256,21063,1,0
32,256,21151,1,0
96,160,21328,1,0
96,160,21416,1,0
96,160,21504,1,0
0,96,21681,5,2
96,32,21857,1,0
96,32,21946,1,0
96,32,22034,1,0
192,96,22210,1,2
128,192,22387,1,0
128,192,22475,1,0
128,192,22563,1,0
224,256,22740,1,0
416,16,23093,5,2
480,112,23269,1,0
480,112,23357,1,0
480,112,23446,1,0
416,208,23622,1,2
392,224,23710,1,0
368,240,23799,1,0
344,256,23887,1,0
320,272,23975,1,0
224,336,24151,1,0
224,336,24240,1,0
224,336,24328,1,0
224,48,24504,5,2
160,144,24681,1,0
160,144,24769,1,0
160,144,24857,1,0
224,240,25034,1,2
248,224,25122,1,0
272,208,25211,1,0
296,192,25299,1,0
320,176,25387,1,0
416,112,25563,1,0
48,176,25916,6,0,B|128:208,1,85,2|0
126,207,26269,1,0
240,320,26446,2,0,B|320:288,1,85,2|0
318,288,26799,1,0
432,176,26975,2,0,B|352:144,1,85
192,80,27328,6,0,B|160:160,1,85,2|0
160,158,27681,1,0
272,272,27857,2,0,B|304:352,1,85,2|0
303,350,28210,1,0
48,336,28387,1,0
368,64,30152,6,0,B|288:96,1,85
192,128,30858,1,0
160,224,31211,1,0
192,320,31563,2,0,B|272:288,1,85
368,256,32269,1,0
400,160,32622,1,0
392,136,32710,1,0
384,112,32799,1,0
376,88,32887,1,0
368,64,32975,1,0
208,32,33328,5,0
96,144,33681,2,0,B|128:224,1,85
160,320,34387,2,0,B|192:240,1,85
224,144,35093,1,0
128,112,35446,1,0
160,208,35799,6,0,B|192:288,1,85
288,320,36504,1,0
288,320,36857,1,0
384,288,37210,2,0,B|416:208,1,85
384,112,37916,1,0
288,80,38269,1,0
264,88,38357,1,0
240,96,38446,1,0
216,104,38534,1,0
192,112,38622,1,0
96,192,39328,5,0
144,192,40034,1,0
192,192,40740,1,0
240,192,41446,6,0,B|280:176|280:176|320:192,1,85
272,272,41799,1,0
192,320,41975,2,0,B|176:280|176:280|192:240,1,85,0|0
112,192,42328,1,0
64,272,42504,1,0
64,272,42593,1,0
64,272,42681,1,0
144,320,42857,6,0,B|184:336|184:336|224:320,1,85,0|0
304,272,43210,1,0
256,192,43387,2,0,B|240:152|240:152|256:112,1,85,0|0
304,32,43740,1,0
328,40,43828,1,0
352,48,43916,1,0
376,56,44004,1,0
400,64,44093,1,0
448,144,44269,6,0,B|464:184|464:184|448:224,1,85,0|0
368,176,44622,1,0
288,128,44799,2,0,B|248:112|248:112|208:128,1,85,0|0
128,176,45151,1,0
176,256,45328,1,0
176,256,45416,1,0
176,256,45504,1,0
128,336,45681,2,0,B|168:352|168:352|208:336,1,85,0|0
288,288,46034,1,0
368,336,46210,2,0,B|384:296|384:296|368:256,1,85,0|0
320,176,46563,1,0
296,168,46651,1,0
272,160,46739,1,0
248,152,46827,1,0
224,144,46916,1,0
128,96,47093,6,0,B|112:136|112:136|128:176,1,85,0|0
224,224,47446,1,0
176,320,47622,2,0,B|216:336|216:336|256:320,1,85,0|0
352,272,47975,1,0
304,176,48151,1,0
304,176,48240,1,0
304,176,48328,1,0
400,128,48504,2,0,B|440:112|440:112|480:128,1,85,0|0
432,224,48857,1,0
336,272,49034,2,0,B|296:288|296:288|256:272,1,85,0|0
160,224,49387,1,0
152,200,49475,1,0
144,176,49563,1,0
136,152,49651,1,0
128,128,49740,1,0
32,80,49916,6,0,B|16:120|16:120|32:160,1,85,0|0
80,256,50269,1,0
32,352,50446,2,0,B|72:368|72:368|112:352,1,85,0|0
208,304,50799,1,0
160,208,50975,2,0,B|200:192|200:192|240:208,1,85,0|0
336,256,51328,5,0
336,256,51416,1,0
336,256,51504,1,0
432,304,51681,2,0,B|448:264|448:264|432:224,1,85,0|0
384,128,52034,1,0
288,176,52210,1,0
192,224,52387,1,0
96,272,52563,1,0
48,176,52740,5,0
48,176,52828,1,0
48,176,52916,1,0
96,80,53093,2,0,B|176:112,1,85
224,208,53446,2,0,B|304:176,1,85
352,80,53799,2,0,B|432:112,1,85
480,208,54151,2,0,B|336:304,1,170
338,302,54681,1,0
240,352,54857,1,0
240,352,54946,1,0
240,352,55034,1,0
144,304,55210,2,0,B|112:224,1,85
160,128,55563,5,0
256,80,55740,1,0
352,128,55916,2,0,B|384:208,1,85
288,256,56269,2,0,B|128:192,1,170
130,192,56710,1,0
130,192,56799,1,0
224,128,56975,2,0,B|384:192,1,170
381,192,57416,1,0
381,192,57505,1,0
336,288,57681,6,0,B|272:320|224:304,1,85
176,96,58034,2,0,B|240:64|288:80,1,85
244,316,58387,2,0,B|176:293|154:248,1,85
128,176,58740,1,0
128,176,58828,1,0
128,176,58916,1,0
267,67,59093,2,0,B|335:90|357:135,1,85
384,208,59446,1,0
384,208,59534,1,0
384,208,59622,1,0
288,256,59799,6,0,B|208:224,1,85
160,128,60151,1,0
64,176,60328,1,0
160,224,60504,2,0,B|240:192,1,85
288,96,60857,1,0
384,144,61034,1,0
432,240,61210,2,0,B|464:320,1,85
371,299,61563,2,0,B|337:378,1,85
285,298,61916,2,0,B|205:330,1,85
225,237,62269,2,0,B|145:203,1,85
64,144,62622,5,0
112,48,62799,1,0
208,96,62975,1,0
256,0,63151,1,0
352,48,63328,2,0,B|384:128,1,85
352,336,63681,2,0,B|320:256,1,85
208,96,64034,5,4
192,112,64122,1,0
176,128,64210,1,0
160,144,64299,1,0
144,160,64387,1,0
144,304,64563,1,4
160,288,64651,1,0
176,272,64739,1,0
192,256,64827,1,0
208,240,64916,1,0
376,328,65093,6,0,B|336:232,1,85
408,128,65446,5,4
384,128,65534,1,0
360,128,65622,1,0
336,128,65710,1,0
312,128,65799,1,0
208,240,65975,1,4
232,240,66063,1,0
256,240,66151,1,0
280,240,66240,1,0
304,240,66328,1,0
456,344,66504,6,0,B|408:272,1,85
312,128,66857,5,4
288,120,66946,1,0
264,112,67034,1,0
240,104,67122,1,0
216,96,67210,1,0
72,216,67387,1,4
96,208,67475,1,0
120,200,67563,1,0
144,192,67651,1,0
168,184,67740,1,0
224,312,67916,6,0,B|136:304,1,85
120,200,68269,5,4
112,176,68357,1,0
104,152,68446,1,0
96,128,68534,1,0
88,104,68622,1,0
216,96,68799,1,4
224,120,68887,1,0
232,144,68975,1,0
240,168,69063,1,0
248,192,69151,1,0
344,272,69328,6,0,B|424:232,1,85
472,128,69681,5,4
448,120,69769,1,0
424,112,69857,1,0
400,104,69946,1,0
376,96,70034,1,0
320,184,70210,2,0,B|360:200,4,42.5,4|0|0|0|0
224,256,70740,6,0,B|200:176,1,85
240,64,71093,6,0,B|288:40,4,42.5,4|0|0|0|0
144,24,71622,1,4
128,40,71710,1,0
112,56,71799,1,0
96,72,71887,1,0
80,88,71975,1,0
56,192,72151,6,0,B|152:176,1,85
176,280,72504,5,4
192,264,72593,1,0
208,248,72681,1,0
224,232,72769,1,0
240,216,72857,1,0
320,288,73034,1,4
336,280,73122,1,0
352,272,73210,1,0
368,264,73299,1,0
384,256,73387,1,0
464,152,73563,6,0,B|376:160,1,85
352,48,73916,6,0,B|296:112,1,85
232,48,74269,2,0,B|216:136,1,85
128,72,74622,2,0,B|144:160,1,85
56,144,74975,1,0
64,168,75063,1,0
72,192,75151,1,0
80,216,75240,1,0
88,240,75328,6,0,B|120:320,1,85,4|2
184,360,75857,1,0
192,280,76034,2,0,B|272:256,1,85,2|0
352,240,76563,1,2
416,288,76740,2,0,B|472:224,1,85,2|0
440,152,77269,1,2
440,152,77357,1,0
440,152,77446,2,0,B|392:80,1,85,2|0
288,16,77975,5,2
288,16,78063,1,0
288,16,78151,2,0,B|200:16,1,85,2|0
128,32,78681,1,2
128,32,78857,2,0,B|128:120,1,85,2|0
144,192,79387,1,2
72,168,79563,2,0,B|72:256,2,85,2|0|2
160,352,80622,5,0
184,344,80710,1,0
208,336,80799,1,0
232,328,80887,1,0
256,320,80975,2,0,B|336:288,1,85,6|0
408,280,81504,1,0
360,216,81681,2,0,B|304:152,1,85,2|0
232,136,82210,1,2
232,136,82299,1,0
232,136,82387,2,0,B|144:136,1,85,2|0
72,64,82916,1,2
72,64,83093,2,0,B|160:64,1,85,2|0
224,32,83622,5,2
224,32,83710,1,0
224,32,83799,2,0,B|312:32,1,85,2|0
384,32,84328,1,2
384,32,84504,2,0,B|384:120,1,85,2|0
384,192,85034,1,2
312,144,85210,2,0,B|312:232,1,85,2|0
375,271,85740,1,2
328,328,85916,2,0,B|240:352,1,85,2|0
80,88,86622,6,0,B|104:168,1,85,4|0
192,256,86975,2,0,B|208:168,1,85,8|0
256,56,87328,2,0,B|296:136,1,85
400,200,87681,1,8
400,200,87769,1,0
400,200,87857,1,0
424,328,88034,6,0,B|352:376,1,85
312,256,88387,2,0,B|296:344,1,85,8|0
200,256,88740,2,0,B|216:344,1,85
88,328,89093,2,0,B|160:376,1,85,8|0
200,256,89446,5,0
176,240,89534,1,0
160,216,89622,1,0
152,184,89710,1,0
160,152,89799,1,8
256,176,89975,1,0
312,256,90151,5,0
336,240,90239,1,0
352,216,90327,1,0
360,184,90415,1,0
352,152,90504,1,8
256,176,90681,1,0
256,40,90857,6,0,B|192:96,1,85
88,32,91210,2,0,B|80:120,1,85,8|0
24,216,91563,1,0
48,232,91651,1,0
72,248,91740,1,0
96,264,91828,1,0
120,280,91916,1,8
120,280,92093,1,0
256,328,92269,6,0,B|256:240,1,85,4|0
360,296,92622,2,0,B|360:208,1,85,8|0
472,256,92975,1,0
472,232,93063,1,0
472,208,93151,1,0
472,184,93240,1,0
472,160,93328,1,8
472,32,93504,1,0
344,32,93681,6,0,B|312:112,1,85
280,232,94034,2,0,B|232:160,1,85,8|0
184,40,94387,2,0,B|160:120,1,85
104,240,94740,2,0,B|72:160,1,85,8|0
184,224,95093,5,0
272,136,95269,1,0
296,264,95446,1,8
384,176,95622,1,0
360,48,95799,1,0
272,136,95975,1,0
152,96,96151,1,8
184,224,96328,1,0
256,328,96504,5,0
256,304,96593,1,0
256,280,96681,1,0
256,256,96769,1,0
256,232,96857,1,8
256,208,96946,1,0
256,184,97034,1,0
256,160,97122,1,0
256,136,97210,1,0
256,112,97299,1,0
256,88,97387,1,0
256,64,97475,1,0
256,40,97563,1,8
72,240,97916,5,4
72,240,98004,1,0
72,240,98093,1,0
72,240,98181,1,0
72,240,98269,1,0
192,320,98446,1,4
192,320,98534,1,0
192,320,98622,1,0
192,320,98710,1,0
192,320,98799,1,0
336,288,98975,1,4
336,288,99063,1,0
336,288,99151,1,0
416,168,99328,5,4
400,152,99416,1,0
384,136,99504,1,0
368,120,99593,1,0
352,104,99681,1,0
256,208,99857,1,4
240,192,99946,1,0
224,176,100034,1,0
208,160,100122,1,0
192,144,100210,1,0
104,256,100387,1,4
88,240,100475,1,0
72,224,100563,1,0
64,88,100740,6,0,B|32:56,4,42.5,4|0|0|0|0
192,32,101269,1,4
216,32,101357,1,0
240,32,101446,1,0
264,32,101534,1,0
288,32,101622,1,0
192,144,101799,2,0,B|176:184,2,42.5,4|0|0
320,144,102151,5,4
312,160,102240,1,0
304,176,102328,1,0
296,192,102416,1,0
288,208,102504,1,0
352,312,102681,2,0,B|400:312,4,42.5,4|0|0|0|0
216,312,103210,1,4
216,312,103299,1,0
216,312,103387,1,0
80,272,103563,5,4
96,256,103651,1,0
112,240,103740,1,0
128,224,103828,1,0
144,208,103916,1,0
184,64,104093,1,4
192,80,104181,1,0
200,96,104269,1,0
208,112,104357,1,0
216,128,104446,1,0
256,232,104622,1,4
272,240,104710,1,0
288,248,104799,1,0
376,136,104975,6,0,B|424:136,4,42.5,4|0|0|0|0
296,48,105504,1,4
280,64,105593,1,0
264,80,105681,1,0
248,96,105769,1,0
232,112,105857,1,0
128,72,106034,2,0,B|96:32,2,42.5,4|0|0
80,168,106387,6,0,B|40:192,4,42.5,4|0|0|0|0
176,232,106916,2,0,B|152:272,4,42.5,4|0|0|0|0
288,256,107446,2,0,B|256:176,1,85,4|0
296,56,107799,5,4
320,64,107887,1,0
344,72,107975,1,0
368,80,108063,1,0
392,88,108151,1,0
464,184,108328,1,4
448,200,108416,1,0
432,216,108504,1,0
416,232,108593,1,0
400,248,108681,1,0
288,192,108857,1,4
288,192,108946,1,0
288,192,109034,1,0
176,112,109210,6,0,B|96:152,1,85,4|2
24,144,109740,1,2
56,208,109916,2,0,B|56:304,1,85,2|0
160,328,110534,1,0
160,328,110622,2,0,B|208:312|216:264,1,85,2|0
144,256,111151,1,2
192,200,111328,2,0,B|280:200,1,85,2|0
392,112,112034,6,0,B|336:48,1,85,2|0
192,32,112740,2,0,B|248:104,1,85,2|0
264,208,113357,1,0
264,208,113446,2,0,B|176:208,1,85,2|0
128,152,113975,1,2
56,168,114151,2,0,B|56:256,1,85,2|0
152,360,114857,6,0,B|240:360,1,85,6|0
264,288,115387,1,2
312,344,115563,2,0,B|352:312|336:256,1,85,2|0
288,216,116093,1,0
288,216,116181,1,0
288,216,116269,1,2
160,152,116622,1,2
120,216,116799,1,0
48,192,116975,2,0,B|48:96,1,85,2|0
168,32,117681,6,0,B|256:32,1,85,2|0
328,32,118210,1,2
400,48,118387,2,0,B|384:96|328:112,1,85,2|0
272,120,118916,1,0
272,120,119004,1,0
272,120,119093,2,0,B|224:136|216:192,1,85,2|2
256,328,119799,6,0,B|256:240,1,85,2|0
