osu file format v9

[General]
AudioFilename: zektbach - God Snake.mp3
AudioLeadIn: 0
PreviewTime: 6151
Countdown: 1
SampleSet: Normal
StackLeniency: 0.7
Mode: 0
LetterboxInBreaks: 1

[Editor]
Bookmarks: 24504,41470,52740,68269,75328,86622,102151,109210,114151,120151
DistanceSpacing: 1.2
BeatDivisor: 4
GridSize: 8

[Metadata]
Title:Kagachi
Artist:Zektbach
Creator:ouranhshc
Version:Normal
Source:Pop'n Music 18 Sengoku Retsuden
Tags:Sharp Verdisphena happy30

[Difficulty]
HPDrainRate:5
CircleSize:3
OverallDifficulty:5
ApproachRate:5
SliderMultiplier:1.2
SliderTickRate:1

[Events]
//Background and Video events
0,0,"Sunset_by_ArashiHikari.jpg"
//Break Periods
//Storyboard Layer 0 (Background)
//Storyboard Layer 1 (Fail)
//Storyboard Layer 2 (Pass)
//Storyboard Layer 3 (Foreground)
//Storyboard Sound Samples
//Background Colour Transformations
3,100,163,162,255

[TimingPoints]
6152,352.941176470588,4,1,0,70,1,0
29823,-133.333333333333,4,2,0,70,0,0
41446,-100,4,1,0,70,0,0
75328,-133.333333333333,4,2,0,70,0,0
86622,-100,4,1,0,70,0,0
109210,-133.333333333333,4,2,0,70,0,0

[HitObjects]
120,48,6151,1,4
72,160,6504,2,0,B|192:160,1,120
104,240,7210,2,0,B|224:240,1,120
136,320,7916,2,0,B|256:320,2,120
16,320,8975,6,0,B|0:192,1,120,4|0
112,240,9681,2,0,B|104:120,1,120
216,168,10387,2,0,B|216:48,2,120
256,280,11446,1,0
344,360,11799,6,0,B|464:336,1,120,4|0
360,280,12504,2,0,B|480:256,1,120
376,200,13210,2,0,B|496:176,2,120
256,208,14269,1,0
168,288,14622,6,0,B|128:240|144:168,1,120,4|0
256,208,15328,2,0,B|384:208,1,120
288,128,16034,2,0,B|416:128,2,120
256,16,17093,1,0
136,40,17446,6,0,B|80:72|80:144,1,120,4|0
96,200,17975,2,0,B|216:200,1,120
280,200,18504,1,4
320,312,18857,6,0,B|200:312,1,120,4|0
144,296,19387,2,0,B|120:232|144:176,1,120
168,128,19916,1,4
256,48,20269,6,0,B|376:48,1,120,4|0
440,56,20799,2,0,B|480:112|440:168,1,120
392,208,21328,2,0,B|328:208,1,60,4|0
280,248,21681,6,0,B|160:248,1,120,4|0
104,240,22210,2,0,B|40:224|40:152,1,120
40,88,22740,1,4
128,8,23093,6,0,B|256:8,1,120,4|0
264,64,23622,2,0,B|224:120|264:176,1,120
320,192,24151,1,4
320,312,24504,6,0,B|392:320|416:256,1,120,4|0
424,200,25034,2,0,B|424:80,1,120
424,16,25563,1,4
304,16,25916,6,0,B|184:16,1,120,4|0
128,40,26446,2,0,B|104:96|128:160,1,120
184,184,26975,1,4
144,296,27328,6,0,B|24:296,1,120,4|0
24,232,27857,2,0,B|40:176|24:112,1,120
16,56,28387,1,4
400,288,30151,6,0,B|448:208,1,89.9999973177911,4|0
448,120,30857,1,0
400,40,31210,1,2
400,40,31387,1,0
400,40,31563,2,0,B|216:40,2,179.999994635582,2|0|0
256,152,33681,6,0,B|168:152,1,89.9999973177911,2|0
208,232,34387,2,0,B|120:232,1,89.9999973177911,2|0
160,312,35093,1,2
24,192,35799,6,0,B|64:112,1,89.9999973177911
112,192,36504,2,0,B|152:112,1,89.9999973177911,0|2
200,192,37210,2,0,B|280:32,2,179.999994635582,2|0|0
288,344,39328,6,0,B|352:352|408:288|400:232,2,179.999994635582,2|2|2
56,296,41446,6,0,B|56:192|160:160,2,180,4|0|0
176,280,42857,2,0,B|360:280,2,180,4|0|0
264,200,44269,6,0,B|448:200,2,180,4|0|0
352,120,45681,2,0,B|168:120,2,180,4|0|0
424,24,47093,6,0,B|496:8|528:112|464:144,2,180,4|0|0
304,24,48504,2,0,B|120:24,2,180,4|0|0
216,104,49916,6,0,B|40:160,2,180,4|0|0
160,208,51328,2,0,B|88:376,2,180,4|0|0
256,288,52740,6,0,B|376:288,1,120,0|8
288,208,53446,2,0,B|408:208,1,120,0|8
320,120,54151,2,0,B|440:120,2,120,4|0|0
192,120,55210,1,0
192,120,55563,1,0
16,280,56269,6,0,B|120:336,1,120,4|0
88,224,56975,2,0,B|200:272,1,120
152,160,57681,2,0,B|272:200,1,120,4|0
216,88,58387,6,0,B|464:88,2,240,4|0|0
96,88,60151,1,0
24,184,60504,2,0,B|16:248|64:296,2,120
208,336,61916,6,0,B|136:240,1,120,4|0
256,256,62622,2,0,B|200:144,1,120
320,184,63328,2,0,B|296:64,1,120,4|0
408,24,64034,6,0,B|408:144,1,120,4|0
408,208,64563,1,0
128,320,65446,6,0,B|248:320,1,120,4|0
312,320,65975,1,0
24,240,66857,6,0,B|144:240,1,120,4|0
208,240,67387,1,0
320,40,68269,6,0,B|320:160,1,120,4|0
320,224,68799,1,0
88,32,69681,6,0,B|48:96|96:144,1,120,4|0
128,192,70210,1,0
376,24,71093,6,0,B|256:24,1,120,4|0
192,24,71622,1,0
488,72,72504,6,0,B|488:144|424:160,1,120,4|0
360,160,73034,1,0
120,336,73916,6,0,B|48:240,1,120,4|0
16,192,74446,1,0
136,64,74975,5,0
160,152,75328,2,0,B|256:152,1,89.9999973177911,4|2
184,240,76034,2,0,B|368:240,2,179.999994635582,2|0|0
40,344,78151,5,2
8,256,78504,1,0
32,168,78857,2,0,B|56:72|168:72,1,179.999994635582,2|0
240,128,79916,1,2
160,176,80269,2,0,B|192:224|248:224,1,89.9999973177911,2|0
312,184,80975,6,0,B|400:184,1,89.9999973177911,4|2
464,256,81681,2,0,B|512:232|520:184|512:136|464:112,1,179.999994635582,2|2
376,96,82740,2,0,B|288:96,1,89.9999973177911,2|0
112,40,83799,5,2
192,88,84151,1,0
248,160,84504,2,0,B|280:224|216:288|160:280,1,179.999994635582,2|0
168,192,85563,1,0
88,224,85916,1,0
256,48,86622,6,0,B|376:48,1,120,4|8
288,128,87328,2,0,B|168:128,1,120,0|8
48,128,88034,2,0,B|48:192|112:224,2,120,0|8|0
96,16,89093,1,0
168,112,89446,6,0,B|256:200,1,120,4|8
256,80,90151,2,0,B|344:168,1,120,0|8
344,48,90857,2,0,B|520:224,1,240
512,336,91916,1,8
400,368,92269,6,0,B|280:368,1,120,4|8
160,344,92975,2,0,B|96:240|160:112,1,240
256,48,94034,1,8
256,168,94387,2,0,B|328:168|360:104,1,120,0|8
440,24,95093,6,0,B|512:128,1,120,4|8
392,104,95799,2,0,B|440:216,1,120,4|8
328,176,96504,2,0,B|352:304,2,120,4|8|0
304,56,97563,1,8
192,16,97916,6,0,B|72:32,1,120,4|0
32,80,98446,2,0,B|16:144|56:208,1,120
96,232,98975,1,4
88,352,99328,6,0,B|160:352|192:304,1,120,4|0
256,304,99857,2,0,B|376:304,1,120
440,304,100387,1,4
488,192,100740,6,0,B|416:192|400:120,1,120,4|0
400,64,101269,2,0,B|280:64,1,120
216,64,101799,1,4
208,184,102151,6,0,B|336:184,1,120,4|0
392,192,102681,2,0,B|432:248|392:304,1,120
336,304,103210,1,4
232,360,103563,6,0,B|112:360,1,120,4|0
56,344,104093,2,0,B|24:288|56:224,1,120
104,192,104622,1,4
80,72,104975,6,0,B|200:104,1,120,4|0
256,104,105504,1,0
352,32,105857,1,0
352,32,106034,1,4
456,96,106387,6,0,B|384:192,1,120,4|0
344,240,106916,2,0,B|288:272|224:240,1,120
168,240,107446,1,4
96,144,107799,6,0,B|224:144,1,120,4|0
272,152,108328,2,0,B|304:216|272:280,1,120
256,328,108857,1,4
160,376,109210,6,0,B|72:376,1,89.9999973177911,4|2
16,312,109916,2,0,B|80:240|32:128,1,179.999994635582,2|0
56,56,110975,1,2
144,32,111328,1,2
248,184,112034,6,0,B|344:184,1,89.9999973177911,2|0
296,264,112740,2,0,B|208:264,1,89.9999973177911,2|0
248,344,113446,2,0,B|336:344,2,89.9999973177911,2|2|2
72,288,114857,5,2
32,208,115210,1,0
48,120,115563,2,0,B|96:128|112:176,1,89.9999973177911,2|0
176,240,116269,2,0,B|208:208|200:152,2,89.9999973177911,2|2|2
344,312,117681,6,0,B|432:304,1,89.9999973177911,2|0
392,224,118387,2,0,B|304:224|304:128|392:128,1,179.999994635582,2|0
480,128,119446,1,2
480,224,119799,1,2
