osu file format v9

[General]
AudioFilename: zektbach - God Snake.mp3
AudioLeadIn: 0
PreviewTime: 6151
Countdown: 1
SampleSet: Normal
StackLeniency: 0.7
Mode: 0
LetterboxInBreaks: 1

[Editor]
Bookmarks: 41470,68269,75328,114151,120151
DistanceSpacing: 1.2
BeatDivisor: 4
GridSize: 8

[Metadata]
Title:Kagachi
Artist:Zektbach
Creator:ouranhshc
Version:Easy
Source:Pop'n Music 18 Sengoku Retsuden
Tags:Sharp Verdisphena happy30

[Difficulty]
HPDrainRate:2
CircleSize:3
OverallDifficulty:2
ApproachRate:2
SliderMultiplier:0.9
SliderTickRate:1

[Events]
//Background and Video events
0,0,"Sunset_by_ArashiHikari.jpg"
//Break Periods
//Storyboard Layer 0 (Background)
//Storyboard Layer 1 (Fail)
//Storyboard Layer 2 (Pass)
//Storyboard Layer 3 (Foreground)
//Storyboard Sound Samples
//Background Colour Transformations
3,100,163,162,255

[TimingPoints]
6152,352.941176470588,4,1,0,70,1,0
29823,-133.333333333333,4,2,0,70,0,0
41446,-100,4,1,0,70,0,0
75328,-133.333333333333,4,2,0,70,0,0
86622,-100,4,1,0,70,0,0
109210,-133.333333333333,4,2,0,70,0,0

[HitObjects]
168,96,6151,2,0,B|256:64|344:96,2,180,4|0|0
16,192,8269,1,0
64,272,8622,1,0
120,344,8975,6,0,B|168:304|160:216|104:192,2,180,4|0|0
16,192,11093,2,0,B|16:104,1,90
72,32,11799,6,0,B|256:32,2,180,4|0|0
232,112,13916,1,0
192,192,14269,1,0
144,272,14622,6,0,B|144:328|200:352|256:328|256:272,2,180,4|0|0
256,128,16740,1,0
344,128,17093,1,0
432,128,17446,6,0,B|424:208|344:216,2,135,4|4|0
400,40,18857,2,0,B|264:40,2,135,4|4|0
352,120,20269,6,0,B|216:120,2,135,4|4|0
416,184,21681,2,0,B|416:320,2,135,4|4|0
336,224,23093,6,0,B|328:304|248:320,2,135,4|4|0
248,232,24504,2,0,B|112:232,2,135,4|4|0
248,144,25916,6,0,B|384:144,2,135,4|4|0
208,64,27328,2,0,B|72:64,2,135,4|4|0
96,56,30152,6,0,B|32:104|48:184,1,134.999995976687,4|0
96,240,31210,1,2
152,304,31563,2,0,B|288:304,2,134.999995976687,2|0|0
256,176,33681,6,0,B|392:176,2,134.999995976687,2|0|2
160,32,35799,6,0,B|80:40|72:120,1,134.999995976687,4|0
160,120,36857,1,2
160,208,37210,2,0,B|240:200|248:120,2,134.999995976687,2|0|0
96,352,39328,5,2
256,352,40034,1,0
416,352,40740,1,2
256,192,41446,6,0,B|392:192,2,135,4|0|0
256,192,42857,2,0,B|352:95,2,135,4|0|0
256,192,44269,2,0,B|255:55,2,135,4|0|0
256,192,45681,2,0,B|159:95,2,135,4|0|0
144,192,47093,6,0,B|8:192,2,135,4|0|0
144,192,48504,2,0,B|47:95,2,135,4|0|0
144,192,49916,2,0,B|144:56,2,135,4|0|0
144,192,51328,2,0,B|240:95,2,135,4|0|0
64,272,52740,6,0,B|152:272,1,90,4|8
88,360,53446,2,0,B|176:360,1,90,0|8
288,360,54151,2,0,B|352:376|416:328|416:264,2,180
256,144,56269,6,0,B|216:112|136:184|80:152,2,180,4|0|0
448,40,58387,6,0,B|448:128,1,90,4|8
360,64,59093,2,0,B|360:152,1,90,0|8
360,264,59799,2,0,B|360:320|304:344|248:320|248:264,2,180
256,72,61916,6,0,B|72:72,2,180,4|0|0
440,192,64034,6,0,B|360:200|336:128,1,135,4|0
80,48,65446,6,0,B|160:40|184:120,1,135,4|0
320,344,66857,6,0,B|240:336|224:256,1,135,4|0
328,8,68269,6,0,B|416:8|432:80,2,135,4|0|0
216,8,69681,2,0,B|72:8,1,135,4|0
136,272,71093,6,0,B|64:256|56:176,1,135,4|0
296,56,72504,6,0,B|376:56|392:136,1,135,4|0
416,344,73916,6,0,B|328:376,1,90,4|0
360,272,74622,2,0,B|272:304,1,90,4|0
192,304,75328,6,0,B|112:304|80:240,1,134.999995976687,4|0
80,160,76387,1,2
80,80,76740,2,0,B|136:80|168:128|160:176,1,134.999995976687,2|0
264,40,78151,6,0,B|336:40,1,67.4999979883433,4|0
416,40,78857,2,0,B|464:40|472:80|464:120|416:120,1,134.999995976687,2|0
336,120,79916,1,2
256,120,80269,1,2
112,192,80975,6,0,B|112:279|192:289,1,134.999995976687,4|0
192,208,82034,1,2
272,208,82387,2,0,B|408:208,1,134.999995976687,2|0
384,48,83799,5,6
320,104,84151,1,2
256,160,84504,2,0,B|120:160,2,134.999995976687,2|0|0
416,296,86622,6,0,B|320:296,1,90,4|8
392,208,87328,2,0,B|304:208,1,90,0|8
368,120,88034,2,0,B|184:120,1,180,4|0
96,296,89446,6,0,B|192:296,1,90,4|8
120,208,90152,2,0,B|208:208,1,90,0|8
144,120,90858,2,0,B|328:120,1,180,4|0
256,328,92269,6,0,B|256:144,1,180,4|0
256,40,93328,1,8
152,24,93681,2,0,B|48:32|48:152,1,180,4|0
152,128,94740,1,8
192,232,95093,6,0,B|200:280|256:312|312:280|320:232,1,180,4|0
256,152,96151,1,8
192,64,96504,2,0,B|200:16|256:-16|312:16|320:64,1,180,4|0
256,152,97563,1,8
152,152,97916,6,0,B|16:152,2,135,4|0|0
200,248,99328,2,0,B|64:248,2,135,4|0|0
312,248,100740,6,0,B|448:248,2,135,4|0|0
360,152,102151,2,0,B|496:152,2,135,4|0|0
312,56,103563,6,0,B|248:96|256:176,2,135,4|0|0
208,32,104975,2,0,B|72:32,2,135,4|0|0
136,112,106387,6,0,B|0:112,2,135,4|0|0
64,192,107799,2,0,B|8:320,2,135,4|0|0
144,216,109210,6,0,B|144:352,1,134.999995976687,4|0
224,352,110269,1,2
224,272,110622,2,0,B|272:272|312:312|304:368,1,134.999995976687,2|0
464,344,112034,6,0,B|384:352|368:272,1,134.999995976687,4|0
448,264,113093,1,2
400,192,113446,2,0,B|264:192,1,134.999995976687,2|0
168,72,114857,6,0,B|304:72,1,134.999995976687,4|0
384,72,115916,1,2
464,96,116269,2,0,B|432:168|352:152,1,134.999995976687,2|0
200,192,117681,6,0,B|64:192,1,134.999995976687,4|0
40,272,118740,1,2
120,272,119093,2,0,B|256:272,1,134.999995976687,2|4
