osu file format v9

[General]
AudioFilename: Zektbach - Apocalypse ~memento mori~.mp3
AudioLeadIn: 1500
PreviewTime: 57791
Countdown: 1
SampleSet: Soft
StackLeniency: 0.7
Mode: 0
LetterboxInBreaks: 1

[Editor]
Bookmarks: 28730,34500
DistanceSpacing: 0.1
BeatDivisor: 4
GridSize: 4

[Metadata]
Title:Apocalypse ~memento mori~
Artist:Zektbach
Creator:[Ryuu]
Version:rock
Source:
Tags:rockleejkooo [milky] meow wiedz

[Difficulty]
HPDrainRate:7
CircleSize:4
OverallDifficulty:7
ApproachRate:8
SliderMultiplier:1.3
SliderTickRate:0.5

[Events]
//Background and Video events
0,0,"for our dear meow.jpg"
//Break Periods
//Storyboard Layer 0 (Background)
//Storyboard Layer 1 (Fail)
//Storyboard Layer 2 (Pass)
//Storyboard Layer 3 (Foreground)
//Storyboard Sound Samples
//Background Colour Transformations
3,100,163,162,255

[TimingPoints]
1500,931.67701863354,4,2,1,20,1,0
5226,-100,4,2,1,25,0,0
5692,-100,4,2,1,27,0,0
6158,-100,4,2,1,30,0,0
8953,-100,4,2,1,35,0,0
14776,-100,4,2,1,12,0,0
16405,-100,4,2,1,35,0,0
23860,-100,4,2,1,12,0,0
26654,-100,4,2,1,35,0,0
28984,-100,4,2,1,12,0,0
31545,-100,4,2,1,35,0,0
31779,-100,4,2,1,12,0,0
34340,-100,4,2,1,35,0,0
34507,352.941176470588,4,2,1,60,1,0
36937,352.941176470588,4,2,1,60,1,0
37330,352.941176470588,4,1,0,40,1,0
37418,-100,4,2,1,60,0,0
38721,352.941176470588,4,2,1,60,1,0
40157,352.941176470588,4,1,0,40,1,0
40245,-100,4,2,1,60,0,0
42966,352.941176470588,4,1,0,40,1,0
43054,-100,4,2,1,60,0,0
45789,-100,4,1,0,40,0,0
45877,-100,4,2,1,60,0,0
48613,-100,4,1,0,40,0,0
48701,-100,4,2,1,60,0,0
51436,-100,4,1,0,40,0,0
51524,-100,4,2,1,60,0,0
54260,-100,4,1,0,40,0,0
54348,-100,4,2,1,60,0,0
55681,352.941176470588,4,2,1,60,1,0
57083,352.941176470588,4,1,0,40,1,0
57171,-133.333333333333,4,2,1,40,0,0
78612,-133.333333333333,4,2,1,50,0,0
78965,-133.333333333333,4,2,1,55,0,0
79318,-133.333333333333,4,2,1,60,0,0
79671,-100,4,1,0,40,0,0
79759,-100,4,2,1,60,0,0
85318,-100,4,1,0,40,0,0
85406,-100,4,2,1,60,0,0
90965,-100,4,1,0,40,0,0
91053,-100,4,2,1,60,0,0
93788,-100,4,1,0,40,0,0
93877,-100,4,2,1,60,0,0
96612,-100,4,1,0,40,0,0
96700,-100,4,2,1,60,0,0
99435,-100,4,1,0,40,0,0
99524,-100,4,2,1,60,0,0
102259,-50,4,2,1,80,0,0
113561,352.941176470588,4,2,1,60,1,0
113561,-133.333333333333,4,2,1,60,0,0
119208,-133.333333333333,4,1,0,40,0,0
119296,-133.333333333333,4,2,1,60,0,0
119913,-133.333333333333,4,2,1,40,0,0
125561,-133.333333333333,4,2,1,45,0,0
126972,-133.333333333333,4,2,1,50,0,0
128384,-133.333333333333,4,2,1,55,0,0
130502,-100,4,1,0,40,0,0
130590,-100,4,2,1,60,0,0
131188,352.941176470588,4,2,1,60,1,0
131561,352.941176470588,4,2,1,60,1,0
133335,352.941176470588,4,1,0,40,1,0
133423,-100,4,2,1,60,0,0
134737,352.941176470588,4,2,1,60,1,0
136148,-100,4,1,0,40,0,0
136237,-100,4,2,1,60,0,0
138972,-100,4,1,0,40,0,0
139060,-100,4,2,1,60,0,0
141805,352.941176470588,4,1,0,40,1,0
141893,-100,4,2,1,60,0,0
144628,-100,4,1,0,40,0,0
144716,-100,4,2,1,60,0,0
144966,352.941176470588,4,2,1,60,1,0
146024,352.941176470588,4,2,1,60,1,0
147435,-100,4,1,0,40,0,0
147524,-100,4,2,1,60,0,0
150259,349.854227405248,4,1,0,40,1,0
150346,-100,4,2,0,60,0,0
151133,-100,4,2,0,55,0,0
151483,-100,4,2,0,50,0,0
151833,-100,4,2,0,45,0,0
152183,-100,4,2,0,40,0,0
152533,-100,4,2,0,35,0,0
152882,-100,4,2,0,30,0,0
153145,-100,4,2,1,70,0,0
153174,-100,4,2,0,15,0,0
154282,-100,4,2,0,20,0,0

[Colours]
Combo1 : 187,0,94
Combo2 : 45,187,255
Combo3 : 106,255,106
Combo4 : 241,91,35

[HitObjects]
80,136,1499,2,0,B|216:120,1,130,4|4
304,192,3363,1,2
400,264,4295,1,2
112,304,5226,6,0,B|136:224,2,65,4|0|4
224,136,7090,2,0,B|320:256,1,130,2|2
336,96,8953,5,4
224,72,9419,1,0
152,152,9885,1,4
284,252,10583,1,4
284,252,11282,6,0,B|344:188,1,65,8|4
364,164,12680,1,2
400,120,13611,1,2
436,80,14543,1,2
256,192,14776,12,4,16406
256,192,16872,6,0,B|256:284,1,65,0|4
156,276,18270,2,0,B|172:340|252:360,1,130,2|2
256,192,20133,6,0,B|256:100,1,65,4|0
256,192,21065,1,4
356,108,21996,2,0,B|340:44|260:24,1,130,2|2
256,192,23860,12,4,26655
256,192,27586,5,2
256,228,28518,1,2
256,192,28984,12,4,31546
256,192,31779,12,8,34341
80,140,34507,6,0,B|216:88,1,130,4|2
300,48,35036,1,2
352,224,35212,1,8
352,224,35565,5,2
244,244,35742,1,2
104,96,35918,1,8
172,308,36271,5,2
272,352,36448,1,2
360,148,36624,1,8
176,56,36937,5,2
176,56,37025,1,8
176,56,37113,1,2
80,232,37330,1,4
80,232,37682,6,0,B|112:300,2,65,2|2|8
404,68,38388,1,2
404,68,38477,1,8
404,68,38565,1,2
308,264,38721,1,8
308,264,39073,6,0,B|240:208,2,65,2|2|8
92,72,39779,1,2
92,72,39868,1,8
92,72,39956,1,2
180,252,40157,1,4
180,252,40509,5,2
272,180,40686,1,2
364,108,40862,1,8
364,108,41215,5,2
364,108,41304,1,8
364,108,41392,1,2
452,288,41568,1,8
452,288,41921,5,2
272,180,42098,1,2
112,72,42274,1,8
112,72,42627,6,0,B|144:64|204:64,1,65,2|2
280,68,42966,1,4
400,312,43318,2,0,B|368:320|308:320,1,65,2|2
232,316,43671,1,8
280,68,44024,6,0,B|308:80|348:80,1,65,2|2
456,84,44377,1,8
232,316,44730,2,0,B|204:304|164:304,1,65,2|2
56,300,45083,1,8
400,192,45436,5,2
400,160,45524,1,8
404,128,45613,2,0,B|412:96|432:56,1,65,2|4
112,192,46142,1,2
112,160,46230,1,8
108,128,46318,2,0,B|100:96|80:56,1,65,2|8
316,212,46848,6,0,B|324:244|352:288,1,65,2|2
364,296,47113,1,2
392,316,47201,1,8
196,212,47554,2,0,B|188:244|160:288,1,65,2|2
148,296,47818,1,2
120,316,47907,1,8
116,60,48260,5,2
136,84,48348,1,8
164,100,48436,1,2
180,128,48524,1,0
176,160,48613,1,4
396,60,48966,5,2
376,84,49054,1,8
348,100,49142,1,2
332,128,49230,1,0
336,160,49318,1,8
68,328,49671,5,2
88,304,49760,1,8
100,272,49848,1,2
108,240,49936,1,0
124,212,50024,1,8
444,328,50377,5,2
424,304,50466,1,8
412,272,50554,1,2
404,240,50642,1,0
388,212,50730,1,8
216,56,51083,6,0,B|228:96,1,32.5,2|8
220,116,51260,1,2
300,196,51436,1,4
420,320,51789,6,0,B|380:296,1,32.5,2|8
360,300,51966,1,2
272,224,52142,1,8
204,348,52495,6,0,B|212:300,1,32.5,2|8
196,284,52671,1,2
252,188,52848,1,8
392,104,53201,6,0,B|360:144,1,32.5,2|8
336,140,53377,1,2
228,228,53554,1,8
180,124,53907,5,2
156,152,53995,1,8
140,184,54083,1,2
140,220,54171,1,0
160,248,54260,1,4
192,264,54348,1,0
228,264,54436,1,0
260,244,54524,1,0
276,212,54613,5,2
276,176,54701,1,8
260,144,54789,1,2
248,176,54877,1,0
248,212,54966,1,8
260,244,55054,1,0
292,264,55142,1,0
328,264,55230,1,0
360,248,55318,5,2
380,220,55407,1,8
380,184,55495,1,2
364,152,55583,1,0
340,124,55681,5,8
180,124,56033,1,2
180,168,56122,1,8
172,208,56210,1,2
156,248,56298,1,0
128,280,56386,1,8
392,280,56739,5,2
364,248,56828,1,8
348,208,56916,1,2
340,168,57004,1,0
340,124,57083,1,4
340,124,57788,6,0,B|268:64|144:76,1,194.999994188547,0|2
128,116,58671,1,0
104,160,58847,1,4
88,204,59024,2,0,B|76:232|76:256,1,48.7499985471368,8|0
80,300,59377,1,0
116,332,59553,1,4
164,340,59730,1,8
212,332,59906,6,0,B|268:324|312:288,1,97.4999970942737
340,268,60435,1,0
380,240,60612,2,0,B|424:212|456:160,1,97.4999970942737
456,124,61141,1,0
444,76,61318,2,0,B|400:56|328:60,1,97.4999970942737,2|4
300,64,61847,5,8
252,72,62024,1,0
208,92,62200,1,0
176,128,62377,1,4
160,172,62553,1,8
380,296,62730,5,0
420,268,62906,1,0
444,224,63083,1,0
452,176,63259,1,0
448,128,63435,2,0,B|412:80|300:64,1,146.24999564141,0|0
408,192,64141,2,0,B|348:116|352:8,1,194.999994188547,2|0
256,120,65200,6,0,B|252:172|220:228,1,97.4999970942737,0|2
204,256,65730,1,0
164,284,65906,1,4
116,292,66083,1,8
276,156,66259,2,0,B|352:188|380:256,1,146.24999564141,0|8
300,236,66965,2,0,B|364:200|444:220,1,146.24999564141,0|8
476,216,67671,1,0
476,216,68377,6,0,B|424:264|332:288,1,146.24999564141,2|0
344,248,69083,2,0,B|280:248|240:216,3,97.4999970942737,0|8|2|4
212,196,70318,1,8
176,164,70494,1,0
148,124,70671,1,0
136,76,70847,5,4
112,120,71024,1,8
104,168,71200,1,0
112,216,71377,1,0
128,260,71553,1,0
164,292,71730,1,0
212,304,71906,2,0,B|260:316|312:316,2,97.4999970942737,0|8|2
208,268,72788,5,0
208,232,72965,2,0,B|196:164,2,48.7499985471368,4|8|0
216,152,73494,1,0
248,132,73671,2,0,B|272:88,2,48.7499985471368,4|8|0
304,68,74200,1,0
344,68,74377,2,0,B|400:88|408:152,1,97.4999970942737
328,144,74906,1,0
328,144,75083,6,0,B|288:252,2,97.4999970942737,8|2|0
264,80,75965,2,0,B|296:152|364:192,1,146.24999564141,0|8
468,208,76847,2,0,B|464:268|408:284,1,97.4999970942737,2|4
336,296,77377,5,8
260,272,77553,1,0
216,208,77730,1,0
216,132,77906,1,4
256,64,78083,1,8
332,80,78259,1,0
368,148,78435,1,0
392,224,78612,6,0,B|428:268,1,48.7499985471368,4|2
460,192,78965,2,0,B|520:168,1,48.7499985471368,4|8
456,116,79318,2,0,B|512:32,1,97.4999970942737,4|4
308,56,80024,5,2
360,144,80200,1,8
192,176,80553,1,2
196,184,80641,1,2
200,192,80730,1,2
204,200,80818,1,2
208,208,80906,1,2
212,216,80994,1,2
216,224,81083,6,0,B|232:260|232:260|236:261|236:261|231:264|231:264|235:265|235:265|234:269|234:269|239:266|239:266|238:270|238:270|237:274|237:274|242:271|242:271|241:274|241:274|240:278|240:278|245:275|245:275|244:279|244:279|272:335,1,130,8|0
384,292,81612,1,0
448,208,81788,1,0
412,112,81965,2,0,B|360:72,1,65,2|8
192,140,82494,1,2
192,140,82847,6,0,B|172:216,1,65,2|8
352,232,83377,2,0,B|372:308,1,65,2|2
372,312,83641,1,2
376,328,83730,1,2
380,344,83818,1,2
384,360,83906,1,8
448,32,84259,5,2
372,104,84435,1,8
168,112,84788,1,2
108,196,84965,1,8
108,196,85318,2,0,B|172:312,1,130,4|2
272,344,85847,1,8
272,344,86200,5,2
312,260,86377,1,2
316,252,86465,1,2
320,244,86553,1,2
324,236,86641,1,2
328,228,86730,2,0,B|360:172|380:84,1,130,8|8
424,112,87259,2,0,B|340:136|240:140,1,162.5,2|8
248,112,87788,5,2
260,104,88141,5,2
272,96,88494,5,2
196,260,88671,1,8
196,260,89024,5,2
368,324,89200,1,8
388,144,89377,1,2
388,144,89465,1,2
388,144,89553,1,2
316,68,89730,1,2
232,164,89906,1,8
160,88,90083,5,2
308,228,90259,1,2
92,304,90435,1,2
160,88,90612,1,8
160,88,90965,6,0,B|120:136|104:184|112:232,1,130,4|2
110,205,91494,1,8
112,208,91847,1,2
116,220,91935,1,2
120,232,92024,1,2
124,244,92112,1,2
128,256,92200,1,2
132,268,92288,1,2
136,280,92377,5,8
408,160,92906,1,8
180,40,93435,1,8
124,152,93788,5,4
292,324,94318,1,8
360,68,94847,1,8
444,176,95200,5,2
168,268,95730,1,8
324,184,96083,1,2
324,184,96259,1,8
324,184,96612,6,0,B|236:208|140:136,1,195,4|8
72,204,97494,2,0,B|72:288,1,65,2|2
80,276,97759,1,2
88,284,97847,1,2
96,292,97935,1,2
104,300,98024,5,8
352,336,98553,1,8
272,76,99083,1,8
156,232,99435,5,4
412,284,99965,1,8
328,32,100494,1,2
336,40,100583,1,2
344,48,100671,1,2
352,56,100759,1,2
360,64,100847,5,8
136,148,101377,1,8
368,72,101730,5,2
136,148,101906,1,8
136,148,102259,2,0,B|280:248,1,130,4|8
408,116,102965,2,0,B|392:296,1,130,2|8
396,264,103230,1,8
396,284,103318,1,8
396,304,103406,1,8
396,324,103494,1,8
48,232,103671,6,0,B|160:304,1,130,4|8
372,320,104377,2,0,B|360:160,1,130,2|8
360,172,104641,1,8
360,152,104730,1,8
360,132,104818,1,8
360,112,104906,1,8
108,228,105083,6,0,B|128:80,1,130,4|0
148,84,105435,1,2
308,52,105612,1,8
292,328,105788,2,0,B|448:280,1,130,2|8
432,268,106053,1,8
448,240,106141,1,8
452,212,106230,1,8
452,180,106318,1,8
112,292,106494,6,0,B|76:152,1,130,4|8
104,136,106847,1,2
244,68,107024,1,8
256,308,107200,2,0,B|364:232,1,130,4|8
380,204,107465,1,8
388,172,107553,1,8
384,140,107641,1,8
396,112,107730,1,8
112,292,107906,6,0,B|80:156|80:164,1,130,4|8
132,88,108259,1,2
216,48,108435,1,8
308,56,108612,1,2
364,128,108788,1,8
380,216,108965,1,2
340,296,109141,1,8
252,324,109318,6,0,B|184:188,1,130,4|8
180,116,109671,1,2
264,76,109847,1,8
356,84,110024,1,2
412,156,110200,1,8
428,244,110377,1,2
388,324,110553,1,8
296,316,110730,6,0,B|256:160,1,130,4|8
232,104,111083,1,2
316,64,111259,1,8
408,72,111435,1,2
464,144,111612,1,8
480,232,111788,1,2
440,312,111965,1,8
348,304,112141,6,0,B|308:148,1,130,4|8
284,68,112494,1,2
212,184,112671,1,8
364,240,112847,1,2
132,308,113024,1,8
360,344,113200,1,2
368,344,113288,1,2
376,344,113377,1,2
384,344,113465,1,2
392,344,113561,5,4
396,188,113913,1,0
452,40,114266,1,4
296,60,114619,1,0
152,40,114972,1,4
200,180,115325,2,0,B|205:191|205:191|216:191|216:191|216:202|216:202|228:202|228:202|228:213|228:213|239:213|239:213|242:228|242:228|253:233|253:233|265:245,2,97.4999970942737,0|4|0
388,188,116384,5,4
284,72,116737,2,0,B|136:84,1,146.24999564141
184,148,117443,2,0,B|132:236,1,97.4999970942737,4|0
272,328,118149,2,0,B|328:184,1,146.24999564141,4|0
232,68,118855,5,0
92,140,119031,1,0
176,272,119208,1,4
176,272,119296,1,8
176,272,119384,1,8
176,272,119913,6,0,B|236:240|308:172,1,146.24999564141,2|0
248,196,120619,2,0,B|320:224|412:200,1,146.24999564141,2|0
376,248,121325,2,0,B|436:200|500:172,1,146.24999564141,2|0
496,132,122031,1,8
140,324,122737,6,0,B|108:172,1,146.24999564141,2|0
356,256,123443,2,0,B|412:120,1,146.24999564141,2|0
208,188,124149,2,0,B|184:84,1,97.4999970942737,2|8
164,72,124678,1,8
164,72,124855,2,0,B|256:56|320:64,1,146.24999564141,8|0
284,20,125561,6,0,B|252:120|312:216,1,194.999994188547,2|0
292,296,126443,1,0
208,272,126619,1,4
160,344,126796,1,0
96,284,126972,2,0,B|150:196|118:96,1,194.999994188547,2|0
148,16,127855,1,0
216,72,128031,1,4
268,0,128208,1,0
336,52,128384,6,0,B|456:168,1,146.24999564141,2|2
464,184,129090,1,2
468,224,129266,1,2
456,260,129443,1,4
428,284,129619,1,2
388,288,129796,5,8
368,284,129884,1,2
348,276,129972,1,8
328,268,130061,1,2
308,256,130149,1,8
292,244,130237,1,2
276,232,130325,1,8
260,216,130413,1,2
248,200,130502,1,4
146,89,130855,5,2
365,89,131031,1,8
98,219,131188,1,2
413,219,131364,1,8
256,100,131737,5,8
256,124,131825,1,8
256,148,131913,1,2
256,328,132090,1,8
144,168,132443,5,8
368,168,132619,1,2
256,328,132796,1,8
256,32,133149,5,2
256,52,133237,1,2
256,72,133335,2,0,B|256:96|256:96|260:100|260:100|264:104|264:104|260:108|260:108|256:112|256:112|252:108|252:108|248:104|248:104|252:100|252:100|256:104|256:104|252:128|252:128|264:144|264:144|252:160|252:160|264:172|264:172|252:188|252:188|256:216|256:216|260:220|260:220|264:224|264:224|260:228|260:228|256:232|256:232|252:228|252:228|248:224|248:224|252:220|252:220|256:224|256:224|252:248|252:248|264:264|264:264|252:280|252:280|264:296|264:296|256:312|256:312|264:332|264:332|256:360,1,390,4|8
257,353,134737,5,2
256,196,135442,5,8
256,196,135972,5,2
256,204,136060,1,2
256,212,136148,1,4
104,136,136854,5,2
408,136,137031,1,8
256,92,137384,5,8
256,116,137472,1,2
256,140,137560,1,2
256,296,137737,1,8
256,296,138089,5,8
136,136,138266,1,2
376,136,138442,1,8
56,324,138795,5,8
44,216,138972,1,4
44,192,139060,1,2
48,168,139148,1,2
56,148,139237,1,2
68,128,139325,1,12
80,108,139413,1,2
88,88,139501,1,2
92,64,139589,1,2
168,160,139678,5,12
168,136,139766,1,2
172,112,139854,1,2
180,92,139942,1,2
192,72,140031,1,12
204,52,140119,1,2
212,32,140207,1,2
216,8,140295,1,2
300,92,140384,5,12
296,116,140472,1,2
288,136,140560,1,2
276,156,140648,1,2
264,176,140737,1,12
256,196,140825,1,2
252,220,140913,1,2
252,244,141001,1,2
380,164,141089,5,12
376,188,141178,1,2
368,208,141266,1,2
356,228,141354,1,2
344,248,141442,1,12
336,268,141531,1,2
332,292,141619,1,2
332,316,141707,1,2
380,116,141805,6,0,B|484:180|504:272,1,195,4|8
424,320,142510,1,2
276,200,142687,1,8
460,132,142863,1,8
312,336,143040,2,0,B|224:312,1,65,8|2
184,224,143393,5,8
272,100,143569,1,8
400,196,143746,1,2
312,336,143922,1,4
184,224,144099,1,8
208,60,144275,1,4
376,84,144452,1,2
348,248,144628,6,0,B|292:312|292:312|260:368|200:356,1,195,4|8
300,76,145318,1,2
220,284,145495,1,8
80,192,145671,1,8
396,208,145848,2,0,B|360:140,1,65,8|2
344,300,146200,1,8
192,140,146376,1,8
92,276,146553,1,8
144,80,146729,6,0,B|156:60,1,16.25,6|2
160,112,146818,2,0,B|188:112,1,16.25,2|2
148,148,146906,2,0,B|156:168,1,16.25,2|2
112,160,146994,2,0,B|112:176,1,16.25,2|2
84,192,147082,2,0,B|64:184,1,16.25,6|2
52,212,147171,2,0,B|52:240,1,16.25,2|2
32,260,147259,2,0,B|20:280,1,16.25,2|2
36,304,147347,2,0,B|40:324,1,16.25,2|2
72,344,147435,6,0,B|272:320,1,195,4|8
246,63,148141,5,2
265,320,148318,1,8
168,108,148494,5,8
344,276,148671,1,8
136,192,148847,5,2
376,192,149024,1,8
144,284,149200,5,8
368,100,149376,1,8
216,340,149553,5,2
296,44,149729,1,8
296,280,149906,5,8
216,104,150082,1,8
260,200,150259,5,4
260,204,150346,1,0
260,208,150433,1,0
260,212,150521,1,0
260,216,150608,1,0
260,220,150696,1,0
260,224,150783,5,2
80,124,150958,1,2
116,68,151133,1,2
188,28,151308,1,2
284,20,151483,1,2
380,80,151658,1,2
416,204,151833,1,2
368,340,152008,1,2
152,220,152183,5,2
240,288,152358,1,2
324,244,152533,1,2
312,148,152707,1,2
240,112,152882,2,0,B|224:116|224:116|212:112|212:112|200:116|200:116|188:112|188:112|176:116|176:116|164:112|164:112|144:108,1,97.5,2|4
256,192,153174,12,4,154282
