osu file format v9

[General]
AudioFilename: 36 - Apocalypse dirge of swans.mp3
AudioLeadIn: 1496
PreviewTime: 52470
Countdown: 0
SampleSet: Normal
StackLeniency: 0.7
Mode: 0
LetterboxInBreaks: 1

[Editor]
DistanceSpacing: 0.8
BeatDivisor: 4
GridSize: 4

[Metadata]
Title:Apocalypse ~dirge of swans~
Artist:Zektbach
Creator:IceBeam
Version:Hyper
Source:beatmania IIDX
Tags:reiji-rj reiji vass_bass vass jun wakita wac yuu tokiwa

[Difficulty]
HPDrainRate:5
CircleSize:4
OverallDifficulty:6
ApproachRate:8
SliderMultiplier:1.4
SliderTickRate:2

[Events]
//Background and Video events
0,0,"umqtd.jpg"
//Break Periods
2,62640,67337
2,85228,95573
//Storyboard Layer 0 (Background)
//Storyboard Layer 1 (Fail)
//Storyboard Layer 2 (Pass)
//Storyboard Layer 3 (Foreground)
//Storyboard Sound Samples
//Background Colour Transformations
3,100,163,162,255

[TimingPoints]
323,352.941176470588,4,2,0,30,1,0
323,-200,4,2,0,30,0,0
5881,-117.647058823529,4,1,0,50,0,0
7381,-117.647058823529,4,1,0,40,0,0
8793,-117.647058823529,4,1,0,30,0,0
10205,-117.647058823529,4,1,0,20,0,0
11264,-117.647058823529,4,1,0,50,0,0
11793,-117.647058823529,4,2,0,60,0,0
12852,-117.647058823529,4,1,0,60,0,0
13205,-117.647058823529,4,2,0,60,0,0
13470,-117.647058823529,4,1,0,60,0,0
13734,-117.647058823529,4,2,0,60,0,0
14264,-117.647058823529,4,1,0,60,0,0
14528,-117.647058823529,4,2,0,60,0,0
15764,-117.647058823529,4,1,0,60,0,0
15940,-117.647058823529,4,2,0,60,0,0
16293,-117.647058823529,4,1,0,60,0,0
16470,-117.647058823529,4,2,0,60,0,0
17175,-117.647058823529,4,1,0,60,0,0
17352,-117.647058823529,4,2,0,60,0,0
18587,-117.647058823529,4,1,0,60,0,0
18764,-117.647058823529,4,2,0,60,0,0
19117,-117.647058823529,4,1,0,60,0,0
19293,-117.647058823529,4,2,0,60,0,0
19999,-117.647058823529,4,1,0,60,0,0
20175,-117.647058823529,4,2,0,60,0,0
21411,-117.647058823529,4,1,0,60,0,0
21587,-117.647058823529,4,2,0,60,0,0
21940,-117.647058823529,4,1,0,60,0,0
22117,-117.647058823529,4,2,0,60,0,0
22822,-117.647058823529,4,1,0,60,0,0
22999,-117.647058823529,4,2,0,60,0,0
23264,-117.647058823529,4,1,0,60,0,0
23352,-117.647058823529,4,2,0,60,0,0
23528,-117.647058823529,4,1,0,60,0,0
23705,-117.647058823529,4,2,0,60,0,0
24234,-117.647058823529,4,1,0,60,0,0
24411,-117.647058823529,4,2,0,60,0,0
24764,-117.647058823529,4,1,0,60,0,0
24940,-117.647058823529,4,2,0,60,0,0
25646,-117.647058823529,4,1,0,60,0,0
25822,-117.647058823529,4,2,0,60,0,0
25999,-117.647058823529,4,1,0,60,0,0
26617,-117.647058823529,4,2,0,60,0,0
27058,-117.647058823529,4,1,0,60,0,0
27234,-117.647058823529,4,2,0,60,0,0
27587,-117.647058823529,4,1,0,60,0,0
27764,-117.647058823529,4,2,0,60,0,0
28470,-117.647058823529,4,1,0,60,0,0
28646,-117.647058823529,4,2,0,60,0,0
28911,-117.647058823529,4,1,0,60,0,0
28999,-117.647058823529,4,2,0,60,0,0
29175,-117.647058823529,4,1,0,60,0,0
29352,-117.647058823529,4,2,0,60,0,0
29881,-117.647058823529,4,1,0,60,0,0
30058,-117.647058823529,4,2,0,60,0,0
30411,-117.647058823529,4,1,0,60,0,0
30587,-117.647058823529,4,2,0,60,0,0
31205,-117.647058823529,4,1,0,60,0,0
34205,-90.9090909090909,4,1,1,50,0,1
34293,-90.9090909090909,4,1,1,50,0,0
56793,-90.9090909090909,4,1,0,50,0,1
62352,-90.9090909090909,4,1,0,50,0,0
62440,-90.9090909090909,4,1,0,50,0,1
62528,-90.9090909090909,4,1,0,50,0,0
73852,-90.9090909090909,4,2,0,50,0,0
76440,-90.9090909090909,4,1,0,50,0,0
76734,-90.9090909090909,4,2,0,50,0,0
79293,-90.9090909090909,4,1,0,50,0,0
79470,-90.9090909090909,4,2,0,50,0,0
82117,-90.9090909090909,4,1,0,50,0,0
82293,-90.9090909090909,4,2,0,50,0,0
85028,-90.9090909090909,4,1,0,50,0,1
85117,-90.9090909090909,4,2,0,50,0,0
96322,-90.9090909090909,4,1,1,50,0,1
96411,-90.9090909090909,4,1,1,50,0,0
116087,-90.9090909090909,4,1,1,50,0,1
116175,-90.9090909090909,4,1,1,50,0,0

[Colours]
Combo1 : 97,17,3
Combo2 : 0,108,217
Combo3 : 200,166,240
Combo4 : 240,224,77
Combo5 : 252,219,163
Combo6 : 228,24,7

[HitObjects]
80,56,323,1,0
196,64,1028,1,2
312,72,1734,1,0
428,80,2440,1,2
432,328,3146,5,0
316,320,3852,1,2
200,312,4558,1,0
84,304,5264,1,2
256,192,5970,69,4
256,192,6058,12,4,11617
124,256,11970,5,2
128,260,12675,2,0,B|188:248|260:256,1,119.000002269745,2|0
356,284,13381,1,2
356,284,13558,2,0,B|404:196|340:96,1,178.500003404617,0|2
240,68,14440,70,0,B|180:72|104:76,1,119.000002269745,0|2
128,184,15146,1,0
128,184,15322,1,0
128,184,15499,2,0,B|188:180|264:176,1,119.000002269745,2|0
356,144,16205,1,2
356,144,16381,2,0,B|336:232|384:220|360:332,1,178.500003404617,0|2
256,348,17264,5,0
160,308,17617,1,2
164,312,18322,2,0,B|144:252|164:180,1,119.000002269745,2|0
124,104,19028,1,2
124,104,19205,2,0,B|224:100|316:100,1,178.500003404617,0|2
408,76,20087,69,0
448,168,20440,1,2
448,168,20617,1,0
448,168,20793,2,0,B|472:228|440:288,1,119.000002269745,0|2
344,340,21499,2,0,B|320:280|352:220,1,119.000002269745,0|2
356,228,22028,2,0,B|272:280|168:220,1,178.500003404617,0|2
112,152,22911,6,0,B|104:80,2,59.5000011348725,4|0|0
84,248,23617,1,8
88,252,24322,2,0,B|148:228|220:256,1,119.000002269745
212,264,24852,2,0,B|228:80,1,178.500003404617
332,100,25734,70,0,B|396:84,2,59.5000011348725
308,192,26440,1,8
312,196,27146,2,0,B|328:256|304:320,1,119.000002269745
316,324,27675,2,0,B|124:316,1,178.500003404617
72,236,28558,6,0,B|60:160,2,59.5000011348725
172,224,29264,1,8
176,228,29970,2,0,B|238:203|306:229,1,119.000002269745
300,236,30499,2,0,B|316:56,1,178.500003404617
404,104,31381,70,0,B|452:100,15,29.7500005674362,4|0|0|0|0|0|0|0|0|0|0|0|0|0|0|0
452,108,32793,6,0,B|456:64|456:-4,2,89.2500017023087
412,196,33499,1,0
416,212,33587,1,0
420,228,33675,1,0
416,324,33852,2,0,B|376:336,3,29.7500005674362
376,336,34205,6,0,B|336:324|288:332,1,77.0000023498536,4|0
216,344,34558,1,8
132,312,34734,2,0,B|96:240|140:148,1,154.000004699707
112,80,35264,2,0,B|64:76|28:88,1,77.0000023498536,8|0
196,100,35617,2,0,B|244:104|280:92,1,77.0000023498536
352,56,35970,1,8
416,120,36146,2,0,B|428:200|388:192|416:300,1,154.000004699707
344,332,36675,1,8
256,304,36852,1,0
244,312,36940,1,0
236,320,37028,6,0,B|152:284|52:336,1,154.000004699707,0|8
56,228,37558,2,0,B|12:148|64:52,1,154.000004699707
160,80,38087,2,0,B|248:88,1,77.0000023498536
340,64,38440,1,0
388,324,38793,1,8
388,324,38970,2,0,B|308:316|204:320,1,154.000004699707
136,320,39499,2,0,B|124:276|124:228,1,77.0000023498536,8|0
48,200,39852,70,0,B|140:240|212:168|212:168,1,154.000004699707,0|8
178,96,40381,2,0,B|256:76|252:112|336:88,1,154.000004699707
424,96,40911,2,0,B|416:56|428:0,1,77.0000023498536,8|0
456,176,41264,2,0,B|468:256|448:348,1,154.000004699707,0|8
352,308,41793,2,0,B|276:308|172:312,1,154.000004699707
108,316,42323,1,8
120,44,42675,6,0,B|84:124|140:212,1,154.000004699707,0|8
200,240,43205,1,0
264,184,43381,2,0,B|300:104|244:16,1,154.000004699707,0|8
452,156,44087,1,0
308,328,44440,1,8
308,328,44617,2,0,B|232:328|144:328,1,154.000004699707
72,280,45146,1,8
132,216,45323,1,0
144,228,45411,1,0
152,236,45499,70,0,B|228:236|316:236,1,154.000004699707,0|8
396,236,46028,1,0
400,24,46381,1,0
308,64,46558,2,0,B|268:60|220:60,1,77.0000023498536,8|0
144,88,46911,2,0,B|104:176|168:264,1,154.000004699707,0|8
88,292,47440,2,0,B|156:240|252:284,1,154.000004699707
336,256,47970,2,0,B|336:304|348:348,1,77.0000023498536,8|0
416,208,48323,6,0,B|420:132|392:24,1,154.000004699707,0|8
312,32,48852,1,0
228,72,49028,2,0,B|224:148|252:256,1,154.000004699707,0|8
176,284,49558,1,0
96,236,49734,2,0,B|100:160|72:52,1,154.000004699707,0|8
148,16,50264,1,0
324,140,50617,1,0
324,140,50793,1,8
176,284,51146,70,0,B|252:248|344:284,1,154.000004699707,0|8
420,256,51675,2,0,B|456:176|408:96,1,154.000004699707
324,140,52205,2,0,B|224:128,1,77.0000023498536,8|0
204,48,52558,1,0
64,176,52911,1,8
64,176,53087,2,0,B|52:256|84:248|72:352,1,154.000004699707
176,284,53617,2,0,B|224:276|260:280,1,77.0000023498536,8|0
352,316,53970,6,0,B|364:276,7,38.5000011749268,4|0|0|0|8|0|0|0
360,244,54675,70,0,B|344:180,7,38.5000011749268,4|0|0|0|8|0|0|0
336,172,55381,6,0,B|356:108,15,38.5000011749268,4|0|0|0|8|0|0|0|0|0|0|0|8|0|0|0
344,104,56793,5,4
260,64,56970,1,4
44,176,57499,5,4
68,260,57675,1,4
256,328,58205,69,4
268,244,58381,1,4
344,104,58911,5,4
432,88,59087,1,4
268,244,59617,69,4
196,188,59793,1,4
64,44,60323,5,4
52,128,60499,1,4
256,332,61028,69,4
268,244,61205,1,4
420,44,61734,5,4
436,128,61911,1,4
256,332,62440,69,4
424,112,68087,5,4
100,72,69323,2,0,B|52:84,2,38.5000011749268,2|0|4
192,108,69852,1,6
88,272,70911,69,4
412,312,72146,2,0,B|460:300,2,38.5000011749268,2|0|4
320,276,72675,1,6
340,184,73028,2,0,B|328:132,5,51.3333348999024,2|2|0|0|2|0
344,88,73734,5,6
344,88,74087,1,0
264,48,74264,1,0
200,104,74440,2,0,B|124:52|44:116,1,154.000004699707,2|0
128,160,74970,1,0
60,216,75146,2,0,B|136:268|216:204,1,154.000004699707,2|0
272,164,75675,1,0
348,196,75852,2,0,B|396:276|336:372,1,154.000004699707,2|0
264,324,76381,1,0
268,328,76558,70,0,B|188:328|88:332,1,154.000004699707,6|0
44,280,77087,1,0
108,228,77264,2,0,B|188:228|288:224,1,154.000004699707,2|0
352,256,77793,1,0
356,260,77970,2,0,B|348:184|380:188|368:84,1,154.000004699707,2|0
432,40,78499,1,0
436,44,78675,2,0,B|372:96|268:52,1,154.000004699707,2|0
200,32,79205,1,0
152,108,79381,6,0,B|112:192|176:284,1,154.000004699707,6|0
196,336,79911,1,0
272,292,80087,2,0,B|376:288|444:288,1,154.000004699707,2|0
484,224,80617,1,0
424,160,80793,2,0,B|320:164|252:164,1,154.000004699707,2|0
216,92,81323,1,0
220,96,81499,2,0,B|272:184|204:268,1,154.000004699707,2|0
156,296,82028,1,0
80,244,82205,70,0,B|28:156|96:72,1,154.000004699707,6|0
144,40,82734,1,0
216,92,82911,2,0,B|294:74|290:110|387:82,1,154.000004699707,2|0
452,132,83440,1,0
456,136,83617,2,0,B|440:304,1,154.000004699707,2|0
364,332,84146,1,0
280,296,84323,2,0,B|204:264|128:304,1,154.000004699707,2|0
52,256,84852,1,0
76,172,85028,5,4
48,84,96323,53,4
88,304,96675,1,8
88,304,96852,2,0,B|164:272|260:304,1,154.000004699707
332,264,97381,2,0,B|340:304|332:344,1,77.0000023498536,8|0
260,212,97734,2,0,B|244:136|260:60,1,154.000004699707,0|8
332,28,98264,1,0
332,28,98440,2,0,B|256:32|152:36,1,154.000004699707,0|8
52,224,99146,69,0
256,324,99499,1,8
256,324,99675,2,0,B|336:304|328:344|428:316,1,154.000004699707
448,244,100205,2,0,B|444:196|436:164,1,77.0000023498536,8|0
460,84,100558,1,0
240,44,100911,1,8
240,44,101087,2,0,B|160:12|80:52,1,154.000004699707
44,128,101617,2,0,B|52:180|52:236,1,77.0000023498536,8|0
40,292,101970,53,0
264,344,102323,1,8
332,284,102499,1,0
424,292,102675,2,0,B|456:216|408:124,1,154.000004699707,0|8
476,76,103205,1,0
476,76,103381,2,0,B|424:136|324:108,1,154.000004699707,0|8
264,40,103911,2,0,B|208:128|292:208,1,154.000004699707
352,232,104440,2,0,B|348:276|344:316,1,77.0000023498536,8|0
248,332,104793,6,0,B|176:356|96:332,1,154.000004699707,0|8
48,252,105323,2,0,B|68:180|36:100,1,154.000004699707
120,56,105852,2,0,B|164:52|208:48,1,77.0000023498536,8|0
140,148,106205,2,0,B|216:140|300:132,1,154.000004699707,0|8
372,176,106734,1,0
304,232,106911,2,0,B|244:236|160:244,1,115.50000352478,0|8
184,256,107264,2,0,B|192:296|184:344,1,77.0000023498536,8|0
104,208,107617,22,0,B|84:132|104:48,1,154.000004699707,4|8
200,88,108146,2,0,B|272:80|376:80,1,154.000004699707
448,60,108675,1,8
448,60,108852,1,0
448,152,109028,70,0,B|476:228|444:320,1,154.000004699707,4|8
377,350,109558,1,8
304,300,109734,2,0,B|276:224|308:132,1,154.000004699707,0|8
40,72,110440,54,0,B|80:60|124:68,1,77.0000023498536,4|0
168,144,110793,2,0,B|128:156|84:148,1,77.0000023498536,8|0
232,88,111146,2,0,B|272:148|220:228,1,115.50000352478
248,228,111499,2,0,B|324:220|340:220,1,77.0000023498536,8|0
264,316,111852,6,0,B|188:324|172:324,1,77.0000023498536,4|0
96,332,112205,2,0,B|72:260|88:160,2,154.000004699707,8|0|8
216,80,113264,22,0,B|176:72|128:84,1,77.0000023498536,4|0
300,108,113617,2,0,B|340:116|388:104,1,77.0000023498536,8|0
460,156,113970,2,0,B|488:236|452:316,1,154.000004699707,0|8
372,300,114499,1,0
288,292,114675,69,4
256,192,114764,12,4,116087
