osu file format v9

[General]
AudioFilename: 36 - Apocalypse dirge of swans.mp3
AudioLeadIn: 1496
PreviewTime: 52470
Countdown: 0
SampleSet: Soft
StackLeniency: 0.7
Mode: 0
LetterboxInBreaks: 1

[Editor]
DistanceSpacing: 0.8
BeatDivisor: 4
GridSize: 4

[Metadata]
Title:Apocalypse ~dirge of swans~
Artist:Zektbach
Creator:IceBeam
Version:Another
Source:beatmania IIDX
Tags:reiji-rj reiji vass_bass vass jun wakita wac yuu tokiwa

[Difficulty]
HPDrainRate:7
CircleSize:4
OverallDifficulty:7
ApproachRate:8
SliderMultiplier:1.6
SliderTickRate:2

[Events]
//Background and Video events
0,0,"umqtd.jpg"
//Break Periods
2,62640,67337
2,85228,95573
//Storyboard Layer 0 (Background)
//Storyboard Layer 1 (Fail)
//Storyboard Layer 2 (Pass)
//Storyboard Layer 3 (Foreground)
//Storyboard Sound Samples
//Background Colour Transformations
3,100,163,162,255

[TimingPoints]
323,352.941176470588,4,2,0,30,1,0
323,-200,4,2,0,30,0,0
5881,-117.647058823529,4,1,0,50,0,0
7381,-117.647058823529,4,1,0,40,0,0
8793,-117.647058823529,4,1,0,30,0,0
10205,-117.647058823529,4,1,0,20,0,0
11264,-117.647058823529,4,1,0,50,0,0
11793,-117.647058823529,4,2,0,60,0,0
12852,-117.647058823529,4,1,0,60,0,0
13205,-117.647058823529,4,2,0,60,0,0
13470,-117.647058823529,4,1,0,60,0,0
13734,-117.647058823529,4,2,0,60,0,0
14264,-117.647058823529,4,1,0,60,0,0
14528,-117.647058823529,4,2,0,60,0,0
15764,-117.647058823529,4,1,0,60,0,0
15940,-117.647058823529,4,2,0,60,0,0
16293,-117.647058823529,4,1,0,60,0,0
16470,-117.647058823529,4,2,0,60,0,0
17175,-117.647058823529,4,1,0,60,0,0
17352,-117.647058823529,4,2,0,60,0,0
18587,-117.647058823529,4,1,0,60,0,0
18764,-117.647058823529,4,2,0,60,0,0
19117,-117.647058823529,4,1,0,60,0,0
19293,-117.647058823529,4,2,0,60,0,0
19999,-117.647058823529,4,1,0,60,0,0
20175,-117.647058823529,4,2,0,60,0,0
21411,-117.647058823529,4,1,0,60,0,0
21587,-117.647058823529,4,2,0,60,0,0
21940,-117.647058823529,4,1,0,60,0,0
22117,-117.647058823529,4,2,0,60,0,0
22822,-117.647058823529,4,1,0,60,0,0
22999,-117.647058823529,4,2,0,60,0,0
23264,-117.647058823529,4,1,0,60,0,0
23352,-117.647058823529,4,2,0,60,0,0
23528,-117.647058823529,4,1,0,60,0,0
23705,-117.647058823529,4,2,0,60,0,0
24234,-117.647058823529,4,1,0,60,0,0
24411,-117.647058823529,4,2,0,60,0,0
24764,-117.647058823529,4,1,0,60,0,0
24940,-117.647058823529,4,2,0,60,0,0
25646,-117.647058823529,4,1,0,60,0,0
25822,-117.647058823529,4,2,0,60,0,0
25999,-117.647058823529,4,1,0,60,0,0
26617,-117.647058823529,4,2,0,60,0,0
27058,-117.647058823529,4,1,0,60,0,0
27234,-117.647058823529,4,2,0,60,0,0
27587,-117.647058823529,4,1,0,60,0,0
27764,-117.647058823529,4,2,0,60,0,0
28470,-117.647058823529,4,1,0,60,0,0
28646,-117.647058823529,4,2,0,60,0,0
28911,-117.647058823529,4,1,0,60,0,0
28999,-117.647058823529,4,2,0,60,0,0
29175,-117.647058823529,4,1,0,60,0,0
29352,-117.647058823529,4,2,0,60,0,0
29881,-117.647058823529,4,1,0,60,0,0
30058,-117.647058823529,4,2,0,60,0,0
30411,-117.647058823529,4,1,0,60,0,0
30587,-117.647058823529,4,2,0,60,0,0
31205,-117.647058823529,4,1,0,60,0,0
34205,-100,4,1,1,50,0,1
34293,-100,4,1,1,50,0,0
56793,-100,4,1,0,50,0,1
62352,-100,4,1,0,50,0,0
62440,-100,4,1,0,50,0,1
62528,-100,4,1,0,50,0,0
73852,-100,4,2,0,50,0,0
76440,-100,4,1,0,50,0,0
76734,-100,4,2,0,50,0,0
79293,-100,4,1,0,50,0,0
79470,-100,4,2,0,50,0,0
82117,-100,4,1,0,50,0,0
82293,-100,4,2,0,50,0,0
85028,-100,4,1,0,50,0,1
85117,-100,4,2,0,50,0,0
96322,-100,4,1,1,50,0,1
96411,-100,4,1,1,50,0,0
116087,-100,4,1,1,50,0,1
116175,-100,4,1,1,50,0,0

[Colours]
Combo1 : 97,17,3
Combo2 : 0,108,217
Combo3 : 200,166,240
Combo4 : 240,224,77
Combo5 : 252,219,163
Combo6 : 228,24,7

[HitObjects]
76,204,323,1,0
136,68,1028,1,2
224,184,1734,1,0
292,244,2087,1,0
372,204,2440,1,2
264,100,3146,5,0
292,244,3852,1,2
352,116,4558,1,0
372,204,4911,1,0
292,244,5264,1,2
296,248,5970,69,4
256,192,6058,12,4,11617
128,52,11970,5,2
132,56,12675,1,2
56,168,13028,2,0,B|88:236|56:312,1,135.999994325638,0|2
64,304,13558,2,0,B|120:272|196:296,1,135.999994325638,0|2
448,316,14440,70,0,B|392:348|316:324,1,135.999994325638,0|2
307,181,15146,2,0,B|315:141|307:105,1,67.999997162819
308,32,15499,1,2
312,36,15852,2,0,B|244:32|172:32,1,135.999994325638,0|2
173,109,16381,2,0,B|245:109|321:113,1,135.999994325638,0|0
404,120,16911,1,2
404,120,17087,1,0
404,120,17264,5,0
348,264,17617,1,2
352,268,18322,2,0,B|276:256|204:264,1,135.999994325638,2|0
68,308,19028,1,2
68,308,19205,2,0,B|48:280|48:248|48:248|72:228|112:232|128:192|122:144,1,204.000003890991,0|2
260,60,20087,70,0,B|288:44|324:44|356:52|376:72|384:92,1,135.999994325638,0|2
308,128,20617,1,0
312,132,20793,2,0,B|304:180|312:200|320:220|308:292,1,135.999994325638,0|2
244,308,21322,1,0
248,312,21499,2,0,B|316:280|384:320,1,135.999994325638,0|2
252,316,22028,2,0,B|184:348|116:308,1,135.999994325638
48,252,22558,2,0,B|40:216|40:176,1,67.999997162819,2|0
152,88,22911,5,4
212,152,23087,1,0
212,152,23175,1,0
212,152,23264,2,0,B|220:188|220:228,1,67.999997162819
168,280,23617,2,0,B|224:240|312:272,1,135.999994325638,8|2
368,308,24146,1,0
432,260,24322,2,0,B|464:196|428:112,1,135.999994325638,0|2
400,56,24852,1,0
404,60,25381,1,2
228,56,25734,70,0,B|184:60|140:64,1,67.999997162819
144,144,26087,2,0,B|216:136|284:132,1,135.999994325638,0|8
284,328,26793,2,0,B|328:324|372:320,1,67.999997162819,2|0
368,240,27146,2,0,B|296:248|228:252,1,135.999994325638,0|2
152,264,27675,1,0
156,268,28205,1,2
240,160,28558,5,0
168,108,28734,1,0
168,108,28822,1,0
168,108,28911,2,0,B|156:76|164:32,1,67.999997162819
240,160,29264,2,0,B|220:184|184:200|132:196|100:172,1,135.999994325638,8|2
60,112,29793,1,0
60,112,29970,2,0,B|64:180|72:256,1,135.999994325638,0|2
80,324,30499,1,0
84,328,31028,1,2
256,336,31381,69,4
180,240,31558,2,0,B|144:232,2,33.9999985814095
336,196,31911,2,0,B|376:184,2,33.9999985814095
140,116,32264,2,0,B|100:108,2,33.9999985814095
256,68,32617,1,0
336,196,32793,5,4
336,196,32881,1,0
336,196,32970,1,0
336,196,33058,1,0
336,196,33146,1,0
336,196,33234,1,0
336,196,33322,1,0
336,196,33411,1,0
344,220,33499,70,0,B|372:224,6,16.9999992907048
340,240,33852,2,0,B|316:244,6,16.9999992907048
344,260,34205,21,4
212,308,34470,1,0
212,308,34558,2,0,B|160:312|124:316,1,80,8|0
64,240,34911,2,0,B|40:180|56:112,1,120
76,128,35264,2,0,B|128:124|164:120,1,80,8|0
252,116,35617,1,0
404,116,35881,1,0
404,116,35970,2,0,B|408:160|400:200,1,80,8|0
424,280,36323,1,0
424,280,36411,1,0
340,324,36587,1,0
340,324,36675,2,0,B|296:320|256:328,1,80,8|0
76,296,37028,5,0
120,220,37205,1,0
128,224,37293,1,0
136,228,37381,1,8
228,232,37558,2,0,B|252:176|224:84,1,120
248,116,37911,2,0,B|296:112|332:112,1,80,0|8
416,160,38264,1,0
416,160,38352,1,0
416,160,38440,2,0,B|412:224|408:312,1,120
412,288,38793,1,8
324,320,38970,2,0,B|280:296|232:296|176:328|172:372,1,160
104,276,39499,2,0,B|92:236|100:192,1,80,8|0
44,116,39852,70,0,B|104:92|160:120,1,120
164,128,40205,1,8
220,64,40381,2,0,B|252:88|260:144|240:200|184:212,1,160
196,288,40911,1,8
288,312,41087,1,0
288,312,41175,1,0
288,312,41264,2,0,B|348:292|408:304,1,120
408,312,41617,1,8
448,224,41793,2,0,B|480:148|440:48,1,160
340,80,42323,2,0,B|296:76|256:76,1,80,8|0
156,44,42675,5,0
100,120,42852,1,0
104,128,42940,1,0
108,136,43028,1,8
172,208,43205,2,0,B|200:268|168:332,1,120
180,336,43558,2,0,B|216:320|268:328,1,80,0|8
356,344,43911,1,0
412,268,44087,2,0,B|384:208|416:144,1,120
420,156,44440,1,8
462,72,44617,2,0,B|418:56|370:64|330:96|322:140,1,160
296,284,45146,2,0,B|305:242|288:199,1,80,8|0
236,132,45499,70,0,B|168:104|92:156,1,120,0|0
116,152,45852,2,0,B|120:204|128:236,1,80,8|0
311,196,46205,2,0,B|343:140|311:60,1,120
332,80,46558,2,0,B|376:72|412:72,1,80,8|0
360,274,46911,2,0,B|293:296|246:258,1,120
236,272,47264,2,0,B|248:320|232:360,1,80,8|0
144,312,47617,1,0
152,216,47793,1,0
152,216,47881,1,0
152,216,47970,2,0,B|140:168|156:128,1,80,8|0
92,60,48323,5,0
192,56,48499,1,0
192,56,48587,1,0
192,56,48675,2,0,B|240:52|272:52,1,80,8|0
360,36,49028,1,0
360,36,49117,1,0
412,108,49293,1,0
412,108,49381,2,0,B|420:152|408:196,1,80,8|0
464,256,49734,2,0,B|400:288|336:244,1,120
344,260,50087,1,8
295,185,50264,2,0,B|259:209|247:249|247:305|307:353,1,160
180,332,50793,2,0,B|124:336|92:340,1,80,8|0
44,252,51146,69,0
116,188,51323,1,0
124,192,51411,1,0
132,196,51499,1,8
232,216,51675,2,0,B|252:160|224:96,1,120
236,100,52028,1,0
323,97,52205,2,0,B|367:81|411:97,1,80,8|0
480,48,52558,2,0,B|504:116|460:168,1,120
468,176,52911,1,8
388,224,53087,2,0,B|337:204|311:220|285:236|213:212,1,160
132,188,53617,2,0,B|132:232|140:268,1,80,8|0
222,323,53970,6,0,B|264:337,3,40,4|0|0|0
290,340,54323,2,0,B|329:333,3,40,8|0|0|0
366,338,54675,70,0,B|374:289,3,40,4|0|0|0
374,265,55028,2,0,B|364:222,3,40,8|0|0|0
360,196,55381,5,0
348,196,55470,1,0
336,196,55558,1,0
324,196,55646,1,0
312,196,55734,1,8
300,196,55823,1,0
288,196,55911,1,0
276,196,55999,1,0
264,196,56087,1,0
252,196,56175,1,0
240,196,56264,1,0
228,196,56352,1,0
216,196,56440,1,8
204,196,56528,1,0
192,196,56617,1,0
180,196,56705,1,0
168,196,56793,5,4
212,92,56970,1,4
212,92,57499,5,4
248,292,57675,1,4
248,292,58205,69,4
336,40,58381,1,4
336,40,58911,5,4
440,320,59087,1,4
440,320,59617,69,4
76,264,59793,1,4
76,264,60323,5,4
356,212,60499,1,4
356,212,61028,69,4
176,136,61205,1,4
176,136,61734,5,4
316,96,61911,1,4
256,336,62440,69,4
72,72,68087,5,4
124,308,69323,1,2
124,308,69411,1,0
124,308,69499,69,4
124,308,69852,1,6
216,104,70911,5,4
268,300,72146,1,2
268,300,72234,1,0
268,300,72323,69,4
268,300,72675,1,6
368,184,73028,1,2
364,168,73146,1,2
360,152,73264,1,0
356,136,73381,1,0
352,120,73499,1,2
348,104,73617,1,0
344,88,73734,1,6
344,88,74087,5,0
256,96,74264,1,0
168,104,74440,1,2
168,296,74793,69,0
256,288,74970,1,0
344,280,75146,1,2
168,104,75499,5,0
168,200,75675,1,0
168,296,75852,1,2
344,280,76205,69,0
344,184,76381,1,0
344,88,76558,1,6
344,88,76911,5,0
432,136,77087,1,0
344,184,77264,1,2
168,200,77617,69,0
80,244,77793,1,0
168,296,77970,1,2
168,296,78323,5,0
168,200,78499,1,0
256,252,78675,1,2
256,252,79028,69,0
168,200,79205,1,0
256,156,79381,1,6
256,156,79734,5,0
344,204,79911,1,0
256,252,80087,1,2
256,252,80440,69,0
344,300,80617,1,0
344,204,80793,1,2
344,204,81146,5,0
256,156,81323,1,0
168,204,81499,1,2
168,204,81852,69,0
256,60,82028,1,0
344,204,82205,1,6
344,204,82558,5,0
256,252,82734,1,0
168,204,82911,1,2
168,204,83264,69,0
256,348,83440,1,0
344,204,83617,1,2
232,48,83970,5,0
236,52,84146,1,0
240,56,84323,1,2
244,60,84499,1,0
248,64,84675,1,0
252,68,84852,1,0
256,72,85028,69,4
92,176,96323,53,4
168,120,96499,2,0,B|176:84|160:24,1,80,0|8
96,180,96852,2,0,B|72:260|112:356,1,160
208,308,97381,2,0,B|248:304|288:304,1,80,8|0
356,176,97734,2,0,B|288:180|208:184,1,120
232,188,98087,1,8
144,96,98264,1,0
148,100,98617,1,0
96,180,98793,2,0,B|96:224|104:264,1,80,8|0
208,308,99146,69,0
444,272,99411,1,0
444,272,99499,2,0,B|448:224|448:184,1,80,8|0
220,108,99852,2,0,B|224:156|232:200,1,80
288,256,100205,2,0,B|276:232|228:200|164:212|132:244,1,160,8|0
208,308,100734,1,0
208,308,100911,1,8
344,340,101087,2,0,B|368:328|400:280|388:216|356:184,1,160
384,104,101617,2,0,B|424:92|472:104,1,80,8|0
220,108,101970,22,0,B|160:136|88:108,1,120
94,124,102323,1,8
32,56,102499,2,0,B|96:128|36:232,1,160
184,296,103028,2,0,B|164:256|184:200,1,80,8|0
288,260,103381,2,0,B|308:300|288:356,1,80
184,296,103734,1,8
208,204,103911,2,0,B|228:176|272:152|336:168|364:200,1,160
448,216,104440,2,0,B|444:268|440:312,1,80,8|0
348,340,104793,37,0
184,296,104970,2,0,B|132:284,2,40,0|0|8
300,176,105323,2,0,B|340:168,2,40
148,88,105675,2,0,B|100:76,2,40,0|0|8
256,48,106028,1,0
368,80,106205,1,0
372,92,106293,1,0
376,104,106381,1,0
380,116,106470,1,0
384,128,106558,1,8
388,140,106646,1,0
392,152,106734,1,0
396,164,106823,1,0
400,176,106911,1,0
312,308,107175,1,0
312,308,107264,1,8
212,284,107440,1,0
200,288,107528,1,0
188,292,107617,21,4
52,164,107793,2,0,B|40:124|40:72,1,80,0|8
172,136,108146,2,0,B|196:220|188:304,1,160
312,308,108675,2,0,B|360:300|396:300,1,80,8|0
456,124,109028,69,4
236,72,109381,1,8
236,72,109558,2,0,B|204:48|148:36|92:72|80:120,1,160
176,216,110087,2,0,B|188:176|164:120,1,80,8|0
52,260,110440,21,4
136,296,110617,1,0
228,292,110793,1,8
304,240,110970,2,0,B|368:192|460:224,1,160
440,128,111499,2,0,B|448:92|436:32,1,80,8|0
214,176,111852,38,0,B|198:244|238:312,1,120,4|0
228,320,112205,2,0,B|288:312|320:312,1,80,8|0
108,208,112558,2,0,B|60:204|20:204,1,80
244,64,112911,2,0,B|308:56|336:56,1,80,8|0
320,268,113264,21,4
440,256,113440,1,0
428,136,113617,1,8
308,148,113793,1,0
108,208,113970,2,0,B|84:272|132:344,1,120
120,340,114323,2,0,B|164:324|212:328,1,80,8|0
320,268,114675,21,4
320,268,114764,1,0
320,268,114852,1,0
320,268,114940,1,0
320,268,115028,5,8
320,268,115117,1,0
320,268,115205,1,0
320,268,115293,1,0
320,268,115381,69,0
320,268,115470,1,0
320,268,115558,1,0
320,268,115646,1,0
320,268,115734,5,8
320,268,115823,1,0
320,268,115911,1,0
320,268,115999,1,0
320,268,116087,69,4
