osu file format v14

[General]
AudioFilename: Adrenaline.mp3
AudioLeadIn: 0
PreviewTime: 104926
Countdown: 0
SampleSet: Soft
StackLeniency: 0.2
Mode: 0
LetterboxInBreaks: 0
WidescreenStoryboard: 0

[Editor]
DistanceSpacing: 1.6
BeatDivisor: 8
GridSize: 4
TimelineZoom: 1.5

[Metadata]
Title:Adrenaline
TitleUnicode:Adrenaline
Artist:Zedd, Grey
ArtistUnicode:Zedd, Grey
Creator:Hollow Wings
Version:Decompensation
Source:
Tags:Pho Pata-Mon Kite Level9
BeatmapID:1236211
BeatmapSetID:584333

[Difficulty]
HPDrainRate:6
CircleSize:4.5
OverallDifficulty:8
ApproachRate:9.7
SliderMultiplier:2
SliderTickRate:1

[Events]
//Background and Video events
0,0,"Adrenaline.jpg",0,0
//Break Periods
2,38036,44490
2,83036,89490
//Storyboard Layer 0 (Background)
//Storyboard Layer 1 (Fail)
//Storyboard Layer 2 (Pass)
//Storyboard Layer 3 (Foreground)
//Storyboard Sound Samples

[TimingPoints]
-15,468.75,4,2,1,100,1,0
14985,-100,4,2,1,80,0,0
29985,-133.333333333333,4,2,1,50,0,0
44985,-100,4,2,1,60,0,0
59985,-80,4,2,1,70,0,0
74985,-100,4,2,1,50,0,0
89985,-66.6666666666667,4,2,1,70,0,0
97485,-57.1428571428571,4,2,1,90,0,0
103110,-100,4,2,1,40,0,0
104985,-50,4,2,1,100,0,1
119750,-50,4,2,1,100,0,0
119985,-50,4,2,1,100,0,1
123500,-25,4,2,1,100,0,1
123735,-50,4,2,1,100,0,1
127836,-20,4,2,1,100,0,1
127953,-50,4,2,1,100,0,1
134985,-100,4,2,1,60,0,0

[Colours]
Combo1 : 124,248,248
Combo2 : 255,162,208
Combo3 : 121,253,164
Combo4 : 255,26,140

[HitObjects]
47,150,13930,6,0,L|55:173,1,25
45,325,14047,1,8,0:0:0:0:
144,328,14164,1,8,0:0:0:0:
239,299,14281,1,8,0:0:0:0:
339,305,14399,1,8,0:0:0:0:
428,260,14516,1,8,0:0:0:0:
428,260,14633,1,8,0:0:0:0:
428,260,14750,1,8,0:0:0:0:
428,260,14985,5,12,0:0:0:0:
292,229,15102,1,0,0:0:0:0:
162,239,15219,1,0,0:0:0:0:
274,148,15336,1,2,0:0:0:0:
274,148,15805,5,0,0:0:0:0:
162,239,15922,1,8,0:0:0:0:
274,148,16039,1,0,0:0:0:0:
274,148,16391,5,8,0:0:0:0:
328,25,16508,1,0,0:0:0:0:
328,25,16742,5,0,0:0:0:0:
328,25,17094,5,0,0:0:0:0:
212,93,17211,1,0,0:0:0:0:
236,221,17328,1,8,0:0:0:0:
85,212,17445,1,0,0:0:0:0:
85,212,17680,5,0,0:0:0:0:
236,221,17797,1,8,0:0:0:0:
85,212,17914,1,0,0:0:0:0:
85,212,18149,5,0,0:0:0:0:
236,221,18266,1,8,0:0:0:0:
85,212,18383,1,0,0:0:0:0:
61,248,18500,6,0,L|59:267,7,12.5
80,292,18735,5,8,0:0:0:0:
193,288,18852,1,0,0:0:0:0:
193,288,19086,5,0,0:0:0:0:
193,288,19555,5,2,0:0:0:0:
328,306,19672,1,8,0:0:0:0:
425,230,19789,1,0,0:0:0:0:
425,230,20141,5,8,0:0:0:0:
291,228,20258,1,0,0:0:0:0:
253,113,20375,1,0,0:0:0:0:
423,48,20492,1,0,0:0:0:0:
423,48,20844,5,0,0:0:0:0:
425,230,20961,1,0,0:0:0:0:
291,228,21078,1,8,0:0:0:0:
253,113,21195,1,0,0:0:0:0:
253,113,21430,5,0,0:0:0:0:
155,166,21547,1,8,0:0:0:0:
49,149,21664,1,0,0:0:0:0:
49,149,21899,5,0,0:0:0:0:
156,240,22016,1,8,0:0:0:0:
291,228,22133,1,0,0:0:0:0:
291,228,22485,5,8,0:0:0:0:
107,312,22602,1,0,0:0:0:0:
309,312,22719,1,0,0:0:0:0:
22,297,22836,1,2,0:0:0:0:
22,297,23188,5,0,0:0:0:0:
176,356,23305,1,0,0:0:0:0:
404,259,23422,1,8,0:0:0:0:
227,289,23539,1,0,0:0:0:0:
227,289,23891,5,8,0:0:0:0:
459,319,24008,1,0,0:0:0:0:
459,319,24125,1,0,0:0:0:0:
227,289,24242,1,0,0:0:0:0:
227,289,24594,5,0,0:0:0:0:
404,259,24711,1,2,0:0:0:0:
448,192,24828,1,8,0:0:0:0:
223,215,24945,1,0,0:0:0:0:
223,215,25180,6,0,L|182:226,1,25
67,218,25297,1,8,0:0:0:0:
43,138,25414,1,0,0:0:0:0:
43,138,25649,5,0,0:0:0:0:
223,215,25766,1,8,0:0:0:0:
227,289,25883,1,0,0:0:0:0:
228,316,26000,6,0,L|228:332,7,12.5
250,281,26235,5,8,0:0:0:0:
195,128,26352,1,0,0:0:0:0:
313,239,26469,1,0,0:0:0:0:
321,20,26586,1,0,0:0:0:0:
321,20,26938,5,0,0:0:0:0:
195,128,27055,1,0,0:0:0:0:
313,239,27172,1,8,0:0:0:0:
321,20,27289,1,0,0:0:0:0:
321,20,27641,5,8,0:0:0:0:
313,239,27758,1,0,0:0:0:0:
343,345,27875,1,0,0:0:0:0:
344,130,27992,2,0,L|372:98,1,25,2|0,0:0|0:0,0:0:0:0:
435,91,28110,5,8,0:0:0:0:
439,170,28227,1,0,0:0:0:0:
393,235,28344,1,0,0:0:0:0:
313,239,28461,1,0,0:0:0:0:
244,198,28578,1,0,0:0:0:0:
164,195,28695,1,0,0:0:0:0:
107,252,28813,1,0,0:0:0:0:
107,331,28930,1,0,0:0:0:0:
176,292,29047,5,8,0:0:0:0:
176,292,29399,1,8,0:0:0:0:
176,292,29750,2,0,L|224:275,1,50,8|0,0:0|0:0,0:0:0:0:
38,291,29985,5,12,0:0:0:0:
256,192,30043,12,0,37485,0:0:0:0:
308,224,37836,5,0,0:0:0:0:
76,330,44985,6,0,L|125:326,1,50,2|0,0:0|0:0,0:0:0:0:
194,297,45219,1,0,0:0:0:0:
254,341,45336,2,0,L|299:363,2,50,2|0|0,0:0|0:0|0:0,0:0:0:0:
264,266,45688,1,0,0:0:0:0:
298,199,45805,2,0,L|273:192,1,25
236,194,45922,6,0,L|220:146,1,50,2|0,0:0|0:0,0:0:0:0:
272,91,46156,1,0,0:0:0:0:
346,85,46273,1,2,0:0:0:0:
414,115,46391,1,0,0:0:0:0:
437,186,46508,2,0,L|408:227,2,50
414,115,46860,5,2,0:0:0:0:
346,85,46977,1,0,0:0:0:0:
272,91,47094,2,0,L|222:84,1,50,0|2,0:0|0:0,0:0:0:0:
90,28,47328,2,0,L|40:31,1,50
148,80,47563,1,0,0:0:0:0:
99,137,47680,6,0,L|74:133,2,25
92,289,47914,2,0,L|141:292,1,50
56,215,48149,1,0,0:0:0:0:
130,215,48266,2,0,L|179:211,1,50
291,275,48500,2,0,L|251:232,1,50
242,163,48735,5,2,0:0:0:0:
315,147,48852,2,0,L|319:196,1,50
237,328,49086,2,0,L|192:351,1,50,2|0,0:0|0:0,0:0:0:0:
110,359,49320,1,0,0:0:0:0:
35,367,49437,2,0,L|21:311,1,50
92,289,49613,1,0,0:0:0:0:
92,289,49671,6,0,L|142:289,1,50,2|0,0:0|0:0,0:0:0:0:
130,215,49906,1,0,0:0:0:0:
101,146,50023,2,0,L|54:163,1,50,2|0,0:0|0:0,0:0:0:0:
152,15,50257,2,0,L|200:28,1,50
101,70,50492,1,0,0:0:0:0:
168,101,50609,6,0,L|217:97,1,50
358,57,50843,2,0,L|401:32,1,50
282,52,51078,1,0,0:0:0:0:
303,123,51195,2,0,L|315:175,1,50
309,247,51430,6,0,L|306:277,2,25
376,214,51664,1,0,0:0:0:0:
420,274,51781,2,0,L|375:297,1,50
232,294,52015,2,0,L|190:266,2,50
135,150,52367,1,0,0:0:0:0:
195,195,52485,5,2,0:0:0:0:
79,229,52602,2,0,L|128:225,2,50,0|0|2,0:0|0:0|0:0,0:0:0:0:
232,294,52953,2,0,L|190:266,1,50
11,146,53188,2,0,L|59:159,1,50
135,150,53363,6,0,L|167:131,1,25,2|0,0:0|0:0,0:0:0:0:
104,84,53539,2,0,L|54:80,1,50
79,229,53774,2,0,L|29:232,1,50,2|0,0:0|0:0,0:0:0:0:
31,307,54008,1,0,0:0:0:0:
87,356,54125,2,0,L|138:340,1,50
280,360,54360,6,0,L|329:356,1,50,2|0,0:0|0:0,0:0:0:0:
204,367,54594,1,0,0:0:0:0:
232,294,54711,2,0,L|183:280,1,50,2|0,0:0|0:0,0:0:0:0:
362,284,54946,2,0,L|409:265,1,50
296,252,55180,2,0,L|294:227,1,25
304,190,55297,6,0,L|314:135,1,50
473,189,55532,2,0,L|457:125,1,50
388,120,55766,1,0,0:0:0:0:
332,70,55883,2,0,L|326:20,1,50
442,71,56118,6,0,L|449:21,1,50,0|2,0:0|0:0,0:0:0:0:
388,120,56352,1,0,0:0:0:0:
313,141,56469,2,0,L|264:130,1,50,0|2,0:0|0:0,0:0:0:0:
423,192,56704,2,0,L|472:188,1,50
346,210,56938,1,0,0:0:0:0:
304,275,57055,6,0,L|279:280,2,25,0|0|2,0:0|0:0|0:0,0:0:0:0:
349,338,57290,2,0,L|389:367,1,50
272,351,57524,1,2,0:0:0:0:
225,291,57641,2,0,L|175:294,1,50
11,345,57876,2,0,L|60:341,1,50
129,351,58110,5,0,0:0:0:0:
106,284,58227,2,0,L|119:235,1,50
36,30,58462,2,0,L|54:84,1,50
48,145,58695,1,0,0:0:0:0:
118,164,58812,2,0,L|167:160,1,50
278,130,58988,1,0,0:0:0:0:
278,130,59047,6,0,L|228:119,1,50
166,88,59281,1,0,0:0:0:0:
111,23,59398,2,0,L|160:19,1,50
64,221,59633,2,0,L|14:224,1,50
106,284,59867,1,0,0:0:0:0:
185,273,59985,6,0,L|247:280,1,62.5,2|0,0:0|0:0,0:0:0:0:
162,346,60219,5,0,0:0:0:0:
106,284,60336,1,2,0:0:0:0:
22,296,60453,1,0,0:0:0:0:
247,280,60570,38,0,L|309:272,1,62.5
373,318,60805,22,0,L|410:326,1,31.25
450,317,60922,1,2,0:0:0:0:
303,348,61039,1,0,0:0:0:0:
309,272,61156,22,0,L|334:215,1,62.5,0|2,0:0|0:0,0:0:0:0:
504,264,61391,37,0,0:0:0:0:
397,246,61508,1,0,0:0:0:0:
459,207,61625,1,0,0:0:0:0:
334,215,61742,6,0,L|275:192,1,62.5,0|2,0:0|0:0,0:0:0:0:
166,215,61977,5,0,0:0:0:0:
209,157,62094,1,0,0:0:0:0:
108,161,62211,1,2,0:0:0:0:
275,192,62328,38,0,L|300:134,1,62.5
436,136,62563,21,0,0:0:0:0:
370,116,62680,2,0,L|374:86,1,31.25
411,55,62797,1,0,0:0:0:0:
300,134,62914,22,0,L|286:72,1,62.5
165,23,63149,37,0,0:0:0:0:
214,83,63266,1,0,0:0:0:0:
100,66,63383,1,0,0:0:0:0:
287,73,63500,6,0,L|338:36,1,62.5
209,157,63735,5,2,0:0:0:0:
165,23,63852,1,0,0:0:0:0:
214,83,63969,1,0,0:0:0:0:
337,36,64086,38,0,L|399:40,1,62.5,2|0,0:0|0:0,0:0:0:0:
370,197,64320,21,0,0:0:0:0:
280,221,64437,1,0,0:0:0:0:
300,134,64555,2,0,L|293:101,1,31.25
398,40,64671,22,0,L|448:77,1,62.5,2|0,0:0|0:0,0:0:0:0:
469,210,64906,37,0,0:0:0:0:
370,197,65023,1,2,0:0:0:0:
300,134,65140,1,0,0:0:0:0:
448,78,65257,6,0,L|396:114,1,62.5
403,287,65492,5,0,0:0:0:0:
300,134,65609,1,0,0:0:0:0:
278,231,65726,1,0,0:0:0:0:
397,114,65843,38,0,L|378:191,1,62.5
403,287,66078,21,0,0:0:0:0:
278,231,66195,1,0,0:0:0:0:
300,134,66312,1,0,0:0:0:0:
383,169,66430,22,0,L|369:196,2,31.25
469,210,66664,37,0,0:0:0:0:
403,287,66781,1,0,0:0:0:0:
503,303,66898,1,0,0:0:0:0:
369,197,67015,6,0,L|307:210,1,62.5
215,167,67250,5,0,0:0:0:0:
112,273,67367,1,0,0:0:0:0:
172,229,67485,1,2,0:0:0:0:
181,301,67602,38,0,L|243:308,1,62.5
317,268,67836,21,2,0:0:0:0:
339,351,67953,1,0,0:0:0:0:
403,287,68070,1,0,0:0:0:0:
243,308,68187,22,0,L|210:248,1,62.5
128,217,68363,38,0,L|97:208,1,31.25,0|2,0:0|0:0,0:0:0:0:
25,220,68539,1,0,0:0:0:0:
110,304,68656,1,0,0:0:0:0:
213,253,68773,6,0,L|233:193,1,62.5,2|0,0:0|0:0,0:0:0:0:
245,100,69008,5,0,0:0:0:0:
195,22,69125,1,0,0:0:0:0:
245,100,69242,1,0,0:0:0:0:
233,193,69359,38,0,L|295:201,1,62.5,2|0,0:0|0:0,0:0:0:0:
374,150,69594,21,0,0:0:0:0:
286,117,69711,1,2,0:0:0:0:
193,128,69828,1,0,0:0:0:0:
295,201,69945,22,0,L|354:221,1,62.5
466,135,70180,38,0,L|463:97,1,31.25
427,73,70297,1,0,0:0:0:0:
339,106,70414,1,0,0:0:0:0:
354,221,70531,6,0,L|416:228,1,62.5
503,192,70766,5,0,0:0:0:0:
463,103,70883,1,0,0:0:0:0:
374,73,71000,1,0,0:0:0:0:
416,228,71117,38,0,L|479:229,1,62.5,0|2,0:0|0:0,0:0:0:0:
388,154,71352,21,0,0:0:0:0:
427,73,71469,1,0,0:0:0:0:
510,106,71586,1,2,0:0:0:0:
479,228,71703,22,0,L|417:257,1,62.5
331,275,71937,37,0,0:0:0:0:
243,239,72055,2,0,L|246:205,1,31.25
292,152,72171,1,2,0:0:0:0:
422,254,72288,6,0,L|483:266,1,62.5
411,326,72523,5,2,0:0:0:0:
331,275,72640,1,0,0:0:0:0:
400,188,72757,1,0,0:0:0:0:
483,266,72874,38,0,L|481:328,1,62.5,0|8,0:0|0:0,0:0:0:0:
411,326,73051,22,0,L|387:305,1,31.25,8|8,0:0|0:0,0:0:0:0:
336,350,73226,1,8,0:0:0:0:
265,320,73343,1,8,0:0:0:0:
195,341,73460,2,0,L|133:333,1,62.5,8|8,0:0|0:0,0:0:0:0:
207,271,73695,1,8,0:0:0:0:
136,262,73812,1,8,0:0:0:0:
73,297,73929,1,8,0:0:0:0:
75,225,74046,6,0,L|53:202,2,31.25,8|8|8,0:0|0:0|0:0,0:0:0:0:
138,188,74281,1,8,0:0:0:0:
210,178,74398,1,8,0:0:0:0:
278,204,74515,1,8,0:0:0:0:
331,255,74632,2,0,L|396:256,1,62.5,8|8,0:0|0:0,0:0:0:0:
447,208,74867,1,8,0:0:0:0:
265,128,74984,5,12,0:0:0:0:
256,192,75043,12,0,80610,0:0:0:0:
225,193,81547,5,2,0:0:0:0:
225,193,81899,1,0,0:0:0:0:
225,193,82250,1,0,0:0:0:0:
225,193,82485,6,0,B|212:268|212:268|216:341,1,150,2|2,0:0|0:0,0:0:0:0:
309,372,89985,6,0,B|270:369|270:369|221:343,3,75.0000028610231,8|0|0|0,0:0|0:0|0:0|0:0,0:0:0:0:
289,298,90453,2,0,B|257:281|257:281|218:278,3,75.0000028610231,8|0|0|0,0:0|0:0|0:0|0:0,0:0:0:0:
168,335,90922,2,0,B|129:332|129:332|80:306,3,75.0000028610231,8|0|0|0,0:0|0:0|0:0|0:0,0:0:0:0:
148,261,91390,2,0,B|116:244|116:244|77:241,3,75.0000028610231,8|0|0|0,0:0|0:0|0:0|0:0,0:0:0:0:
201,210,91860,6,0,B|240:207|240:207|289:181,3,75.0000028610231,8|0|0|0,0:0|0:0|0:0|0:0,0:0:0:0:
342,173,92328,2,0,B|381:170|381:170|412:153,3,75.0000028610231,8|0|0|0,0:0|0:0|0:0|0:0,0:0:0:0:
432,79,92797,2,0,B|393:82|393:82|362:99,3,75.0000028610231,8|0|0|0,0:0|0:0|0:0|0:0,0:0:0:0:
291,116,93265,2,0,B|252:119|252:119|221:136,3,75.0000028610231,8|0|0|0,0:0|0:0|0:0|0:0,0:0:0:0:
221,284,93735,6,0,B|253:301|253:301|292:304,3,75.0000028610231,8|0|0|0,0:0|0:0|0:0|0:0,0:0:0:0:
433,341,94203,2,0,B|394:338|394:338|362:321,3,75.0000028610231,8|0|0|0,0:0|0:0|0:0|0:0,0:0:0:0:
412,266,94672,2,0,B|381:250|381:250|342:247,3,75.0000028610231,8|0|0|0,0:0|0:0|0:0|0:0,0:0:0:0:
201,210,95140,2,0,B|240:213|240:213|271:229,3,75.0000028610231,8|0|0|0,0:0|0:0|0:0|0:0,0:0:0:0:
21,180,95610,6,0,B|60:177|60:177|91:160,3,75.0000028610231,8|0|0|0,0:0|0:0|0:0|0:0,0:0:0:0:
253,49,96078,2,0,B|214:52|214:52|182:68,3,75.0000028610231,8|0|0|0,0:0|0:0|0:0|0:0,0:0:0:0:
41,105,96547,2,0,B|73:89|73:89|112:86,3,75.0000028610231,8|0|0|0,0:0|0:0|0:0|0:0,0:0:0:0:
232,123,97015,2,0,B|200:139|200:139|161:142,3,75.0000028610231,8|0|0|0,0:0|0:0|0:0|0:0,0:0:0:0:
399,131,97485,6,0,B|345:110|345:110|315:109,1,87.500000834465,8|0,0:0|0:0,0:0:0:0:
286,181,97719,1,0,0:0:0:0:
429,209,97836,1,8,0:0:0:0:
429,209,97953,2,0,B|371:217|371:217|345:231,1,87.500000834465
466,77,98188,2,0,B|429:31|429:31|404:16,1,87.500000834465,8|0,0:0|0:0,0:0:0:0:
248,295,98422,6,0,B|290:306|290:306|334:306,1,87.500000834465,8|0,0:0|0:0,0:0:0:0:
345,231,98656,1,0,0:0:0:0:
148,289,98773,1,8,0:0:0:0:
148,289,98891,2,0,B|178:258|178:258|200:219,1,87.500000834465
85,348,99125,2,0,B|73:306|73:306|51:267,1,87.500000834465,8|0,0:0|0:0,0:0:0:0:
134,48,99360,6,0,L|47:73,1,87.500000834465,8|0,0:0|0:0,0:0:0:0:
63,170,99594,1,0,0:0:0:0:
230,142,99711,1,8,0:0:0:0:
230,142,99828,2,0,L|208:229,1,87.500000834465
361,119,100063,2,0,L|426:181,1,87.500000834465,8|0,0:0|0:0,0:0:0:0:
131,135,100297,6,0,L|133:47,1,87.500000834465,8|0,0:0|0:0,0:0:0:0:
286,80,100531,1,0,0:0:0:0:
162,306,100648,1,8,0:0:0:0:
162,306,100766,2,0,L|84:347,1,87.500000834465
294,194,101000,2,0,L|368:240,1,87.500000834465,8|0,0:0|0:0,0:0:0:0:
111,228,101235,5,8,0:0:0:0:
180,220,101352,1,8,0:0:0:0:
238,258,101469,1,8,0:0:0:0:
260,324,101586,1,8,0:0:0:0:
321,357,101703,1,8,0:0:0:0:
390,354,101820,1,8,0:0:0:0:
446,312,101937,1,8,0:0:0:0:
463,244,102054,1,8,0:0:0:0:
432,180,102172,5,8,0:0:0:0:
463,244,102289,1,8,0:0:0:0:
446,312,102406,1,8,0:0:0:0:
390,354,102523,1,8,0:0:0:0:
321,357,102640,1,8,0:0:0:0:
260,324,102757,1,8,0:0:0:0:
238,258,102874,1,8,0:0:0:0:
180,220,102991,1,8,0:0:0:0:
111,228,104047,5,2,0:0:0:0:
111,228,104399,1,0,0:0:0:0:
111,228,104750,1,0,0:0:0:0:
116,314,104986,6,0,B|212:340|212:340|312:335,1,200,4|2,0:0|0:0,0:0:0:0:
37,328,105453,1,8,0:0:0:0:
384,367,105688,2,0,L|389:267,1,100,2|0,0:0|0:0,0:0:0:0:
424,28,105922,6,0,L|453:225,2,200,0|2|8,0:0|0:0|0:0,0:0:0:0:
31,37,106625,1,2,0:0:0:0:
109,22,106742,1,0,0:0:0:0:
84,98,106860,6,0,L|79:198,2,100,0|0|2,0:0|0:0|0:0,0:0:0:0:
133,257,107211,1,0,0:0:0:0:
156,182,107328,2,0,L|161:82,2,100,8|0|2,0:0|0:0|0:0,0:0:0:0:
237,66,107680,1,0,0:0:0:0:
207,290,107797,5,0,0:0:0:0:
237,66,107914,1,0,0:0:0:0:
333,280,108031,2,0,B|299:275|299:275|255:226,1,100,2|0,0:0|0:0,0:0:0:0:
270,339,108266,5,8,0:0:0:0:
369,172,108383,1,0,0:0:0:0:
373,365,108500,2,0,B|346:343|346:343|332:279,1,100,2|0,0:0|0:0,0:0:0:0:
237,66,108735,6,0,B|137:61|137:61|41:87,1,200,0|2,0:0|0:0,0:0:0:0:
123,261,109203,1,8,0:0:0:0:
207,290,109320,2,0,B|150:327|150:327|118:333,1,100,0|2,0:0|0:0,0:0:0:0:
270,339,109555,1,0,0:0:0:0:
42,360,109672,5,0,0:0:0:0:
123,261,109789,1,0,0:0:0:0:
137,114,109906,2,0,B|144:44|144:44|140:14,1,100,2|0,0:0|0:0,0:0:0:0:
195,364,110141,5,8,0:0:0:0:
123,261,110258,1,0,0:0:0:0:
66,141,110375,2,0,B|51:72|51:72|38:45,1,100,2|0,0:0|0:0,0:0:0:0:
36,278,110610,6,0,L|121:329,2,100,0|0|2,0:0|0:0|0:0,0:0:0:0:
195,364,110961,1,0,0:0:0:0:
270,339,111078,2,0,L|361:297,2,100,8|0|2,0:0|0:0|0:0,0:0:0:0:
436,283,111430,1,0,0:0:0:0:
61,194,111547,5,0,0:0:0:0:
283,130,111664,1,0,0:0:0:0:
195,364,111781,5,2,0:0:0:0:
142,138,111898,1,0,0:0:0:0:
315,35,112016,5,8,0:0:0:0:
262,261,112133,1,0,0:0:0:0:
66,111,112250,5,2,0:0:0:0:
185,289,112367,2,0,L|140:311,1,50
16,371,112485,6,0,B|-1:327|-1:327|6:275,1,100
75,266,112719,2,0,B|93:311|93:311|86:363,1,100
262,261,112953,2,0,L|361:249,1,100,8|0,0:0|0:0,0:0:0:0:
471,344,113188,2,0,L|372:332,1,100,2|0,0:0|0:0,0:0:0:0:
117,16,113422,6,0,B|135:49|135:49|147:110,1,100
438,28,113656,2,0,B|437:65|437:65|417:124,1,100,2|0,0:0|0:0,0:0:0:0:
250,351,113891,1,8,0:0:0:0:
273,112,114008,1,0,0:0:0:0:
250,351,114125,1,2,0:0:0:0:
273,112,114242,1,0,0:0:0:0:
156,329,114360,6,0,B|137:335|137:335|56:346,2,100,0|0|2,0:0|0:0|0:0,0:0:0:0:
13,256,114711,1,0,0:0:0:0:
94,152,114828,2,0,B|109:164|109:164|183:199,2,100,8|0|2,0:0|0:0|0:0,0:0:0:0:
273,112,115180,1,0,0:0:0:0:
46,356,115297,5,0,0:0:0:0:
73,78,115414,1,0,0:0:0:0:
401,202,115531,5,2,0:0:0:0:
101,262,115648,1,0,0:0:0:0:
150,95,115766,5,8,0:0:0:0:
404,349,115883,1,0,0:0:0:0:
156,329,116000,5,2,0:0:0:0:
477,138,116117,1,0,0:0:0:0:
245,344,116235,6,0,L|45:355,2,200,0|2|8,0:0|0:0|0:0,0:0:0:0:
73,78,116938,2,0,B|108:38|108:38|151:20,1,100,2|0,0:0|0:0,0:0:0:0:
109,259,117172,2,0,L|100:160,3,100,0|0|2|0,0:0|0:0|0:0|0:0,0:0:0:0:
224,53,117641,2,0,L|323:66,2,100,8|0|2,0:0|0:0|0:0,0:0:0:0:
359,136,117992,6,0,L|408:132,1,50
458,349,118110,2,0,L|358:335,2,100,0|0|2,0:0|0:0|0:0,0:0:0:0:
300,293,118461,1,0,0:0:0:0:
230,315,118578,2,0,L|130:301,2,100,8|0|2,0:0|0:0|0:0,0:0:0:0:
71,257,118930,1,0,0:0:0:0:
71,347,119047,5,0,0:0:0:0:
88,86,119164,1,0,0:0:0:0:
146,222,119281,2,0,L|145:321,1,100,2|0,0:0|0:0,0:0:0:0:
284,365,119516,5,8,0:0:0:0:
230,139,119633,1,0,0:0:0:0:
334,223,119750,2,0,L|339:323,1,100,2|0,0:0|0:0,0:0:0:0:
505,170,119985,6,0,B|409:144|409:144|309:149,1,200,4|0,0:0|0:0,0:0:0:0:
157,367,120453,1,8,0:0:0:0:
71,347,120570,2,0,L|66:247,2,100,0|2|0,0:0|0:0|0:0,0:0:0:0:
146,222,120922,5,0,0:0:0:0:
225,238,121039,2,0,L|230:138,2,100,0|2|0,0:0|0:0|0:0,0:0:0:0:
290,75,121391,1,8,0:0:0:0:
467,352,121625,1,2,0:0:0:0:
386,359,121742,1,0,0:0:0:0:
308,328,121860,6,0,L|303:228,2,100,0|0|2,0:0|0:0|0:0,0:0:0:0:
255,164,122211,1,0,0:0:0:0:
224,237,122328,2,0,L|229:337,2,100,8|0|2,0:0|0:0|0:0,0:0:0:0:
157,367,122680,1,0,0:0:0:0:
144,209,122797,5,0,0:0:0:0:
367,242,122914,1,0,0:0:0:0:
176,136,123031,2,0,B|129:133|129:133|84:159,1,100,2|0,0:0|0:0,0:0:0:0:
106,280,123266,5,8,0:0:0:0:
339,169,123383,1,0,0:0:0:0:
215,74,123501,6,0,B|115:66|115:66|28:115,1,200,2|0,0:0|0:0,0:0:0:0:
279,333,123736,6,0,B|379:338|379:338|475:312,1,200,0|2,0:0|0:0,0:0:0:0:
349,23,124203,1,8,0:0:0:0:
364,204,124320,1,0,0:0:0:0:
420,258,124438,2,0,B|371:272|371:272|322:269,1,100,2|0,0:0|0:0,0:0:0:0:
46,136,124672,5,0,0:0:0:0:
215,74,124789,1,0,0:0:0:0:
391,101,124906,2,0,B|459:95|459:95|498:84,1,100,2|0,0:0|0:0,0:0:0:0:
54,257,125141,5,8,0:0:0:0:
188,145,125258,1,0,0:0:0:0:
356,171,125375,2,0,B|423:183|423:183|463:184,1,100,2|0,0:0|0:0,0:0:0:0:
143,346,125610,6,0,L|129:246,2,100,0|0|2,0:0|0:0|0:0,0:0:0:0:
119,175,125961,1,0,0:0:0:0:
46,136,126078,2,0,L|136:92,2,100,8|0|2,0:0|0:0|0:0,0:0:0:0:
27,55,126430,1,0,0:0:0:0:
31,369,126547,5,0,0:0:0:0:
305,262,126664,1,0,0:0:0:0:
109,74,126781,5,2,0:0:0:0:
143,346,126898,1,0,0:0:0:0:
339,146,127016,5,8,0:0:0:0:
46,136,127133,1,0,0:0:0:0:
286,343,127250,5,2,0:0:0:0:
215,74,127367,1,0,0:0:0:0:
362,322,127485,6,0,B|412:334|412:334|460:334,1,100
499,159,127719,1,0,0:0:0:0:
339,146,127836,6,0,P|308:200|305:262,1,125
367,70,127953,6,0,L|268:82,1,100,8|0,0:0|0:0,0:0:0:0:
91,93,128188,2,0,L|189:111,1,100,2|0,0:0|0:0,0:0:0:0:
504,350,128422,6,0,B|452:299|452:299|428:285,1,100
225,189,128656,2,0,B|276:239|276:239|300:253,1,100,2|0,0:0|0:0,0:0:0:0:
412,194,128891,1,8,0:0:0:0:
149,265,129008,1,0,0:0:0:0:
412,194,129125,1,2,0:0:0:0:
149,265,129242,1,0,0:0:0:0:
484,257,129360,6,0,B|414:268|414:268|384:265,1,100
48,281,129594,1,2,0:0:0:0:
324,317,129711,1,0,0:0:0:0:
14,352,129828,2,0,B|84:363|84:363|113:360,1,100,8|0,0:0|0:0,0:0:0:0:
504,350,130063,1,2,0:0:0:0:
183,338,130180,1,0,0:0:0:0:
454,49,130297,5,0,0:0:0:0:
408,359,130414,1,0,0:0:0:0:
155,109,130531,5,2,0:0:0:0:
486,132,130648,1,0,0:0:0:0:
183,338,130766,5,8,0:0:0:0:
160,21,130883,1,0,0:0:0:0:
401,266,131000,5,2,0:0:0:0:
98,364,131117,1,0,0:0:0:0:
62,42,131235,6,0,L|48:141,1,100
48,142,131469,2,0,B|72:288|72:288|119:267,1,200,2|8,0:0|0:0,0:0:0:0:
374,39,131938,2,0,L|274:30,1,100,2|0,0:0|0:0,0:0:0:0:
212,203,132172,6,0,B|221:187|221:187|237:107,3,100,0|0|2|0,0:0|0:0|0:0|0:0,0:0:0:0:
291,352,132641,2,0,B|275:272|275:272|266:255,3,100,8|0|2|0,0:0|0:0|0:0|0:0,0:0:0:0:
101,341,133110,6,0,B|126:339|126:339|197:316,1,100
52,231,133344,2,0,B|71:240|71:240|149:249,1,100,2|0,0:0|0:0,0:0:0:0:
91,54,133578,2,0,B|98:83|98:83|136:141,1,100,8|0,0:0|0:0,0:0:0:0:
318,15,133813,2,0,B|294:29|294:29|266:96,1,100,2|0,0:0|0:0,0:0:0:0:
496,221,134047,5,0,0:0:0:0:
418,156,134164,1,0,0:0:0:0:
313,173,134281,2,0,B|235:161|235:161|216:150,1,100,2|0,0:0|0:0,0:0:0:0:
21,358,134516,5,8,0:0:0:0:
236,294,134633,1,0,0:0:0:0:
351,99,134750,2,0,B|427:80|427:80|448:83,1,100,2|0,0:0|0:0,0:0:0:0:
119,154,134985,5,4,0:0:0:0:
