osu file format v12

[General]
AudioFilename: Nightcore - Stay the Night.mp3
AudioLeadIn: 0
PreviewTime: 33323
Countdown: 1
SampleSet: Soft
StackLeniency: 0.7
Mode: 0
LetterboxInBreaks: 1
WidescreenStoryboard: 1

[Editor]
DistanceSpacing: 0.6
BeatDivisor: 4
GridSize: 4

[Metadata]
Title:Stay the Night (Nightcore Mix)
TitleUnicode:Stay the Night (Nightcore Mix)
Artist:Zedd feat. Hayley Williams
ArtistUnicode:Zedd feat. Hayley Williams
Creator:MeekRhino
Version:Hard
Source:
Tags:
BeatmapID:352521
BeatmapSetID:124451

[Difficulty]
HPDrainRate:6
CircleSize:4
OverallDifficulty:7
ApproachRate:8
SliderMultiplier:1.5
SliderTickRate:1

[Events]
//Background and Video events
0,0,"wallpaper-staythenight1.jpg",0,0
//Break Periods
2,73350,85900
//Storyboard Layer 0 (Background)
//Storyboard Layer 1 (Fail)
//Storyboard Layer 2 (Pass)
//Storyboard Layer 3 (Foreground)
//Storyboard Sound Samples
//Background Colour Transformations
3,100,0,0,128

[TimingPoints]
1150,375,4,2,0,30,1,0
37150,-100,4,1,0,40,0,0
49150,-83.3333333333333,4,1,0,60,0,1
61150,-100,4,1,0,60,0,1
73150,-100,4,2,0,30,0,0
110650,-100,4,1,0,40,0,0
122650,-83.3333333333333,4,1,0,60,0,0
131650,-100,4,2,0,30,0,0
134650,-83.3333333333333,4,1,0,60,0,1
146650,-100,4,1,0,60,0,1
158650,-100,4,2,0,40,0,0

[Colours]
Combo1 : 128,0,128
Combo2 : 0,0,128
Combo3 : 255,255,255
Combo4 : 0,128,64
Combo5 : 0,255,255

[HitObjects]
208,104,1150,6,0,P|280:84|308:96,1,75,2|0,0:0|0:0,0:0:0:0:
216,252,1712,2,0,P|192:196|200:156,1,75,2|0,0:0|0:0,0:0:0:0:
372,156,2275,2,0,P|348:204|312:220,1,75,2|0,0:0|0:0,0:0:0:0:
212,76,2837,2,0,P|252:92|280:136,1,75,2|0,0:0|0:0,0:0:0:0:
220,288,3400,2,0,L|232:196,2,75,2|0|2,0:0|0:0|0:0,0:0:0:0:
228,108,4150,6,0,P|188:48|196:24,1,75,0|2,0:0|0:0,0:0:0:0:
316,176,4712,2,0,P|388:192|404:220,1,75,0|2,0:0|0:0,0:0:0:0:
212,240,5275,2,0,P|184:284|152:284,1,75,0|2,0:0|0:0,0:0:0:0:
268,140,5837,2,0,P|272:88|292:64,1,75,0|2,0:0|0:0,0:0:0:0:
320,240,6400,2,0,L|384:284,2,75,2|0|2,0:0|0:0|0:0,0:0:0:0:
324,60,7150,5,0,0:0:0:0:
372,136,7337,1,2,0:0:0:0:
236,256,7712,1,0,0:0:0:0:
164,200,7900,1,2,0:0:0:0:
236,36,8275,1,0,0:0:0:0:
324,60,8462,1,2,0:0:0:0:
328,240,8837,1,0,0:0:0:0:
236,256,9025,1,2,0:0:0:0:
148,116,9400,5,2,0:0:0:0:
208,48,9587,1,0,0:0:0:0:
208,140,9775,1,0,0:0:0:0:
152,68,9962,1,0,0:0:0:0:
240,92,10150,1,2,0:0:0:0:
104,280,10712,1,2,0:0:0:0:
376,284,11275,2,0,B|444:220|232:152|328:84,1,225,2|2,0:0|0:0,0:0:0:0:
104,280,12400,1,2,0:0:0:0:
288,76,13150,6,0,P|344:112|356:144,1,75,2|0,0:0|0:0,0:0:0:0:
208,232,13712,2,0,P|184:172|192:144,1,75,2|0,0:0|0:0,0:0:0:0:
364,152,14275,2,0,P|360:212|336:240,1,75,2|0,0:0|0:0,0:0:0:0:
196,136,14837,2,0,B|236:88|272:92|272:96,1,75,2|0,0:0|0:0,0:0:0:0:
304,268,15400,2,0,L|224:280,2,75,2|0|2,0:0|0:0|0:0,0:0:0:0:
284,88,16150,6,0,P|216:104|204:128,1,75,0|2,0:0|0:0,0:0:0:0:
292,268,16712,2,0,P|340:236|348:212,1,75,0|2,0:0|0:0,0:0:0:0:
188,136,17275,1,0,0:0:0:0:
208,224,17462,2,0,P|296:264|344:164,1,225,2|0,0:0|0:0,0:0:0:0:
316,84,18212,1,2,0:0:0:0:
128,72,19150,6,0,P|100:116|104:152,1,75,2|0,0:0|0:0,0:0:0:0:
200,288,19712,2,0,P|260:304|296:296,1,75,2|0,0:0|0:0,0:0:0:0:
416,196,20275,2,0,P|416:136|392:108,1,75,2|0,0:0|0:0,0:0:0:0:
248,48,20837,2,0,P|184:56|160:80,1,75,2|0,0:0|0:0,0:0:0:0:
160,240,21400,5,2,0:0:0:0:
240,284,21587,1,0,0:0:0:0:
208,200,21775,1,0,0:0:0:0:
188,288,21962,1,0,0:0:0:0:
256,232,22150,1,2,0:0:0:0:
300,200,22712,1,2,0:0:0:0:
336,164,23275,2,0,B|352:100|424:116|440:40,2,150,2|0|2,0:0|0:0|0:0,0:0:0:0:
328,232,24400,1,2,0:0:0:0:
200,80,25150,5,2,0:0:0:0:
224,168,25337,1,0,0:0:0:0:
288,108,25525,1,0,0:0:0:0:
200,80,25712,1,0,0:0:0:0:
100,228,26087,1,0,0:0:0:0:
268,296,26462,2,0,P|372:292|400:184,1,225,2|0,0:0|0:0,0:0:0:0:
376,104,27212,1,2,0:0:0:0:
312,80,28150,5,2,0:0:0:0:
288,168,28337,1,0,0:0:0:0:
224,108,28525,1,0,0:0:0:0:
312,80,28712,1,0,0:0:0:0:
412,228,29087,1,0,0:0:0:0:
244,296,29462,2,0,P|152:300|108:172,1,225,2|0,0:0|0:0,0:0:0:0:
124,104,30212,1,2,0:0:0:0:
296,304,31150,6,0,P|336:252|328:220,1,75,2|0,0:0|0:0,0:0:0:0:
204,124,31712,2,0,B|160:164|172:204|172:204,1,75
352,200,32275,2,0,P|320:156|280:132,1,75,0|2,0:0|0:0,0:0:0:0:
128,180,32837,2,0,P|140:232|176:256,1,75
336,240,33400,2,0,P|336:188|312:148,1,75,2|0,0:0|0:0,0:0:0:0:
232,204,33775,2,0,P|248:264|260:272,1,75
332,320,34150,5,2,0:0:0:0:
80,56,34712,1,0,0:0:0:0:
116,324,35275,1,2,0:0:0:0:
400,104,36025,1,8,0:0:0:0:
228,48,36400,1,8,0:0:0:0:
132,88,37150,6,0,P|124:136|140:160,1,75,2|0,0:0|0:0,0:0:0:0:
224,132,37525,2,0,P|232:96|208:68,1,75
60,172,38087,1,0,0:0:0:0:
180,308,38462,2,0,P|248:252|180:144,1,225,2|0,0:0|0:0,0:0:0:0:
108,120,39212,1,2,0:0:0:0:
392,208,40150,6,0,P|384:160|352:132,1,75,2|0,0:0|0:0,0:0:0:0:
284,180,40525,2,0,P|288:228|316:244,1,75
412,96,41087,1,0,0:0:0:0:
236,52,41462,2,0,P|152:112|160:236,1,225,2|0,0:0|0:0,0:0:0:0:
188,308,42212,1,2,0:0:0:0:
232,76,43150,5,2,0:0:0:0:
148,112,43337,1,0,0:0:0:0:
144,292,43712,1,0,0:0:0:0:
224,336,43900,1,2,0:0:0:0:
380,248,44275,1,0,0:0:0:0:
388,160,44462,1,2,0:0:0:0:
232,76,44837,1,0,0:0:0:0:
148,112,45025,1,2,0:0:0:0:
236,296,45400,5,2,0:0:0:0:
320,268,45587,1,0,0:0:0:0:
232,244,45775,1,0,0:0:0:0:
288,316,45962,1,0,0:0:0:0:
288,224,46150,1,2,0:0:0:0:
376,124,46712,1,0,0:0:0:0:
244,96,47275,1,2,0:0:0:0:
100,204,48025,1,2,0:0:0:0:
144,284,48400,1,2,0:0:0:0:
280,248,49150,6,0,P|328:232|332:180,1,89.9999972534181
344,144,49525,2,0,P|312:104|252:96,1,89.9999972534181
220,96,49900,2,0,P|180:128|188:192,1,89.9999972534181
188,216,50275,2,0,P|232:252|284:248,1,89.9999972534181
316,252,50650,2,0,P|356:224|360:180,1,89.9999972534181
360,132,51025,1,0,0:0:0:0:
328,88,51212,1,0,0:0:0:0:
276,72,51400,2,0,P|216:76|200:104,1,89.9999972534181
192,148,51775,1,0,0:0:0:0:
220,196,51962,1,0,0:0:0:0:
252,240,52150,6,0,P|236:304|208:316,1,89.9999972534181
164,320,52525,2,0,P|112:292|96:248,1,89.9999972534181
104,212,52900,2,0,P|144:168|196:176,1,89.9999972534181
224,180,53275,2,0,P|268:240|256:272,1,89.9999972534181
240,296,53650,2,0,P|188:328|140:304,1,89.9999972534181
116,296,54025,1,0,0:0:0:0:
84,252,54212,1,0,0:0:0:0:
60,204,54400,2,0,P|56:144|72:120,1,89.9999972534181
116,88,54775,1,0,0:0:0:0:
168,76,54962,1,0,0:0:0:0:
224,76,55150,6,0,P|288:100|304:128,1,89.9999972534181
328,164,55525,2,0,P|342:221|330:249,1,89.9999972534181
300,292,55900,2,0,P|252:320|208:308,1,89.9999972534181
172,296,56275,2,0,P|132:268|116:228,1,89.9999972534181
116,176,56650,2,0,P|96:124|56:96,1,89.9999972534181
28,68,57025,1,0,0:0:0:0:
28,68,57212,1,0,0:0:0:0:
64,112,57400,2,0,P|120:120|148:100,1,89.9999972534181
184,64,57775,1,0,0:0:0:0:
184,64,57962,1,0,0:0:0:0:
240,68,58150,6,0,P|280:80|308:140,1,89.9999972534181
324,172,58525,2,0,P|308:244|264:264,1,89.9999972534181
252,280,58900,2,0,P|184:292|148:264,1,89.9999972534181
128,248,59275,2,0,P|104:200|116:168,1,89.9999972534181
148,124,59650,5,0,0:0:0:0:
236,60,59837,1,0,0:0:0:0:
196,160,60025,1,0,0:0:0:0:
176,56,60212,1,0,0:0:0:0:
260,124,60400,5,0,0:0:0:0:
360,88,60587,1,0,0:0:0:0:
300,176,60775,1,0,0:0:0:0:
296,68,60962,1,0,0:0:0:0:
360,152,61150,6,0,P|404:208|404:244,1,75
404,300,61525,1,0,0:0:0:0:
332,352,61712,1,0,0:0:0:0:
268,288,61900,1,0,0:0:0:0:
180,304,62087,1,0,0:0:0:0:
176,212,62275,1,0,0:0:0:0:
172,124,62462,2,0,P|256:88|360:184,1,225
380,248,63212,2,0,P|360:300|268:320,1,150
196,284,63775,2,0,L|152:352,1,75
124,140,64150,6,0,P|160:92|184:80,1,75
260,68,64525,1,0,0:0:0:0:
348,84,64712,1,0,0:0:0:0:
368,172,64900,1,0,0:0:0:0:
376,260,65087,1,0,0:0:0:0:
292,232,65275,1,0,0:0:0:0:
256,312,65462,2,0,P|160:252|160:148,1,225
192,68,66212,1,0,0:0:0:0:
340,168,66587,2,0,L|420:168,2,75
256,148,67150,6,0,P|284:100|312:88,1,75
208,244,67712,2,0,P|152:252|128:232,1,75
320,236,68275,2,0,P|360:272|360:308,1,75
256,148,68837,2,0,P|284:100|312:88,1,75
332,256,69400,2,0,P|268:304|260:304,1,75
188,304,69775,2,0,P|144:276|132:236,1,75
120,168,70150,5,0,0:0:0:0:
228,88,70712,1,0,0:0:0:0:
244,224,71275,1,0,0:0:0:0:
256,192,71462,12,0,73150,0:0:0:0:
252,80,86650,6,0,P|224:136|224:176,1,75,2|0,0:0|0:0,0:0:0:0:
376,244,87212,2,0,P|324:204|288:208,1,75,2|0,0:0|0:0,0:0:0:0:
184,324,87775,2,0,P|236:280|240:252,1,75,2|0,0:0|0:0,0:0:0:0:
152,120,88337,2,0,P|180:184|200:192,1,75,2|0,0:0|0:0,0:0:0:0:
360,164,88900,2,0,L|428:132,2,75,2|0|2,0:0|0:0|0:0,0:0:0:0:
276,324,89650,6,0,P|256:276|232:256,1,75
152,120,90212,2,0,P|180:184|200:192,1,75,2|0,0:0|0:0,0:0:0:0:
340,268,90775,1,0,0:0:0:0:
296,188,90962,2,0,P|232:112|88:124,1,225,2|0,0:0|0:0,0:0:0:0:
28,144,91712,1,2,0:0:0:0:
420,180,92650,6,0,P|400:132|360:112,1,75,2|0,0:0|0:0,0:0:0:0:
236,224,93212,2,0,P|300:192|308:164,1,75,0|2,0:0|0:0,0:0:0:0:
204,40,93775,2,0,P|152:80|144:108,1,75,0|2,0:0|0:0,0:0:0:0:
296,192,94337,2,0,P|272:144|236:132,1,75,0|2,0:0|0:0,0:0:0:0:
84,188,94900,2,0,P|128:244|156:252,1,75,2|0,0:0|0:0,0:0:0:0:
212,280,95275,2,0,P|280:288|312:276,1,75
368,256,95650,5,2,0:0:0:0:
180,64,96212,1,0,0:0:0:0:
116,328,96775,2,0,P|208:332|272:276,1,150,2|0,0:0|0:0,0:0:0:0:
300,224,97337,2,0,B|312:136|248:72,1,150,0|2,0:0|0:0,0:0:0:0:
176,52,97900,1,2,0:0:0:0:
92,88,98087,1,0,0:0:0:0:
180,108,98275,1,0,0:0:0:0:
120,44,98462,1,0,0:0:0:0:
128,132,98650,5,2,0:0:0:0:
380,112,99962,1,2,0:0:0:0:
168,312,101650,1,2,0:0:0:0:
280,80,102962,1,2,0:0:0:0:
252,56,104650,6,0,P|196:88|180:120,1,75,2|0,0:0|0:0,0:0:0:0:
316,224,105212,2,0,P|304:160|272:136,1,75
144,248,105775,2,0,P|212:244|232:216,1,75,0|2,0:0|0:0,0:0:0:0:
152,72,106337,2,0,P|132:136|148:168,1,75
300,216,106900,5,2,0:0:0:0:
460,296,107275,1,0,0:0:0:0:
440,116,107650,1,2,0:0:0:0:
252,308,108212,1,0,0:0:0:0:
72,108,108775,1,0,0:0:0:0:
420,196,109525,1,0,0:0:0:0:
324,348,109900,1,0,0:0:0:0:
296,272,110650,6,0,P|352:248|352:216,1,75
376,152,111025,2,0,P|356:116|308:104,1,75
328,104,111587,1,0,0:0:0:0:
328,104,111962,2,0,B|240:108|176:140|160:212|144:252,1,225
156,220,112712,1,0,0:0:0:0:
174,53,113650,6,0,P|134:105|134:133,1,75
126,201,114025,2,0,P|150:257|170:269,1,75
160,264,114587,1,0,0:0:0:0:
160,264,114962,2,0,P|276:280|388:228,1,225
372,240,115712,1,0,0:0:0:0:
144,76,116650,6,0,P|144:132|164:156,1,75
324,88,117212,2,0,P|276:116|260:152,1,75
340,296,117775,2,0,P|320:244|288:224,1,75
132,280,118337,2,0,P|196:264|208:232,1,75
328,136,118900,1,0,0:0:0:0:
236,292,119275,1,0,0:0:0:0:
140,140,119650,1,0,0:0:0:0:
404,88,120212,1,0,0:0:0:0:
276,324,120775,1,0,0:0:0:0:
52,44,121525,1,0,0:0:0:0:
232,60,121900,5,0,0:0:0:0:
120,204,122275,1,0,0:0:0:0:
268,104,122650,5,0,0:0:0:0:
176,260,123025,1,0,0:0:0:0:
340,332,123400,1,0,0:0:0:0:
424,172,123775,1,0,0:0:0:0:
248,128,124150,1,0,0:0:0:0:
244,308,124525,1,0,0:0:0:0:
424,308,124900,1,0,0:0:0:0:
416,128,125275,1,0,0:0:0:0:
316,172,125650,6,0,P|368:208|400:196,1,89.9999972534181
440,180,126025,2,0,P|476:136|464:100,1,89.9999972534181
432,68,126400,2,0,P|384:44|344:60,1,89.9999972534181
320,100,126775,2,0,P|308:156|320:188,1,89.9999972534181
348,232,127150,2,0,P|364:296|328:328,1,89.9999972534181
308,344,127525,2,0,P|244:348|212:316,1,89.9999972534181
188,296,127900,2,0,P|176:248|192:212,1,89.9999972534181
228,176,128275,2,0,P|284:168|328:208,1,89.9999972534181
348,224,128650,5,0,0:0:0:0:
352,332,128837,1,0,0:0:0:0:
292,240,129025,1,0,0:0:0:0:
392,276,129212,1,0,0:0:0:0:
288,308,129400,5,0,0:0:0:0:
184,336,129587,1,0,0:0:0:0:
252,252,129775,1,0,0:0:0:0:
244,360,129962,1,0,0:0:0:0:
184,272,130150,5,0,0:0:0:0:
112,192,130337,1,0,0:0:0:0:
216,216,130525,1,0,0:0:0:0:
116,256,130712,1,0,0:0:0:0:
172,168,130900,5,0,0:0:0:0:
144,64,131087,1,0,0:0:0:0:
228,132,131275,1,0,0:0:0:0:
120,124,131462,1,0,0:0:0:0:
212,68,131650,5,0,0:0:0:0:
280,288,132212,1,0,0:0:0:0:
336,68,132775,1,0,0:0:0:0:
172,196,133525,1,0,0:0:0:0:
396,192,133900,1,0,0:0:0:0:
96,88,134650,6,0,P|80:136|104:204,1,89.9999972534181
108,224,135025,2,0,P|160:264|188:264,1,89.9999972534181
236,256,135400,2,0,L|336:224,3,89.9999972534181
364,196,136150,2,0,B|416:152|380:104|380:104,1,89.9999972534181
348,76,136525,2,0,P|284:56|248:76,1,89.9999972534181
220,92,136900,2,0,P|192:152|208:200,1,89.9999972534181
220,220,137275,2,0,P|260:248|312:240,1,89.9999972534181
352,240,137650,6,0,P|408:204|416:168,1,89.9999972534181
412,132,138025,1,0,0:0:0:0:
412,132,138212,1,0,0:0:0:0:
388,84,138400,2,0,P|352:44|304:32,1,89.9999972534181
264,28,138775,2,0,P|212:36|184:68,1,89.9999972534181
172,112,139150,2,0,P|176:176|208:208,1,89.9999972534181
236,228,139525,1,0,0:0:0:0:
236,228,139712,1,0,0:0:0:0:
288,240,139900,2,0,P|368:224|388:192,1,89.9999972534181
360,168,140275,2,0,P|312:156|276:180,1,89.9999972534181
292,240,140650,6,0,P|256:276|208:280,1,89.9999972534181
164,272,141025,2,0,P|120:244|104:204,1,89.9999972534181
100,156,141400,2,0,P|116:96|144:80,1,89.9999972534181
188,68,141775,2,0,P|252:64|296:104,1,89.9999972534181
320,104,142150,2,0,P|356:176|348:200,1,89.9999972534181
328,228,142525,2,0,P|288:268|224:264,1,89.9999972534181
204,264,142900,1,0,0:0:0:0:
156,236,143087,1,0,0:0:0:0:
128,192,143275,2,0,P|108:144|124:104,1,89.9999972534181
160,76,143650,5,0,0:0:0:0:
160,76,143837,1,0,0:0:0:0:
212,60,144025,2,0,P|268:64|296:92,1,89.9999972534181
320,132,144400,2,0,P|340:188|328:228,1,89.9999972534181
256,192,144775,12,0,146275,0:0:0:0:
316,220,146650,6,0,P|360:204|408:212,1,75,8|0,0:0|0:0,0:0:0:0:
420,288,147025,2,0,P|372:308|324:300,1,75
180,248,147587,1,0,0:0:0:0:
88,92,147962,2,0,B|176:64|248:116|328:92,1,225,8|0,0:0|0:0,0:0:0:0:
392,56,148712,1,8,0:0:0:0:
196,160,149087,2,0,L|256:208,2,75
104,148,149650,6,0,P|68:96|76:60,1,75,8|0,0:0|0:0,0:0:0:0:
144,40,150025,2,0,P|192:88|192:108,1,75
220,268,150587,1,0,0:0:0:0:
84,148,150962,2,0,P|136:64|248:128,1,225,8|0,0:0|0:0,0:0:0:0:
272,184,151712,1,8,0:0:0:0:
436,260,152087,1,0,0:0:0:0:
464,172,152275,2,0,P|440:112|420:100,1,75
340,108,152650,6,0,P|336:180|316:192,1,75,8|0,0:0|0:0,0:0:0:0:
160,192,153212,2,0,P|200:156|248:168,1,75,0|8,0:0|0:0,0:0:0:0:
388,216,153775,2,0,P|380:268|344:296,1,75,0|8,0:0|0:0,0:0:0:0:
220,176,154337,2,0,P|272:196|284:228,1,75,0|8,0:0|0:0,0:0:0:0:
120,296,154900,6,0,P|88:244|104:216,1,75,8|0,0:0|0:0,0:0:0:0:
120,152,155275,2,0,P|160:112|200:112,1,75,8|0,0:0|0:0,0:0:0:0:
264,88,155650,2,0,P|344:96|400:160,1,150,8|0,0:0|0:0,0:0:0:0:
420,236,156212,2,0,P|400:304|312:336,1,150,8|0,0:0|0:0,0:0:0:0:
232,332,156775,2,0,P|144:256|96:128,1,225,8|0,0:0|0:0,0:0:0:0:
92,68,157525,1,8,0:0:0:0:
272,84,157900,1,8,0:0:0:0:
376,188,158650,5,2,0:0:0:0:
212,156,159025,1,0,0:0:0:0:
264,232,159213,1,0,0:0:0:0:
312,96,159587,1,0,0:0:0:0:
140,144,159962,2,0,P|160:240|272:308,1,225,2|0,0:0|0:0,0:0:0:0:
348,308,160712,1,2,0:0:0:0:
252,72,161650,5,2,0:0:0:0:
224,236,162025,1,0,0:0:0:0:
300,184,162213,1,0,0:0:0:0:
160,136,162587,1,0,0:0:0:0:
208,308,162962,2,0,P|304:292|372:176,1,225,2|0,0:0|0:0,0:0:0:0:
372,100,163712,1,2,0:0:0:0:
152,72,164650,6,0,P|160:136|184:160,1,75,2|0,0:0|0:0,0:0:0:0:
344,128,165212,2,0,P|312:84|272:84,1,75,0|2,0:0|0:0,0:0:0:0:
228,248,165775,2,0,P|288:244|308:220,1,75,0|2,0:0|0:0,0:0:0:0:
272,56,166337,2,0,P|240:76|208:116,1,75,0|2,0:0|0:0,0:0:0:0:
320,252,166900,2,0,L|420:268,2,75,2|0|2,0:0|0:0|0:0,0:0:0:0:
160,168,167650,5,2,0:0:0:0:
380,320,168212,1,0,0:0:0:0:
340,52,168775,1,2,0:0:0:0:
104,324,169525,1,2,0:0:0:0:
220,184,169900,1,2,0:0:0:0:
220,96,170087,1,0,0:0:0:0:
140,140,170275,1,0,0:0:0:0:
220,184,170462,1,2,0:0:0:0:
