osu file format v14

[General]
AudioFilename: Zedd - Clarity feat. Foxes (IOSYS uno DENPA Remix).mp3
AudioLeadIn: 0
PreviewTime: -1
Countdown: 0
SampleSet: Soft
StackLeniency: 0.7
Mode: 0
LetterboxInBreaks: 1
WidescreenStoryboard: 0

[Editor]
DistanceSpacing: 1
BeatDivisor: 4
GridSize: 16
TimelineZoom: 1

[Metadata]
Title:Clarity (IOSYS uno DENPA Remix)
TitleUnicode:Clarity (IOSYS uno DENPA Remix)
Artist:Zedd feat. Foxes
ArtistUnicode:Zedd feat. Foxes
Creator:Wales
Version:Insane
Source:
Tags:Zedd Foxes Clarity IOSYS Remix
BeatmapID:774656
BeatmapSetID:351482

[Difficulty]
HPDrainRate:7
CircleSize:4
OverallDifficulty:8.5
ApproachRate:9.2
SliderMultiplier:1.6
SliderTickRate:2

[Events]
//Background and Video events
//Break Periods
2,40995,49825
2,81495,90625
2,103994,107425
2,123495,131425
//Storyboard Layer 0 (Background)
//Storyboard Layer 1 (Fail)
//Storyboard Layer 2 (Pass)
//Storyboard Layer 3 (Foreground)
//Storyboard Sound Samples

[TimingPoints]
11995,300,4,2,0,100,1,0
13120,-66.6666666666667,4,2,0,100,0,0
14100,-100,4,2,0,100,0,0
35395,-66.6666666666667,4,2,0,100,0,0
37120,-100,4,2,0,100,0,0
63220,-66.6666666666667,4,2,0,100,0,0
91120,-100,4,2,0,100,0,0
94795,-133.333333333333,4,2,0,100,0,0
95695,-66.6666666666667,4,2,0,100,0,0
95995,-133.333333333333,4,2,0,100,0,0
96895,-66.6666666666667,4,2,0,100,0,0
97195,-133.333333333333,4,2,0,100,0,0
98095,-66.6666666666667,4,2,0,100,0,0
103495,-50,4,2,0,100,0,0
107920,-100,4,2,0,100,0,0
113995,-66.6666666666667,4,2,0,100,0,0
117145,-50,4,2,0,100,0,0
117520,-100,4,2,0,100,0,0

[Colours]
Combo1 : 255,0,0
Combo2 : 0,255,255
Combo3 : 255,128,255
Combo4 : 255,255,0
Combo5 : 0,255,0

[HitObjects]
160,144,11995,5,0,0:0:0:0:
160,144,12145,1,0,0:0:0:0:
240,112,12295,2,0,P|336:160|368:208,1,160
364,201,12745,1,0,0:0:0:0:
320,288,12895,5,0,0:0:0:0:
320,288,13045,1,0,0:0:0:0:
208,288,13195,2,0,L|160:144,1,120.000004577637
208,96,13495,2,0,L|336:48,1,120.000004577637
400,96,13795,2,0,L|448:224,1,120.000004577637
416,256,14095,5,0,0:0:0:0:
336,304,14245,1,0,0:0:0:0:
256,256,14395,1,0,0:0:0:0:
192,320,14545,1,0,0:0:0:0:
112,272,14695,2,0,P|64:192|80:128,1,160
128,48,15145,1,0,0:0:0:0:
128,48,15295,1,0,0:0:0:0:
128,48,15445,1,0,0:0:0:0:
224,48,15595,6,0,L|336:48,2,80
224,48,16045,1,0,0:0:0:0:
224,112,16195,2,0,L|320:112,2,80
224,112,16645,1,0,0:0:0:0:
160,176,16795,6,0,P|160:240|256:320,1,160
320,320,17245,1,0,0:0:0:0:
400,256,17395,1,0,0:0:0:0:
432,160,17545,1,0,0:0:0:0:
416,64,17695,6,0,P|352:112|352:144,1,80
352,208,17995,1,0,0:0:0:0:
256,240,18145,1,0,0:0:0:0:
208,160,18295,2,0,L|208:64,2,80
256,240,18745,5,0,0:0:0:0:
352,208,18895,1,0,0:0:0:0:
432,144,19045,1,0,0:0:0:0:
352,96,19195,1,0,0:0:0:0:
352,96,19345,1,0,0:0:0:0:
160,96,19495,5,0,0:0:0:0:
160,96,19645,1,0,0:0:0:0:
160,272,19795,5,0,0:0:0:0:
160,272,19945,1,0,0:0:0:0:
352,272,20095,5,0,0:0:0:0:
352,272,20245,1,0,0:0:0:0:
432,144,20395,1,0,0:0:0:0:
432,144,20470,1,0,0:0:0:0:
432,144,20545,1,0,0:0:0:0:
432,240,20695,2,0,P|416:288|384:320,1,80
304,320,20995,5,0,0:0:0:0:
304,320,21070,1,0,0:0:0:0:
304,320,21145,1,0,0:0:0:0:
208,320,21295,2,0,P|160:304|128:272,1,80
112,192,21595,5,0,0:0:0:0:
112,192,21745,1,0,0:0:0:0:
144,96,21895,2,0,P|192:48|224:48,1,80
304,48,22195,5,0,0:0:0:0:
304,48,22345,1,0,0:0:0:0:
400,80,22495,2,0,P|384:144|352:176,1,80
320,240,22795,1,0,0:0:0:0:
224,240,22945,1,0,0:0:0:0:
224,336,23095,1,0,0:0:0:0:
320,336,23245,1,0,0:0:0:0:
400,288,23395,6,0,P|432:208|416:128,1,160
352,64,23845,1,0,0:0:0:0:
256,64,23995,1,0,0:0:0:0:
304,144,24145,1,0,0:0:0:0:
352,64,24295,1,0,0:0:0:0:
256,64,24445,1,0,0:0:0:0:
160,80,24595,6,0,P|112:96|80:144,1,80
64,208,24895,2,0,P|80:272|96:288,1,80
176,336,25195,1,0,0:0:0:0:
224,336,25270,1,0,0:0:0:0:
272,336,25345,1,0,0:0:0:0:
320,336,25420,1,0,0:0:0:0:
368,336,25495,1,0,0:0:0:0:
432,272,25645,1,0,0:0:0:0:
448,176,25795,5,0,0:0:0:0:
416,144,25870,1,0,0:0:0:0:
384,112,25945,1,0,0:0:0:0:
352,80,26020,1,0,0:0:0:0:
320,48,26095,1,0,0:0:0:0:
224,48,26245,1,0,0:0:0:0:
128,48,26395,1,0,0:0:0:0:
128,144,26545,1,0,0:0:0:0:
224,144,26695,6,0,L|320:176,1,80
304,272,26995,2,0,L|192:240,1,80
144,224,27295,1,0,0:0:0:0:
64,272,27445,1,0,0:0:0:0:
112,352,27595,1,0,0:0:0:0:
208,336,27745,1,0,0:0:0:0:
304,320,27895,6,0,L|368:256,1,80
416,192,28195,2,0,L|384:112,1,80
304,64,28495,2,0,L|192:64,1,80
128,80,28795,5,0,0:0:0:0:
96,112,28870,1,0,0:0:0:0:
64,144,28945,1,0,0:0:0:0:
64,272,29095,1,0,0:0:0:0:
64,272,29245,1,0,0:0:0:0:
208,336,29395,1,0,0:0:0:0:
240,304,29470,1,0,0:0:0:0:
272,272,29545,1,0,0:0:0:0:
288,176,29695,1,0,0:0:0:0:
288,176,29845,1,0,0:0:0:0:
352,96,29995,5,0,0:0:0:0:
398,85,30070,1,0,0:0:0:0:
442,103,30145,1,0,0:0:0:0:
463,145,30220,1,0,0:0:0:0:
463,193,30295,1,0,0:0:0:0:
448,288,30445,5,0,0:0:0:0:
408,315,30520,1,0,0:0:0:0:
360,315,30595,1,0,0:0:0:0:
326,281,30670,1,0,0:0:0:0:
292,247,30745,1,0,0:0:0:0:
248,225,30820,1,0,0:0:0:0:
201,236,30895,1,0,0:0:0:0:
174,275,30970,1,0,0:0:0:0:
140,308,31045,1,0,0:0:0:0:
80,256,31195,6,0,L|64:192,6,40
112,176,31795,2,0,L|112:112,6,40
128,96,32395,5,0,0:0:0:0:
176,64,32545,1,0,0:0:0:0:
231,45,32695,1,0,0:0:0:0:
304,48,32845,2,0,L|336:80,4,40
362,130,33295,5,0,0:0:0:0:
365,194,33445,1,0,0:0:0:0:
320,256,33595,2,0,L|288:288,4,40
221,295,34045,5,0,0:0:0:0:
155,280,34195,1,0,0:0:0:0:
107,234,34345,1,0,0:0:0:0:
112,144,34495,6,0,L|208:144,2,80
112,48,34945,1,0,0:0:0:0:
208,48,35095,1,0,0:0:0:0:
256,48,35170,1,0,0:0:0:0:
304,48,35245,1,0,0:0:0:0:
432,96,35395,6,0,P|400:192|336:208,1,120.000004577637
280,152,35695,2,0,L|224:192,4,60.0000022888184
400,224,36145,1,0,0:0:0:0:
344,267,36295,1,0,0:0:0:0:
286,308,36445,1,0,0:0:0:0:
144,304,36595,6,0,P|80:240|80:208,1,120.000004577637
224,176,36895,2,0,P|192:96|160:96,1,120.000004577637
32,96,37195,5,0,0:0:0:0:
32,144,37270,1,0,0:0:0:0:
32,192,37345,1,0,0:0:0:0:
32,240,37420,1,0,0:0:0:0:
32,288,37495,1,0,0:0:0:0:
128,304,37645,5,0,0:0:0:0:
224,304,37795,1,0,0:0:0:0:
320,304,37945,1,0,0:0:0:0:
400,240,38095,6,0,P|416:192|416:144,1,80
368,80,38395,2,0,P|320:64|272:64,1,80
192,64,38695,2,0,P|144:112|144:144,1,80
128,304,38995,5,0,0:0:0:0:
192,240,39145,1,0,0:0:0:0:
128,176,39295,1,0,0:0:0:0:
208,112,39445,1,0,0:0:0:0:
78,74,39595,6,0,P|78:170|222:234,1,240
217,234,40120,1,0,0:0:0:0:
246,225,40195,1,0,0:0:0:0:
275,210,40270,1,0,0:0:0:0:
296,190,40345,1,0,0:0:0:0:
378,98,40495,6,0,P|426:66|442:146,1,160
64,64,50395,5,0,0:0:0:0:
64,128,50545,1,0,0:0:0:0:
64,192,50695,1,0,0:0:0:0:
144,288,50995,5,0,0:0:0:0:
186,275,51070,1,0,0:0:0:0:
227,270,51145,1,0,0:0:0:0:
270,277,51220,1,0,0:0:0:0:
306,297,51295,1,0,0:0:0:0:
336,320,51370,1,0,0:0:0:0:
368,336,51445,1,0,0:0:0:0:
405,329,51520,1,0,0:0:0:0:
433,307,51595,1,0,0:0:0:0:
432,192,51895,5,0,0:0:0:0:
432,128,52045,1,0,0:0:0:0:
304,64,52345,5,0,0:0:0:0:
272,64,52420,1,0,0:0:0:0:
240,64,52495,1,0,0:0:0:0:
208,64,52570,1,0,0:0:0:0:
176,64,52645,1,0,0:0:0:0:
112,64,52795,5,0,0:0:0:0:
48,176,53095,2,0,L|48:272,2,80
112,176,53545,1,0,0:0:0:0:
176,176,53695,1,0,0:0:0:0:
286,127,53995,5,0,0:0:0:0:
322,117,54070,1,0,0:0:0:0:
363,121,54145,1,0,0:0:0:0:
398,141,54220,1,0,0:0:0:0:
416,180,54295,1,0,0:0:0:0:
414,222,54370,1,0,0:0:0:0:
389,261,54445,1,0,0:0:0:0:
272,320,54745,5,0,0:0:0:0:
208,320,54895,1,0,0:0:0:0:
144,320,55045,1,0,0:0:0:0:
80,320,55195,6,0,P|48:224|64:160,1,160
80,144,55570,1,0,0:0:0:0:
96,128,55645,1,0,0:0:0:0:
112,112,55720,1,0,0:0:0:0:
128,96,55795,1,0,0:0:0:0:
210,67,55945,2,0,P|264:75|296:59,1,80
368,48,56395,5,0,0:0:0:0:
432,48,56545,1,0,0:0:0:0:
432,112,56695,1,0,0:0:0:0:
432,176,56845,1,0,0:0:0:0:
432,304,57145,5,0,0:0:0:0:
400,304,57220,1,0,0:0:0:0:
368,304,57295,1,0,0:0:0:0:
336,304,57370,1,0,0:0:0:0:
304,304,57445,1,0,0:0:0:0:
272,304,57520,1,0,0:0:0:0:
240,304,57595,1,0,0:0:0:0:
160,208,57895,5,0,0:0:0:0:
96,176,58045,1,0,0:0:0:0:
96,240,58195,1,0,0:0:0:0:
160,208,58345,1,0,0:0:0:0:
96,176,58495,1,0,0:0:0:0:
96,240,58645,1,0,0:0:0:0:
128,304,58795,6,0,P|176:320|224:304,1,80
266,289,59095,2,0,P|314:257|330:225,1,80
352,176,59395,2,0,P|352:112|336:80,1,80
304,48,59695,5,0,0:0:0:0:
240,112,59845,1,0,0:0:0:0:
176,48,59995,1,0,0:0:0:0:
112,112,60145,1,0,0:0:0:0:
80,208,60295,6,0,P|128:272|208:288,1,160
304,272,60745,1,0,0:0:0:0:
320,176,60895,1,0,0:0:0:0:
336,80,61045,1,0,0:0:0:0:
432,64,61195,6,0,P|464:144|464:240,1,160
416,304,61645,1,0,0:0:0:0:
320,320,61795,1,0,0:0:0:0:
240,272,61945,1,0,0:0:0:0:
192,192,62095,6,0,P|128:224|128:256,1,80
160,320,62395,2,0,P|96:336|80:320,1,80
64,240,62695,1,0,0:0:0:0:
64,192,62770,1,0,0:0:0:0:
64,144,62845,1,0,0:0:0:0:
64,48,62995,5,0,0:0:0:0:
160,48,63145,1,0,0:0:0:0:
272,48,63295,2,0,P|320:112|320:160,1,120.000004577637
208,144,63595,1,0,0:0:0:0:
128,240,63745,1,0,0:0:0:0:
240,256,63895,2,0,P|368:240|384:224,1,120.000004577637
448,176,64195,5,0,0:0:0:0:
464,288,64345,1,0,0:0:0:0:
352,336,64495,2,0,P|288:272|272:224,1,120.000004577637
352,160,64795,2,0,P|288:96|208:64,1,120.000004577637
144,80,65095,5,0,0:0:0:0:
48,160,65245,1,0,0:0:0:0:
64,272,65395,1,0,0:0:0:0:
176,304,65545,1,0,0:0:0:0:
288,256,65695,6,0,P|352:192|352:144,1,120.000004577637
320,48,65995,1,0,0:0:0:0:
320,48,66145,1,0,0:0:0:0:
432,48,66295,5,0,0:0:0:0:
432,48,66445,1,0,0:0:0:0:
432,160,66595,5,0,0:0:0:0:
432,160,66745,1,0,0:0:0:0:
400,272,66895,6,0,P|304:336|256:320,1,120.000004577637
307,336,67195,1,0,0:0:0:0:
256,240,67345,1,0,0:0:0:0:
208,128,67495,1,0,0:0:0:0:
160,240,67645,1,0,0:0:0:0:
112,128,67795,1,0,0:0:0:0:
64,240,67945,1,0,0:0:0:0:
16,128,68095,6,0,P|64:64|144:64,1,120.000004577637
224,48,68395,1,0,0:0:0:0:
336,48,68545,1,0,0:0:0:0:
448,48,68695,2,0,P|448:160|416:176,1,120.000004577637
336,160,68995,6,0,L|208:160,2,120.000004577637
432,224,69445,1,0,0:0:0:0:
352,304,69595,1,0,0:0:0:0:
240,304,69745,1,0,0:0:0:0:
128,304,69895,6,0,L|0:304,2,120.000004577637
240,304,70345,1,0,0:0:0:0:
240,192,70495,1,0,0:0:0:0:
128,192,70645,1,0,0:0:0:0:
16,192,70795,6,0,P|64:96|208:64,1,240.000009155274
208,64,71170,1,0,0:0:0:0:
237,70,71245,1,0,0:0:0:0:
271,81,71320,1,0,0:0:0:0:
297,90,71395,1,0,0:0:0:0:
400,160,71545,5,0,0:0:0:0:
400,272,71695,1,0,0:0:0:0:
400,160,71845,1,0,0:0:0:0:
400,48,71995,6,0,L|480:48,4,60.0000022888184
304,128,72445,5,0,0:0:0:0:
176,112,72595,1,0,0:0:0:0:
112,208,72745,1,0,0:0:0:0:
192,288,72895,1,0,0:0:0:0:
288,224,73045,1,0,0:0:0:0:
400,272,73195,1,0,0:0:0:0:
304,352,73345,1,0,0:0:0:0:
192,336,73495,6,0,P|96:272|96:256,1,120.000004577637
64,224,73795,2,0,P|78:137|142:121,1,120.000004577637
160,96,74095,6,0,P|252:109|268:141,1,120.000004577637
320,224,74395,1,0,0:0:0:0:
384,320,74545,1,0,0:0:0:0:
448,224,74695,1,0,0:0:0:0:
384,112,74845,1,0,0:0:0:0:
272,64,74995,6,0,P|176:64|144:96,1,120.000004577637
80,160,75295,1,0,0:0:0:0:
176,224,75445,1,0,0:0:0:0:
208,336,75595,2,0,P|112:320|64:288,1,120.000004577637
112,192,75895,2,0,P|192:240|240:224,1,120.000004577637
224,112,76195,6,0,P|272:176|336:192,1,120.000004577637
384,96,76495,2,0,P|416:176|448:192,2,120.000004577637
272,48,76945,1,0,0:0:0:0:
160,48,77095,1,0,0:0:0:0:
160,160,77245,1,0,0:0:0:0:
160,272,77395,6,0,P|272:272|304:256,1,120.000004577637
384,224,77695,1,0,0:0:0:0:
448,320,77845,1,0,0:0:0:0:
336,320,77995,2,0,P|256:288|224:256,1,120.000004577637
144,176,78295,1,0,0:0:0:0:
96,64,78445,1,0,0:0:0:0:
208,80,78595,6,0,P|304:128|304:160,1,120.000004577637
304,240,78895,1,0,0:0:0:0:
208,304,79045,1,0,0:0:0:0:
96,272,79195,2,0,P|96:192|144:160,1,120.000004577637
224,112,79495,1,0,0:0:0:0:
336,80,79645,1,0,0:0:0:0:
448,144,79795,6,0,P|432:256|400:272,1,120.000004577637
424,264,80095,1,0,0:0:0:0:
401,279,80170,1,0,0:0:0:0:
375,295,80245,1,0,0:0:0:0:
346,305,80320,1,0,0:0:0:0:
313,312,80395,1,0,0:0:0:0:
208,304,80695,1,0,0:0:0:0:
96,96,80995,5,0,0:0:0:0:
208,96,81145,1,0,0:0:0:0:
320,96,81295,1,0,0:0:0:0:
256,192,91195,5,0,0:0:0:0:
128,96,91495,1,0,0:0:0:0:
80,160,91645,1,0,0:0:0:0:
64,240,91795,2,0,P|208:320|368:304,1,320
416,240,92545,5,0,0:0:0:0:
432,160,92695,1,0,0:0:0:0:
384,96,92845,1,0,0:0:0:0:
336,160,92995,1,0,0:0:0:0:
288,224,93145,1,0,0:0:0:0:
240,160,93295,1,0,0:0:0:0:
256,80,93445,1,0,0:0:0:0:
176,48,93595,6,0,P|112:64|96:96,1,80
64,144,93895,2,0,P|64:208|80:240,1,80
112,288,94195,2,0,P|176:320|192:320,1,80
256,320,94495,2,0,P|320:304|352:288,1,80
432,192,94795,6,0,P|368:112|336:96,1,120.000004577637
256,96,95245,2,0,P|288:176|320:192,1,120.000004577637
400,288,95695,6,0,P|336:320|272:288,1,120.000004577637
256,240,95995,6,0,P|176:240|128:272,1,120.000004577637
48,256,96445,2,0,P|48:176|80:144,1,120.000004577637
192,176,96895,6,0,P|192:112|128:64,1,120.000004577637
96,160,97195,2,0,P|128:240|176:272,1,120.000004577637
256,288,97645,2,0,P|336:288|384:256,1,120.000004577637
416,160,98095,6,0,P|384:96|320:80,1,120.000004577637
224,80,98395,1,0,0:0:0:0:
112,80,98545,1,0,0:0:0:0:
112,192,98695,1,0,0:0:0:0:
112,304,98845,1,0,0:0:0:0:
224,304,98995,1,0,0:0:0:0:
256,192,99145,1,0,0:0:0:0:
336,96,99295,1,0,0:0:0:0:
400,192,99445,1,0,0:0:0:0:
416,304,99595,6,0,P|304:320|160:288,1,240.000009155274
176,176,100045,2,0,P|336:160|416:192,1,240.000009155274
432,64,100495,6,0,L|304:64,1,120.000004577637
192,64,100795,6,0,P|160:128|288:224,1,240.000009155274
288,112,101245,2,0,P|384:176|368:288,1,240.000009155274
256,320,101695,6,0,L|128:304,1,120.000004577637
80,192,101995,6,0,P|96:112|240:80,1,240.000009155274
208,192,102445,2,0,P|336:192|384:96,1,240.000009155274
464,192,102895,5,0,0:0:0:0:
464,304,103045,1,0,0:0:0:0:
352,304,103195,1,0,0:0:0:0:
368,96,103495,2,0,P|256:240|112:256,1,320
416,80,107995,5,0,0:0:0:0:
416,80,108070,1,0,0:0:0:0:
416,80,108145,1,0,0:0:0:0:
336,96,108295,2,0,L|384:176|384:176,1,80
304,208,108595,5,0,0:0:0:0:
304,208,108670,1,0,0:0:0:0:
304,208,108745,1,0,0:0:0:0:
224,224,108895,2,0,L|256:304,1,80
336,320,109195,5,0,0:0:0:0:
400,272,109345,1,0,0:0:0:0:
432,192,109495,1,0,0:0:0:0:
416,112,109645,1,0,0:0:0:0:
336,80,109795,6,0,P|240:64|224:64,1,80
176,64,110095,2,0,P|112:80|80:96,1,80
96,160,110395,2,0,P|160:192|192:192,1,80
240,192,110695,2,0,P|304:176|336:160,1,80
384,128,110995,5,0,0:0:0:0:
432,64,111145,1,0,0:0:0:0:
464,144,111295,1,0,0:0:0:0:
448,224,111445,1,0,0:0:0:0:
368,256,111595,5,0,0:0:0:0:
352,288,111670,1,0,0:0:0:0:
336,320,111745,1,0,0:0:0:0:
256,320,111895,1,0,0:0:0:0:
256,320,112045,1,0,0:0:0:0:
176,256,112195,5,0,0:0:0:0:
160,288,112270,1,0,0:0:0:0:
144,320,112345,1,0,0:0:0:0:
64,320,112495,1,0,0:0:0:0:
64,320,112645,1,0,0:0:0:0:
64,208,112795,6,0,L|64:112,2,80
64,208,113245,1,0,0:0:0:0:
144,176,113395,6,0,L|144:96,2,80
144,176,113845,1,0,0:0:0:0:
208,80,113995,6,0,L|368:80,1,120.000004577637
432,128,114295,1,0,0:0:0:0:
400,240,114445,1,0,0:0:0:0:
304,176,114595,2,0,L|240:304,1,120.000004577637
128,304,114895,1,0,0:0:0:0:
128,304,115045,1,0,0:0:0:0:
64,208,115195,6,0,P|64:96|96:64,1,120.000004577637
176,48,115495,1,0,0:0:0:0:
288,48,115645,1,0,0:0:0:0:
400,96,115795,2,0,P|432:192|400:224,1,120.000004577637
352,288,116095,1,0,0:0:0:0:
352,288,116245,1,0,0:0:0:0:
272,192,116395,6,0,P|224:272|224:320,1,120.000004577637
112,256,116695,2,0,P|128:192|176:144,1,120.000004577637
272,80,116995,1,0,0:0:0:0:
416,144,117145,6,0,P|400:224|352:144,2,160
403,127,117520,1,0,0:0:0:0:
385,108,117595,1,0,0:0:0:0:
366,88,117670,1,0,0:0:0:0:
350,70,117745,1,0,0:0:0:0:
224,64,117895,1,0,0:0:0:0:
224,64,118045,1,0,0:0:0:0:
96,96,118195,5,0,0:0:0:0:
95,126,118270,1,0,0:0:0:0:
94,154,118345,1,0,0:0:0:0:
92,185,118420,1,0,0:0:0:0:
92,211,118495,1,0,0:0:0:0:
96,320,118645,5,0,0:0:0:0:
176,320,118795,1,0,0:0:0:0:
256,320,118945,1,0,0:0:0:0:
336,320,119095,6,0,L|400:240,1,80
416,176,119395,2,0,L|368:112,1,80
288,80,119695,2,0,L|208:80,1,80
128,112,119995,2,0,L|80:192,1,80
112,256,120295,2,0,L|192:320,1,80
256,304,120595,6,0,P|288:224|256:128,1,160
208,112,121045,1,0,0:0:0:0:
128,80,121195,1,0,0:0:0:0:
64,224,121495,1,0,0:0:0:0:
192,320,121795,1,0,0:0:0:0:
320,224,122095,1,0,0:0:0:0:
288,64,122395,5,0,0:0:0:0:
208,64,122545,1,0,0:0:0:0:
48,64,122845,1,0,0:0:0:0:
48,64,122995,1,0,0:0:0:0:
144,192,123295,1,0,0:0:0:0:
256,192,131995,5,0,0:0:0:0:
