osu file format v13

[General]
AudioFilename: Zedd feat. Matthew Koma & Miriam Bryant - Find You.mp3
AudioLeadIn: 0
PreviewTime: 152171
Countdown: 0
SampleSet: Soft
StackLeniency: 0.7
Mode: 0
LetterboxInBreaks: 0
WidescreenStoryboard: 0

[Editor]
Bookmarks: 7760,16549,34010,50885,65885,77135,77171,94010,124010,139010,154010,184010,195260
DistanceSpacing: 1.4
BeatDivisor: 4
GridSize: 4
TimelineZoom: 2.1

[Metadata]
Title:Find You (feat. Matthew Koma & Miriam Bryant)
TitleUnicode:Find You (feat. Matthew Koma & Miriam Bryant)
Artist:Zedd
ArtistUnicode:Zedd
Creator:Maeglwn
Version:Hard
Source:
Tags:electronic dance divergent
BeatmapID:405096
BeatmapSetID:166601

[Difficulty]
HPDrainRate:6
CircleSize:4
OverallDifficulty:6
ApproachRate:7
SliderMultiplier:1.6
SliderTickRate:2

[Events]
//Background and Video events
0,0,"Father and Daughter walking.jpg",0,0
Video,0,"Zedd - Find You - [Lyric Video] ft. Matthew Koma & Miriam Bryant.avi"
//Break Periods
2,50921,65021
2,124246,138146
//Storyboard Layer 0 (Background)
//Storyboard Layer 1 (Fail)
//Storyboard Layer 2 (Pass)
//Storyboard Layer 3 (Foreground)
//Storyboard Sound Samples
//Background Colour Transformations
3,100,163,162,255

[TimingPoints]
296,468.75,4,2,0,40,1,0
7796,-100,4,2,0,40,0,0
34046,-100,4,2,0,60,0,0
48108,-100,4,2,0,50,0,0
48577,-100,4,2,0,40,0,0
49046,-100,4,2,0,30,0,0
49514,-100,4,2,0,20,0,0
49983,-100,4,2,0,10,0,0
50452,-100,4,2,0,60,0,0
93811,-100,4,2,0,5,0,0
94046,-100,4,2,0,70,0,1
124046,-100,4,2,0,70,0,0
154046,-100,4,2,0,70,0,1
167171,-100,4,2,0,60,0,0
169046,-100,4,2,0,70,0,1
184046,-100,4,2,0,50,0,0
195764,-100,4,2,0,5,0,0

[Colours]
Combo1 : 114,241,241
Combo2 : 210,210,210
Combo3 : 141,180,252

[HitObjects]
77,171,8733,6,0,B|144:108|144:108|212:108,2,160,0|0|2,0:0|0:0|0:0,0:0:0:0:
180,292,10139,1,0,0:0:0:0:
248,332,10374,1,0,0:0:0:0:
328,332,10608,2,0,P|365:266|321:206,1,160,2|0,0:0|0:0,0:0:0:0:
216,80,11546,2,0,P|172:141|211:207,1,160,2|0,0:0|0:0,0:0:0:0:
292,196,12249,5,0,0:0:0:0:
292,196,12483,2,0,P|331:190|363:167,1,80,2|0,0:0|0:0,0:0:0:0:
392,92,12952,2,0,P|386:52|360:16,1,80,2|0,0:0|0:0,0:0:0:0:
312,80,13421,1,2,0:0:0:0:
444,156,13889,2,0,L|444:256,1,80
368,256,14358,1,0,0:0:0:0:
268,160,14827,2,0,L|217:98,1,80,0|2,0:0|0:0,0:0:0:0:
120,108,15296,6,0,L|171:170,1,80,0|2,0:0|0:0,0:0:0:0:
100,208,15764,2,0,L|151:270,1,80,0|2,0:0|0:0,0:0:0:0:
292,340,16467,1,2,0:0:0:0:
300,260,16702,1,2,0:0:0:0:
300,260,16936,2,0,P|257:167|282:121,1,160,2|2,0:0|0:0,0:0:0:0:
432,172,17874,2,0,P|475:265|450:311,1,160,2|2,0:0|0:0,0:0:0:0:
432,172,18811,1,0,0:0:0:0:
380,108,19046,2,0,B|304:76|304:76|231:102,1,160,0|0,0:0|0:0,0:0:0:0:
132,228,19983,5,0,0:0:0:0:
132,228,20217,2,0,P|113:289|118:308,1,80,0|2,0:0|0:0,0:0:0:0:
192,280,20686,2,0,P|239:287|345:219,2,160,2|2|0,0:0|0:0|0:0,0:0:0:0:
220,200,21858,2,0,L|220:104,1,80,2|2,0:0|0:0,0:0:0:0:
292,88,22327,2,0,L|292:184,1,80,2|2,0:0|0:0,0:0:0:0:
220,120,22796,1,0,0:0:0:0:
142,100,23030,2,0,L|50:100,1,80,2|0,0:0|0:0,0:0:0:0:
82,260,23733,6,0,L|170:262,1,80,2|0,0:0|0:0,0:0:0:0:
188,192,24202,2,0,P|244:351|348:271,1,320
430,124,25608,6,0,L|342:122,1,80,2|0,0:0|0:0,0:0:0:0:
310,192,26077,2,0,P|288:28|176:64,1,320
260,112,27249,1,2,0:0:0:0:
252,120,27483,1,0,0:0:0:0:
244,128,27717,2,0,L|172:192,1,80
236,264,28186,1,0,0:0:0:0:
327,304,28421,6,0,P|404:284|428:212,1,160,2|2,0:0|0:0,0:0:0:0:
346,224,29124,2,0,L|296:158,2,80,2|0|2,0:0|0:0|0:0,0:0:0:0:
328,304,29827,2,0,L|240:252,2,80,0|2|0,0:0|0:0|0:0,0:0:0:0:
244,344,30530,2,0,L|148:356,1,80,2|0,0:0|0:0,0:0:0:0:
228,212,31233,2,0,P|166:260|87:259,1,160
112,108,32171,6,0,P|131:64|178:21,1,80,0|2,0:0|0:0,0:0:0:0:
196,104,32639,2,0,P|211:159|243:187,1,80,0|2,0:0|0:0,0:0:0:0:
276,112,33108,1,2,0:0:0:0:
276,112,33342,1,2,0:0:0:0:
276,112,33577,1,0,0:0:0:0:
128,216,34046,6,0,L|127:131,2,80,0|0|2,1:0|0:0|0:0,0:0:0:0:
168,284,34749,2,0,P|204:304|268:280,1,80,0|0,1:0|0:0,0:0:0:0:
296,240,35217,1,0,0:0:0:0:
296,240,35452,2,0,P|260:220|196:244,1,80,0|0,1:0|0:0,0:0:0:0:
148,192,35921,1,0,0:0:0:0:
184,120,36155,2,0,B|244:56|244:56,1,80,0|0,1:0|0:0,0:0:0:0:
316,88,36624,2,0,B|256:152|256:152,1,80,0|0,0:0|0:0,0:0:0:0:
336,180,37092,1,0,0:0:0:0:
396,236,37327,1,8,1:0:0:0:
360,308,37561,1,0,0:0:0:0:
282,300,37796,6,0,L|202:297,1,80,0|0,1:0|0:0,0:0:0:0:
144,220,38264,1,0,0:0:0:0:
144,220,38499,2,0,L|224:223,1,80,0|0,1:0|0:0,0:0:0:0:
304,212,38967,1,0,0:0:0:0:
352,148,39202,2,0,P|351:109|336:72,1,80,0|2,1:0|0:0,0:0:0:0:
272,124,39671,1,0,0:0:0:0:
272,124,39905,2,0,B|216:192|216:192,1,80,0|0,1:0|0:0,0:0:0:0:
144,220,40374,1,0,0:0:0:0:
72,252,40608,1,0,0:0:0:0:
16,196,40842,1,0,0:0:0:0:
56,124,41077,1,8,1:0:0:0:
136,140,41311,1,0,0:0:0:0:
144,220,41546,6,0,L|244:220,1,80,0|0,1:0|0:0,0:0:0:0:
228,116,42014,1,0,0:0:0:0:
228,116,42249,2,0,L|128:116,1,80,0|0,1:0|0:0,0:0:0:0:
140,196,42717,1,0,0:0:0:0:
148,116,42952,1,0,1:0:0:0:
212,164,43186,1,0,0:0:0:0:
148,116,43421,1,0,0:0:0:0:
128,40,43655,2,0,B|60:80|60:80|60:248,1,240,0|0,1:0|0:0,0:0:0:0:
216,200,44827,1,8,1:0:0:0:
288,240,45061,1,0,0:0:0:0:
240,300,45296,6,0,P|144:312|76:253,1,160,0|2,1:0|0:0,0:0:0:0:
180,236,45999,2,0,P|276:224|344:283,1,160,0|2,1:0|0:0,0:0:0:0:
352,164,46702,2,0,P|428:180|497:143,1,160,0|2,1:0|0:0,0:0:0:0:
416,88,47405,1,4,1:0:0:0:
256,192,47522,12,8,50452,1:0:0:0:
364,204,65921,6,0,P|348:256|296:284,1,80,2|0,0:0|0:0,0:0:0:0:
320,352,66389,2,0,P|268:336|240:284,1,80,0|0,0:0|0:0,0:0:0:0:
172,316,66858,2,0,P|199:261|247:241,1,80,2|0,0:0|0:0,0:0:0:0:
224,172,67327,2,0,P|279:199|299:247,1,80,0|0,0:0|0:0,0:0:0:0:
136,172,67796,6,0,P|152:120|204:92,1,80,2|0,0:0|0:0,0:0:0:0:
168,24,68264,2,0,P|220:40|248:92,1,80,0|0,0:0|0:0,0:0:0:0:
316,59,68733,2,0,P|300:111|248:139,1,80,2|0,0:0|0:0,0:0:0:0:
284,207,69201,2,0,P|232:191|204:139,1,80,0|0,0:0|0:0,0:0:0:0:
164,236,69671,6,0,L|213:300,1,80,2|0,0:0|0:0,0:0:0:0:
292,284,70140,2,0,L|360:241,1,80,0|0,0:0|0:0,0:0:0:0:
420,188,70609,2,0,L|369:127,1,80,2|0,0:0|0:0,0:0:0:0:
300,88,71077,2,0,L|240:141,1,80,0|0,0:0|0:0,0:0:0:0:
304,188,71546,5,2,0:0:0:0:
368,232,71780,1,0,0:0:0:0:
364,312,72014,1,2,0:0:0:0:
300,268,72249,1,0,0:0:0:0:
228,304,72483,1,2,0:0:0:0:
232,224,72717,1,0,0:0:0:0:
304,188,72952,1,0,0:0:0:0:
236,144,73186,1,2,0:0:0:0:
180,84,73421,6,0,L|66:86,1,80,2|0,0:0|0:0,0:0:0:0:
68,160,73889,2,0,L|178:159,1,80,2|0,0:0|0:0,0:0:0:0:
184,232,74358,2,0,L|74:233,1,80,0|0,0:0|0:0,0:0:0:0:
140,304,74827,2,0,L|219:303,1,80,0|0,0:0|0:0,0:0:0:0:
352,240,75296,6,0,P|376:200|356:136,1,80,2|0,0:0|0:0,0:0:0:0:
320,112,75764,2,0,P|295:151|316:216,1,80,2|0,0:0|0:0,0:0:0:0:
352,240,76233,1,0,0:0:0:0:
280,276,76467,1,2,0:0:0:0:
200,292,76702,1,0,0:0:0:0:
164,220,76936,6,0,L|164:148,2,40,8|8|0,0:0|0:0|1:0,0:0:0:0:
244,208,77405,1,0,0:0:0:0:
316,172,77639,1,0,1:0:0:0:
240,112,77874,2,0,P|205:92|166:95,1,80,0|0,1:0|0:0,0:0:0:0:
240,112,78342,1,0,0:0:0:0:
240,112,78577,2,0,P|276:92|340:116,1,80,0|0,1:0|0:0,0:0:0:0:
292,188,79046,1,0,1:0:0:0:
292,188,79280,2,0,B|228:244|228:244,1,80,0|0,1:0|0:0,0:0:0:0:
160,280,79749,2,0,B|104:216|104:216,1,80,0|0,0:0|0:0,0:0:0:0:
60,156,80217,1,0,0:0:0:0:
80,80,80452,1,8,1:0:0:0:
156,56,80686,1,0,0:0:0:0:
230,84,80921,6,0,L|310:87,1,80,0|0,1:0|0:0,0:0:0:0:
284,164,81389,1,0,1:0:0:0:
284,164,81624,2,0,L|363:166,1,80,0|0,1:0|0:0,0:0:0:0:
448,192,82092,1,0,0:0:0:0:
436,272,82327,2,0,P|392:288|337:281,1,80,0|2,1:0|0:0,0:0:0:0:
288,320,82796,1,0,0:0:0:0:
240,260,83030,2,0,B|296:192|296:192,1,80,0|0,1:0|0:0,0:0:0:0:
340,260,83499,2,0,B|284:328|284:328,1,80,0|0,0:0|0:0,0:0:0:0:
368,340,83967,1,0,0:0:0:0:
452,336,84202,1,8,1:0:0:0:
452,336,84436,1,0,0:0:0:0:
452,336,84671,6,0,L|408:232,1,80,0|0,1:0|0:0,0:0:0:0:
364,208,85139,1,0,0:0:0:0:
284,208,85374,2,0,L|188:208,1,80,0|0,1:0|0:0,0:0:0:0:
124,212,85842,1,0,0:0:0:0:
92,288,86077,2,0,L|184:288,1,80,0|2,1:0|0:0,0:0:0:0:
256,336,86546,1,0,0:0:0:0:
256,336,86780,2,0,B|188:296|188:296|188:128,1,240,0|0,1:0|0:0,0:0:0:0:
336,196,87952,1,8,1:0:0:0:
264,160,88186,1,0,0:0:0:0:
272,84,88421,6,0,P|368:72|436:131,1,160,0|2,1:0|0:0,0:0:0:0:
332,148,89124,2,0,P|236:160|168:101,1,160,0|2,1:0|0:0,0:0:0:0:
160,220,89827,2,0,P|83:203|14:240,1,160,0|2,1:0|0:0,0:0:0:0:
96,288,90530,1,4,1:0:0:0:
256,192,90764,12,0,92639,0:0:0:0:
256,76,93108,6,0,L|256:116,5,26.6666666666667
256,120,93577,2,0,L|256:222,1,80,8|0,1:0|0:0,0:0:0:0:
164,232,94046,5,2,0:0:0:0:
120,316,94280,1,0,0:0:0:0:
216,312,94514,2,0,P|256:324|320:300,1,80,10|0,0:0|0:0,0:0:0:0:
260,244,94983,1,2,0:0:0:0:
260,244,95217,1,0,0:0:0:0:
260,244,95452,2,0,L|260:140,1,80,10|0,0:0|0:0,0:0:0:0:
348,88,95921,5,0,0:0:0:0:
432,40,96155,1,2,0:0:0:0:
432,136,96390,2,0,L|432:240,1,80,10|0,0:0|0:0,0:0:0:0:
432,312,96858,1,2,0:0:0:0:
336,316,97092,2,0,L|264:316,1,40
248,304,97327,2,0,P|208:276|184:224,1,80,10|8,0:0|0:0,0:0:0:0:
280,212,97796,5,2,0:0:0:0:
276,116,98030,1,0,0:0:0:0:
184,84,98264,1,10,0:0:0:0:
100,128,98498,1,0,0:0:0:0:
76,224,98733,2,0,P|88:268|132:308,1,80,2|0,0:0|0:0,0:0:0:0:
204,308,99202,2,0,P|192:264|148:224,1,80,10|0,0:0|0:0,0:0:0:0:
76,224,99671,5,2,0:0:0:0:
76,224,99905,1,0,0:0:0:0:
76,224,100139,2,0,P|76:168|104:128,1,80,10|0,0:0|0:0,0:0:0:0:
168,96,100608,1,2,0:0:0:0:
260,112,100842,2,0,L|332:112,1,40
348,124,101077,2,0,P|388:152|412:204,1,80,10|8,0:0|0:0,0:0:0:0:
316,212,101546,6,0,P|280:260|240:268,1,80,2|0,0:0|0:0,0:0:0:0:
172,236,102014,2,0,P|208:188|248:180,1,80,10|0,0:0|0:0,0:0:0:0:
316,212,102483,1,2,0:0:0:0:
400,256,102717,1,0,0:0:0:0:
424,164,102952,2,0,L|424:68,1,80,10|0,0:0|0:0,0:0:0:0:
328,80,103421,5,2,0:0:0:0:
248,132,103655,1,0,0:0:0:0:
192,208,103889,2,0,P|168:248|168:312,1,80,10|0,0:0|0:0,0:0:0:0:
260,276,104358,1,2,0:0:0:0:
356,256,104592,2,0,L|396:200,1,40
408,188,104827,2,0,P|456:172|484:132,1,80,10|8,0:0|0:0,0:0:0:0:
396,96,105296,5,2,0:0:0:0:
320,36,105530,1,0,0:0:0:0:
224,28,105764,1,10,0:0:0:0:
260,116,105998,1,0,0:0:0:0:
164,132,106233,2,0,P|184:184|228:208,1,80,2|0,0:0|0:0,0:0:0:0:
260,116,106702,2,0,P|287:144|297:182,1,80,10|0,0:0|0:0,0:0:0:0:
296,280,107171,5,2,0:0:0:0:
296,280,107405,1,0,0:0:0:0:
296,280,107639,2,0,L|352:336,1,80,10|0,0:0|0:0,0:0:0:0:
424,272,108108,1,2,0:0:0:0:
472,192,108342,1,0,0:0:0:0:
416,112,108577,1,10,0:0:0:0:
360,192,108811,1,0,0:0:0:0:
264,192,109046,1,6,0:0:0:0:
256,192,109163,12,2,110921,0:0:0:0:
104,48,111389,5,8,0:0:0:0:
116,144,111624,1,0,0:0:0:0:
196,88,111858,1,2,0:0:0:0:
212,184,112092,2,0,L|256:232,1,40
280,240,112327,2,0,P|319:245|358:237,1,80,10|8,0:0|0:0,0:0:0:0:
424,308,112796,6,0,P|384:336|328:328,1,80,2|0,0:0|0:0,0:0:0:0:
360,236,113264,2,0,P|400:208|456:216,1,80,10|0,0:0|0:0,0:0:0:0:
412,112,113733,1,2,0:0:0:0:
412,112,113967,1,0,0:0:0:0:
412,112,114202,2,0,L|304:112,1,80,10|0,0:0|0:0,0:0:0:0:
248,64,114671,5,2,0:0:0:0:
156,96,114905,1,0,0:0:0:0:
248,64,115139,2,0,L|248:160,1,80,10|0,0:0|0:0,0:0:0:0:
184,216,115608,1,2,0:0:0:0:
248,288,115842,2,0,L|275:317,1,40
317,344,116077,2,0,P|356:349|395:341,1,80,10|8,0:0|0:0,0:0:0:0:
356,252,116546,6,0,L|356:160,1,80,2|0,0:0|0:0,0:0:0:0:
284,112,117014,2,0,L|284:204,1,80,10|0,0:0|0:0,0:0:0:0:
228,272,117483,1,2,0:0:0:0:
144,316,117717,1,0,0:0:0:0:
64,264,117952,2,0,L|64:152,1,80,10|0,0:0|0:0,0:0:0:0:
200,156,118421,5,2,0:0:0:0:
284,112,118655,1,0,0:0:0:0:
364,164,118890,2,0,L|364:276,1,80,10|0,0:0|0:0,0:0:0:0:
388,336,119358,1,2,0:0:0:0:
292,336,119592,2,0,L|262:308,1,40
232,272,119827,2,0,P|226:232|234:193,1,80,10|8,0:0|0:0,0:0:0:0:
348,216,120296,6,0,L|387:138,2,80,2|0|10,0:0|0:0|0:0,0:0:0:0:
256,192,120999,1,2,0:0:0:0:
164,216,121233,2,0,L|125:138,2,80,2|0|10,0:0|0:0|0:0,0:0:0:0:
256,192,121936,1,0,0:0:0:0:
256,96,122171,1,2,0:0:0:0:
256,192,122288,12,6,124046,0:0:0:0:
148,248,139046,6,0,L|148:156,1,80,2|0,0:0|0:0,0:0:0:0:
200,84,139514,2,0,L|292:84,1,80,0|0,0:0|0:0,0:0:0:0:
364,136,139983,2,0,L|364:228,1,80,2|0,0:0|0:0,0:0:0:0:
312,300,140452,2,0,L|220:300,1,80,2|0,0:0|0:0,0:0:0:0:
144,140,140921,6,0,L|209:74,1,80,2|0,0:0|0:0,0:0:0:0:
308,80,141389,2,0,L|373:145,1,80,0|0,0:0|0:0,0:0:0:0:
368,244,141858,2,0,L|302:309,1,80,2|0,0:0|0:0,0:0:0:0:
216,324,142327,2,0,L|150:258,1,80,2|0,0:0|0:0,0:0:0:0:
152,172,142796,6,0,L|152:84,1,80,2|0,0:0|0:0,0:0:0:0:
232,148,143264,2,0,L|232:236,1,80,0|2,0:0|0:0,0:0:0:0:
308,164,143733,2,0,L|308:72,1,80,0|2,0:0|0:0,0:0:0:0:
384,144,144202,2,0,L|384:236,1,80,2|0,0:0|0:0,0:0:0:0:
288,288,144671,2,0,L|200:288,1,80,2|0,0:0|0:0,0:0:0:0:
148,212,145139,2,0,L|236:212,1,80,2|2,0:0|0:0,0:0:0:0:
376,308,145608,2,0,L|456:308,1,80,0|2,0:0|0:0,0:0:0:0:
404,228,146077,2,0,L|324:228,1,80,0|2,0:0|0:0,0:0:0:0:
416,132,146546,6,0,L|484:131,3,40,2|0|0|0,0:0|0:0|0:0|0:0,0:0:0:0:
476,166,147014,2,0,L|476:234,3,40,2|0|0|0,0:0|0:0|0:0|0:0,0:0:0:0:
443,226,147483,2,0,L|374:226,3,40,0|0|0|0,0:0|0:0|0:0|0:0,0:0:0:0:
383,192,147952,2,0,L|382:123,3,40,0|0|0|0,0:0|0:0|0:0|0:0,0:0:0:0:
308,176,148421,6,0,L|255:229,3,40,2|0|0|0,0:0|0:0|0:0|0:0,0:0:0:0:
199,188,148889,2,0,L|143:137,3,40,2|0|0|0,0:0|0:0|0:0|0:0,0:0:0:0:
176,81,149358,2,0,L|226:26,3,40,2|0|0|0,0:0|0:0|0:0|0:0,0:0:0:0:
283,64,149827,2,0,L|336:115,3,40,2|0|0|0,0:0|0:0|0:0|0:0,0:0:0:0:
256,192,150296,12,0,153577,0:0:0:0:
352,152,154046,5,6,0:0:0:0:
396,68,154280,1,0,0:0:0:0:
300,72,154514,2,0,P|260:60|196:84,1,80,10|0,0:0|0:0,0:0:0:0:
252,168,154983,1,2,0:0:0:0:
252,168,155217,1,0,0:0:0:0:
252,168,155452,2,0,L|252:272,1,80,10|0,0:0|0:0,0:0:0:0:
168,296,155921,5,0,0:0:0:0:
84,344,156155,1,2,0:0:0:0:
84,248,156390,2,0,L|84:144,1,80,10|0,0:0|0:0,0:0:0:0:
84,72,156858,1,2,0:0:0:0:
180,68,157092,2,0,L|252:68,1,40
268,80,157327,2,0,P|308:108|332:160,1,80,10|8,0:0|0:0,0:0:0:0:
236,168,157796,5,2,0:0:0:0:
252,264,158030,1,0,0:0:0:0:
344,296,158264,1,10,0:0:0:0:
428,252,158498,1,0,0:0:0:0:
440,160,158733,2,0,P|428:116|384:76,1,80,2|0,0:0|0:0,0:0:0:0:
312,76,159202,2,0,P|324:120|368:160,1,80,10|0,0:0|0:0,0:0:0:0:
440,160,159671,5,2,0:0:0:0:
440,160,159905,1,0,0:0:0:0:
440,160,160139,2,0,L|440:256,1,80,10|0,0:0|0:0,0:0:0:0:
352,276,160608,1,2,0:0:0:0:
256,272,160842,2,0,L|184:272,1,40
168,260,161077,2,0,P|128:232|104:180,1,80,10|8,0:0|0:0,0:0:0:0:
204,172,161546,6,0,P|240:124|280:116,1,80,2|0,0:0|0:0,0:0:0:0:
348,144,162014,2,0,P|312:192|272:200,1,80,10|0,0:0|0:0,0:0:0:0:
204,172,162483,1,2,0:0:0:0:
120,128,162717,1,0,0:0:0:0:
92,220,162952,2,0,L|92:316,1,80,10|0,0:0|0:0,0:0:0:0:
188,304,163421,5,2,0:0:0:0:
268,252,163655,1,0,0:0:0:0:
324,176,163889,2,0,P|348:136|344:72,1,80,10|0,0:0|0:0,0:0:0:0:
256,108,164358,1,2,0:0:0:0:
152,112,164592,2,0,L|140:184,1,40
132,200,164827,2,0,P|100:223|61:233,1,80,10|8,0:0|0:0,0:0:0:0:
152,112,165296,6,0,L|226:60,1,80,2|0,0:0|0:0,0:0:0:0:
264,188,165764,1,8,0:0:0:0:
337,91,165999,2,0,L|389:165,1,80,2|0,0:0|0:0,0:0:0:0:
264,188,166467,1,0,0:0:0:0:
368,248,166702,2,0,L|294:300,1,80,10|0,0:0|0:0,0:0:0:0:
196,324,167171,6,0,L|123:269,1,80,0|0,0:0|0:0,0:0:0:0:
108,158,167639,2,0,L|180:212,1,80,8|0,0:0|0:0,0:0:0:0:
244,268,168108,1,8,0:0:0:0:
300,348,168342,1,2,0:0:0:0:
356,276,168577,2,0,L|356:172,1,80,8|0,0:0|0:0,0:0:0:0:
264,188,169046,6,0,L|204:118,1,80,6|0,0:0|0:0,0:0:0:0:
128,172,169514,1,10,0:0:0:0:
128,172,169749,2,0,L|188:242,1,80,2|0,0:0|0:0,0:0:0:0:
120,324,170217,1,2,0:0:0:0:
120,324,170452,2,0,L|200:324,1,80
268,256,170921,5,0,0:0:0:0:
328,332,171155,1,2,0:0:0:0:
384,256,171389,1,10,0:0:0:0:
440,332,171624,1,0,0:0:0:0:
384,256,171858,1,2,0:0:0:0:
316,188,172092,2,0,L|272:140,1,40
248,136,172327,2,0,P|208:130|168:136,1,80,10|8,0:0|0:0,0:0:0:0:
104,76,172796,6,0,P|144:48|200:56,1,80,2|0,0:0|0:0,0:0:0:0:
168,136,173264,2,0,P|128:164|72:156,1,80,10|0,0:0|0:0,0:0:0:0:
4,188,173733,1,2,0:0:0:0:
0,284,173967,1,0,0:0:0:0:
88,300,174202,2,0,L|196:300,1,80,10|0,0:0|0:0,0:0:0:0:
252,348,174671,5,2,0:0:0:0:
344,316,174905,1,0,0:0:0:0:
252,348,175139,2,0,L|252:252,1,80,10|0,0:0|0:0,0:0:0:0:
316,196,175608,1,2,0:0:0:0:
252,124,175842,2,0,L|224:94,1,40
183,68,176077,2,0,P|143:62|104:70,1,80,10|8,0:0|0:0,0:0:0:0:
144,160,176546,6,0,L|144:252,1,80,2|0,0:0|0:0,0:0:0:0:
216,300,177014,2,0,L|216:208,1,80,10|0,0:0|0:0,0:0:0:0:
272,140,177483,1,2,0:0:0:0:
356,96,177717,1,0,0:0:0:0:
436,148,177952,2,0,L|436:260,1,80,10|0,0:0|0:0,0:0:0:0:
300,256,178421,5,2,0:0:0:0:
216,300,178655,1,0,0:0:0:0:
136,248,178890,2,0,L|136:136,1,80,10|0,0:0|0:0,0:0:0:0:
112,76,179358,1,0,0:0:0:0:
204,48,179592,2,0,L|240:63,1,40
282,87,179827,2,0,P|298:119|305:161,1,80,10|8,0:0|0:0,0:0:0:0:
240,254,180296,6,0,L|318:293,2,80,0|0|10,1:0|0:0|0:0,0:0:0:0:
242,133,180999,2,0,L|326:106,2,80,0|2|0,1:0|0:0|0:0,0:0:0:0:
148,192,181702,2,0,L|68:192,2,80,0|0|0,1:0|0:0|0:0,0:0:0:0:
260,192,182404,1,4,1:0:0:0:
256,192,182522,12,2,184046,0:0:0:0:
104,92,184983,5,2,0:0:0:0:
104,92,185217,1,0,0:0:0:0:
104,92,185452,2,0,P|112:150|204:178,1,160
408,92,186858,5,2,0:0:0:0:
408,92,187092,1,0,0:0:0:0:
408,92,187327,2,0,P|400:150|308:178,1,160
170,297,188499,2,0,L|108:210,1,80,2|0,0:0|0:0,0:0:0:0:
78,297,188967,2,0,L|-16:254,1,80,0|2,0:0|0:0,0:0:0:0:
88,167,189671,6,0,P|128:89|207:87,1,160,2|2,0:0|0:0,0:0:0:0:
288,88,190374,1,0,0:0:0:0:
288,88,190608,2,0,P|248:166|169:168,1,160,2|2,0:0|0:0,0:0:0:0:
104,228,191311,1,0,0:0:0:0:
56,312,191546,2,0,L|136:344,1,80
220,316,192014,2,0,P|260:238|339:236,1,160,2|2,0:0|0:0,0:0:0:0:
320,64,193421,5,0,0:0:0:0:
400,64,193655,2,0,L|444:148,2,80,2|0|2,0:0|0:0|0:0,0:0:0:0:
352,140,194358,1,2,0:0:0:0:
272,140,194592,1,2,0:0:0:0:
308,212,194827,1,0,0:0:0:0:
256,192,195296,12,0,202796,0:0:0:0:
