osu file format v14

[General]
AudioFilename: Zedd - Dovregubben[192kbps].mp3
AudioLeadIn: 0
PreviewTime: 53407
Countdown: 0
SampleSet: Soft
StackLeniency: 0.7
Mode: 0
LetterboxInBreaks: 1
WidescreenStoryboard: 1

[Editor]
Bookmarks: 30959,53407,81466,88948,111396,141326
DistanceSpacing: 2
BeatDivisor: 4
GridSize: 4
TimelineZoom: 1

[Metadata]
Title:Dovregubben (One Love Club Electro remix)
TitleUnicode:Dovregubben (One Love Club Electro remix)
Artist:Zedd
ArtistUnicode:Zedd
Creator:Imperf3kt
Version:Experimental
Source:
Tags:techno electro remix hall of the mountain king
BeatmapID:869474
BeatmapSetID:399444

[Difficulty]
HPDrainRate:8
CircleSize:6
OverallDifficulty:8.5
ApproachRate:9.5
SliderMultiplier:1.8
SliderTickRate:2

[Events]
//Background and Video events
0,0,"bg.jpg",0,0
//Break Periods
//Storyboard Layer 0 (Background)
//Storyboard Layer 1 (Fail)
//Storyboard Layer 2 (Pass)
//Storyboard Layer 3 (Foreground)
//Storyboard Sound Samples

[TimingPoints]
1030,467.653936087295,4,2,0,100,1,0
30959,-111.111111111111,4,2,0,100,0,0
49666,-66.6666666666667,4,2,0,100,0,0
53173,-111.111111111111,4,2,0,100,0,0
60889,-90.9090909090908,4,2,0,100,0,0
64630,-66.6666666666667,4,2,0,100,0,0
80998,-90.9090909090909,4,2,0,100,0,0
87545,-133.333333333333,4,2,0,100,0,0
88948,-90.9090909090909,4,2,0,100,0,0
91988,-125,4,2,0,100,0,0
92690,-90.9090909090909,4,2,0,100,0,0

[HitObjects]
256,192,27218,12,0,30492,0:0:0:0:
188,116,30959,5,0,0:0:0:0:
124,179,31193,2,0,L|66:237,1,80.9999975280763
124,304,31661,1,0,0:0:0:0:
176,376,31895,2,0,B|216:376|216:344|248:344|248:292|308:292,1,161.999995056153
452,272,32596,1,0,0:0:0:0:
452,272,32830,2,0,B|392:272|392:324|360:324|360:356|320:356,1,161.999995056153
320,355,33531,1,0,0:0:0:0:
248,284,33765,5,0,0:0:0:0:
176,232,33999,1,0,0:0:0:0:
256,192,34233,1,0,0:0:0:0:
256,192,34467,1,0,0:0:0:0:
168,124,34701,6,0,P|128:96|96:92,1,80.9999975280763
180,124,35168,2,0,P|211:99|251:91,1,80.9999975280763
356,152,35636,1,0,0:0:0:0:
264,232,35870,1,0,0:0:0:0:
144,212,36104,1,0,0:0:0:0:
108,96,36337,2,0,P|72:112|44:148,1,80.9999975280763
160,96,36805,2,0,P|196:112|224:148,1,80.9999975280763
132,64,37273,2,0,L|132:144,1,80.9999975280763
428,80,38442,6,0,P|436:168|432:184,1,80.9999975280763
356,128,38909,2,0,P|346:167|346:207,1,80.9999975280763
404,276,39377,1,0,0:0:0:0:
324,236,39611,1,0,0:0:0:0:
324,236,39728,1,0,0:0:0:0:
328,324,39845,1,0,0:0:0:0:
180,224,40079,1,0,0:0:0:0:
180,224,40312,1,0,0:0:0:0:
260,184,40546,1,0,0:0:0:0:
260,184,40663,1,0,0:0:0:0:
256,272,40780,1,0,0:0:0:0:
76,264,41014,1,0,0:0:0:0:
76,264,41248,6,0,B|88:248|88:248|64:208|64:208|76:192,1,80.9999975280763
72,196,41598,1,0,0:0:0:0:
72,196,41715,1,0,0:0:0:0:
308,128,41949,1,0,0:0:0:0:
308,128,42183,6,0,L|376:176,1,80.9999975280763
260,128,42651,2,0,L|192:176,1,80.9999975280763
284,256,43118,2,0,L|284:172,1,80.9999975280763
284,52,43586,1,0,0:0:0:0:
196,48,43820,2,0,B|144:92|164:160|164:160|100:160|44:208|60:248,1,242.999992584229
176,168,44755,1,0,0:0:0:0:
176,168,44872,1,0,0:0:0:0:
176,168,44989,1,0,0:0:0:0:
256,188,45457,5,0,0:0:0:0:
256,188,45924,2,0,L|256:352,1,161.999995056153
256,350,46626,1,0,0:0:0:0:
256,188,46860,2,0,L|420:188,1,161.999995056153
418,188,47561,1,0,0:0:0:0:
256,188,47795,2,0,L|256:24,1,161.999995056153
256,26,48496,1,0,0:0:0:0:
256,188,48730,2,0,L|92:188,1,161.999995056153
94,188,49432,1,0,0:0:0:0:
92,24,49666,5,0,0:0:0:0:
61,98,49899,1,0,0:0:0:0:
30,173,50133,1,0,0:0:0:0:
64,248,50367,1,0,0:0:0:0:
108,316,50601,1,0,0:0:0:0:
188,316,50835,1,0,0:0:0:0:
256,272,51068,1,0,0:0:0:0:
324,316,51302,1,0,0:0:0:0:
352,240,51536,1,0,0:0:0:0:
408,300,51770,1,0,0:0:0:0:
436,224,52004,1,0,0:0:0:0:
496,280,52238,1,0,0:0:0:0:
508,200,52471,1,0,0:0:0:0:
280,116,52822,1,0,0:0:0:0:
280,116,52939,1,0,0:0:0:0:
52,200,53407,6,0,B|84:224|84:224|84:264,1,80.9999975280763
140,196,53874,1,0,0:0:0:0:
228,184,54108,2,0,B|196:160|196:160|196:120,3,80.9999975280763
236,68,55044,1,0,0:0:0:0:
236,68,55277,2,0,B|268:92|268:92|268:132,2,80.9999975280763
400,68,55979,1,0,0:0:0:0:
400,68,56213,2,0,P|412:128|400:152,2,80.9999975280763
384,196,56914,1,0,0:0:0:0:
288,284,57148,5,0,0:0:0:0:
269,187,57382,1,0,0:0:0:0:
341,254,57616,1,0,0:0:0:0:
243,242,57849,1,0,0:0:0:0:
329,194,58083,1,0,0:0:0:0:
287,283,58317,1,0,0:0:0:0:
269,187,58551,1,0,0:0:0:0:
341,254,58785,1,0,0:0:0:0:
341,254,59019,1,0,0:0:0:0:
269,187,59252,1,0,0:0:0:0:
287,283,59486,1,0,0:0:0:0:
329,194,59720,1,0,0:0:0:0:
243,242,59954,1,0,0:0:0:0:
292,232,60422,1,0,0:0:0:0:
128,60,60889,6,0,P|148:136|148:156,1,99.0000030212403
200,48,61357,2,0,P|220:124|220:144,1,99.0000030212403
272,36,61825,2,0,P|292:112|292:132,2,99.0000030212403
292,131,62760,2,0,P|288:82|272:36,2,99.0000030212403
48,300,63695,5,0,0:0:0:0:
196,292,63929,1,0,0:0:0:0:
52,256,64163,1,0,0:0:0:0:
288,308,64630,1,0,0:0:0:0:
200,52,64864,1,0,0:0:0:0:
408,224,65098,1,0,0:0:0:0:
136,224,65332,1,0,0:0:0:0:
344,52,65566,1,0,0:0:0:0:
235,298,65800,1,0,0:0:0:0:
259,28,66034,1,0,0:0:0:0:
379,270,66268,1,0,0:0:0:0:
131,160,66502,1,0,0:0:0:0:
391,87,66736,1,0,0:0:0:0:
201,268,66969,1,0,0:0:0:0:
328,29,67203,1,0,0:0:0:0:
344,299,67437,1,0,0:0:0:0:
256,192,68372,12,0,80998,0:0:0:0:
256,188,81466,5,0,0:0:0:0:
56,192,81934,1,0,0:0:0:0:
160,360,82401,1,0,0:0:0:0:
360,360,82869,1,0,0:0:0:0:
256,256,83103,1,0,0:0:0:0:
256,256,83220,1,0,0:0:0:0:
256,256,83337,1,0,0:0:0:0:
140,164,83570,1,0,0:0:0:0:
140,164,83687,1,0,0:0:0:0:
140,164,83804,1,0,0:0:0:0:
276,104,84038,1,0,0:0:0:0:
128,96,84272,1,0,0:0:0:0:
52,32,84506,1,0,0:0:0:0:
52,32,84623,1,0,0:0:0:0:
52,32,84740,2,0,B|40:52|40:52|44:56|44:56|40:60|40:60|44:64|44:64|40:68|40:68|44:72|44:72|40:76|40:76|44:80|44:80|40:84|40:84|44:88|44:88|40:92|40:92|44:96|44:96|40:100|40:100|44:104|44:104|40:108,2,99.0000030212403
200,52,85441,5,0,0:0:0:0:
200,52,85558,1,0,0:0:0:0:
200,52,85675,2,0,B|236:88|236:88|220:104|220:104|240:124,1,99.0000030212403
380,76,86143,1,0,0:0:0:0:
428,132,86259,1,0,0:0:0:0:
352,140,86376,1,0,0:0:0:0:
304,52,86610,2,0,B|268:88|268:88|284:104|284:104|264:124,1,99.0000030212403
160,228,87078,5,0,0:0:0:0:
208,284,87195,1,0,0:0:0:0:
136,296,87312,1,0,0:0:0:0:
72,108,87545,2,0,L|72:244,1,135.000005149842
156,56,88481,2,0,L|156:192,1,135.000005149842
304,92,89416,5,0,0:0:0:0:
304,92,89884,1,0,0:0:0:0:
304,92,90118,2,0,B|292:112|292:112|296:116|296:116|292:120|292:120|296:124|296:124|292:128|292:128|296:132|296:132|292:136|292:136|296:140|296:140|292:144|292:144|296:148|296:148|292:152|292:152|296:156|296:156|292:160|292:160|296:164|296:164|292:168,2,99.0000030212403
200,52,90819,5,0,0:0:0:0:
200,52,90936,1,0,0:0:0:0:
200,52,91053,2,0,B|236:88|236:88|220:104|220:104|240:124,1,99.0000030212403
380,76,91521,1,0,0:0:0:0:
380,76,91637,1,0,0:0:0:0:
380,76,91754,1,0,0:0:0:0:
304,52,91988,2,0,B|268:88|268:88|268:100|268:100|256:100|256:100|256:112|256:112|244:112|244:112|244:124|244:124|232:124|232:124|232:136|232:136|220:136|220:136|220:148|220:148|180:188,1,216
