osu file format v12

[General]
AudioFilename: Zedd - Clarity feat. Foxes (IOSYS uno DENPA Remix).mp3
AudioLeadIn: 0
PreviewTime: 62389
Countdown: 0
SampleSet: Soft
StackLeniency: 0.7
Mode: 0
LetterboxInBreaks: 1

[Editor]
DistanceSpacing: 0.8
BeatDivisor: 4
GridSize: 8

[Metadata]
Title:Clarity feat. Foxes (IOSYS uno DENPA Remix)
TitleUnicode:Clarity feat. Foxes (IOSYS uno DENPA Remix)
Artist:Zedd
ArtistUnicode:Zedd
Creator:Clementine
Version:Insane
Source:
Tags:
BeatmapID:236344
BeatmapSetID:86228

[Difficulty]
HPDrainRate:6
CircleSize:4
OverallDifficulty:8
ApproachRate:9
SliderMultiplier:1.8
SliderTickRate:1

[Events]
//Background and Video events
0,0,"bg.jpg",1,1
//Break Periods
2,31187,40189
2,81789,90589
2,104395,107389
2,142989,151789
2,164387,173389
//Storyboard Layer 0 (Background)
//Storyboard Layer 1 (Fail)
//Storyboard Layer 2 (Pass)
//Storyboard Layer 3 (Foreground)
//Storyboard Sound Samples
//Background Colour Transformations
3,100,163,162,255

[TimingPoints]
1189,300,4,2,1,70,1,0
11389,-133.333333333333,4,2,1,70,0,0
11689,-100,4,2,1,70,0,0
40789,-133.333333333333,4,2,1,70,0,0
50389,-100,4,2,1,70,0,0
62389,-100,4,2,1,70,0,1
81589,-100,4,2,1,70,0,0
94789,-133.333333333333,4,2,1,70,0,0
109189,-100,4,2,1,70,0,0
123589,-133.333333333333,4,2,1,70,0,0
133189,-100,4,2,1,70,0,1
141589,-133.333333333333,4,2,1,70,0,1
142789,-100,4,2,1,70,0,0
173989,-100,4,2,1,70,0,1
193189,-100,4,2,1,70,0,0

[Colours]
Combo1 : 145,238,193
Combo2 : 236,159,247
Combo3 : 234,53,171
Combo4 : 251,254,112

[HitObjects]
304,135,1189,2,0,L|333:101,3,45,0|0|0|0,0:0|0:0|0:0|0:0,0:0:0:0:
403,132,1489,2,0,L|374:166,3,45
443,199,1789,1,0,0:0:0:0:
444,225,1864,1,0,0:0:0:0:
443,251,1939,1,0,0:0:0:0:
439,277,2014,1,0,0:0:0:0:
428,301,2089,1,0,0:0:0:0:
409,320,2164,1,0,0:0:0:0:
384,331,2239,1,0,0:0:0:0:
357,338,2314,1,0,0:0:0:0:
330,340,2389,6,0,P|283:341|248:319,1,90,2|0,0:0|0:0,0:0:0:0:
201,164,2689,2,0,P|248:163|283:185,1,90
199,267,2989,1,2,0:0:0:0:
92,250,3139,1,2,0:0:0:0:
62,146,3289,1,0,0:0:0:0:
137,68,3439,1,0,0:0:0:0:
245,68,3589,6,0,P|333:82|393:145,1,180,2|0,0:0|0:0,0:0:0:0:
410,271,4039,1,2,0:0:0:0:
410,271,4339,1,2,0:0:0:0:
292,227,4489,2,0,P|253:250|235:289,1,90
410,271,4789,6,0,P|449:248|467:209,1,90,2|0,0:0|0:0,0:0:0:0:
431,106,5089,1,0,0:0:0:0:
312,148,5239,1,0,0:0:0:0:
312,148,5314,1,0,0:0:0:0:
312,148,5389,2,2,P|273:125|255:86,1,90
132,58,5689,1,0,0:0:0:0:
59,172,5839,1,0,0:0:0:0:
101,300,5989,6,0,B|144:341|144:341|176:323|220:315|264:319,1,180,2|0,0:0|0:0,0:0:0:0:
388,323,6439,1,2,0:0:0:0:
388,323,6739,1,2,0:0:0:0:
472,229,6889,2,0,P|438:199|394:196,1,90
394,195,7114,1,0,0:0:0:0:
394,195,7189,6,0,L|316:238,1,90,2|0,0:0|0:0,0:0:0:0:
162,226,7489,2,0,L|240:183,1,90
317,49,7789,2,2,L|238:91,1,90
142,144,8089,1,0,0:0:0:0:
47,196,8239,1,0,0:0:0:0:
214,263,8389,6,0,P|135:307|57:275,1,180,2|0,0:0|0:0,0:0:0:0:
125,88,8839,2,0,P|204:44|282:76,1,180,2|2,0:0|0:0,0:0:0:0:
288,202,9289,1,0,0:0:0:0:
358,296,9439,1,0,0:0:0:0:
466,251,9589,1,2,0:0:0:0:
256,192,9664,12,0,10789,0:0:0:0:
256,192,10939,5,2,0:0:0:0:
256,192,11089,1,2,0:0:0:0:
256,192,11389,2,0,L|256:328,1,135.000005149842,2|0,0:0|0:0,0:0:0:0:
223,69,11989,6,0,P|212:115|180:139,1,90
72,92,12289,2,0,P|51:180|93:256,1,180
190,209,12739,1,0,0:0:0:0:
285,260,12889,1,0,0:0:0:0:
221,347,13039,1,0,0:0:0:0:
89,317,13189,6,0,P|71:229|112:152,1,180
302,143,13639,2,0,P|260:161|217:155,1,90
241,49,13939,1,0,0:0:0:0:
358,53,14089,1,0,0:0:0:0:
423,150,14239,1,0,0:0:0:0:
364,281,14389,6,0,P|276:264|199:303,1,180
87,338,14839,1,0,0:0:0:0:
74,213,14989,2,0,P|115:197|146:164,1,90
341,129,15289,2,0,P|300:145|269:178,1,90
314,335,15589,6,0,L|394:295,1,90
446,190,15889,1,8,0:0:0:0:
87,171,16189,6,0,L|127:91,1,90
232,39,16489,1,8,0:0:0:0:
328,89,16639,1,0,0:0:0:0:
328,89,16789,6,0,B|367:113|410:124|410:124|405:170|424:214,1,180
269,323,17239,2,0,L|350:285,2,90
145,296,17689,1,0,0:0:0:0:
219,205,17839,1,0,0:0:0:0:
343,225,17989,6,0,P|388:232|420:261,1,90
331,337,18289,1,0,0:0:0:0:
228,281,18439,1,0,0:0:0:0:
228,281,18514,1,0,0:0:0:0:
228,281,18589,2,0,P|222:237|240:197,1,90
343,141,18889,1,0,0:0:0:0:
251,42,19039,1,0,0:0:0:0:
127,95,19189,5,10,0:0:0:0:
445,221,19489,1,10,0:0:0:0:
121,330,19789,1,10,0:0:0:0:
346,73,20089,1,2,0:0:0:0:
346,73,20239,1,2,0:0:0:0:
330,216,20389,5,4,0:0:0:0:
314,216,20464,1,4,0:0:0:0:
298,216,20539,1,4,0:0:0:0:
282,216,20614,1,4,0:0:0:0:
266,216,20689,1,4,0:0:0:0:
196,111,20839,1,4,0:0:0:0:
78,176,20989,1,4,0:0:0:0:
185,258,21139,1,4,0:0:0:0:
117,91,21289,1,4,0:0:0:0:
105,280,21439,1,0,0:0:0:0:
275,294,21589,6,0,P|243:326|200:336,1,90
151,191,21889,2,0,P|216:130|305:126,1,180
392,187,22339,1,0,0:0:0:0:
480,124,22489,1,0,0:0:0:0:
480,250,22639,1,0,0:0:0:0:
403,338,22789,6,0,P|359:337|324:309,1,90
303,131,23089,2,0,P|302:175|274:210,1,90
185,287,23389,1,0,0:0:0:0:
66,245,23539,1,0,0:0:0:0:
124,103,23689,2,0,P|161:129|175:170,1,90
98,313,23989,6,0,P|181:347|261:316,1,180
324,195,24439,1,0,0:0:0:0:
422,102,24589,2,0,P|339:68|259:99,1,180
324,195,25039,1,0,0:0:0:0:
444,256,25189,6,0,L|381:320,1,90
265,337,25489,1,8,0:0:0:0:
90,44,25789,6,0,L|154:107,1,90
171,223,26089,1,8,0:0:0:0:
261,283,26239,1,0,0:0:0:0:
365,229,26389,6,0,P|410:223|444:196,1,90
359,78,26689,2,0,P|269:85|206:145,1,180
96,222,27139,1,0,0:0:0:0:
198,258,27289,1,0,0:0:0:0:
270,338,27439,1,0,0:0:0:0:
412,315,27589,6,0,P|364:239|385:156,1,180
241,62,28039,2,0,P|286:63|318:92,1,90
254,190,28339,1,0,0:0:0:0:
154,149,28489,1,0,0:0:0:0:
122,46,28639,1,0,0:0:0:0:
242,63,28789,5,2,0:0:0:0:
470,293,29089,1,2,0:0:0:0:
129,320,29389,1,2,0:0:0:0:
368,76,29689,1,2,0:0:0:0:
407,224,29839,2,0,P|318:223|260:287,1,180,2|0,0:0|0:0,0:0:0:0:
259,304,30214,1,4,0:0:0:0:
262,321,30289,1,4,0:0:0:0:
365,352,30439,1,4,0:0:0:0:
469,324,30589,1,10,0:0:0:0:
104,174,40789,6,0,P|144:228|208:239,1,135.000005149842
207,239,41239,1,0,0:0:0:0:
207,239,41389,1,0,0:0:0:0:
346,73,41689,1,8,0:0:0:0:
431,301,41989,6,0,L|299:327,1,135.000005149842
298,327,42439,1,0,0:0:0:0:
298,327,42589,1,0,0:0:0:0:
109,223,42889,1,8,0:0:0:0:
268,57,43189,6,0,B|318:101|318:101|387:99,1,135.000005149842
386,99,43639,1,0,0:0:0:0:
386,99,43789,1,0,0:0:0:0:
407,314,44089,1,8,0:0:0:0:
152,287,44389,6,0,B|179:264|179:264|196:209|155:166,1,135.000005149842
159,171,44839,1,0,0:0:0:0:
159,171,44989,1,0,0:0:0:0:
329,37,45289,1,8,0:0:0:0:
451,216,45589,6,0,L|394:251,1,67.5000025749208
289,188,45889,2,0,L|254:131,2,67.5000025749208
289,188,46489,1,8,0:0:0:0:
89,268,46789,6,0,L|70:204,1,67.5000025749208
145,90,47089,2,0,L|164:154,1,67.5000025749208
195,251,47389,1,0,0:0:0:0:
195,251,47689,1,8,0:0:0:0:
437,223,47989,6,0,L|456:157,3,67.5000025749208
479,66,48589,1,0,0:0:0:0:
479,66,48889,1,8,0:0:0:0:
256,48,49189,5,2,0:0:0:0:
121,281,49489,1,2,0:0:0:0:
391,281,49789,1,2,0:0:0:0:
451,208,49939,2,0,L|462:193,4,16.8750006437302,0|0|0|0|2,0:0|0:0|0:0|0:0|0:0,0:0:0:0:
364,169,50239,1,0,0:0:0:0:
298,101,50389,6,0,P|264:130|220:137,1,90,2|0,0:0|0:0,0:0:0:0:
220,137,50614,1,0,0:0:0:0:
220,137,50689,1,2,0:0:0:0:
122,200,50839,1,0,0:0:0:0:
157,321,50989,2,2,L|238:281,1,90
237,281,51289,1,2,0:0:0:0:
48,93,51589,5,2,0:0:0:0:
156,49,51739,1,2,0:0:0:0:
200,158,51889,1,2,0:0:0:0:
92,202,52039,1,2,0:0:0:0:
374,83,52339,1,2,0:0:0:0:
418,192,52489,1,2,0:0:0:0:
226,326,52789,6,0,P|266:307|311:307,1,90,2|0,0:0|0:0,0:0:0:0:
328,312,53014,1,0,0:0:0:0:
343,320,53089,1,2,0:0:0:0:
359,326,53164,1,0,0:0:0:0:
376,328,53239,1,0,0:0:0:0:
393,325,53314,1,0,0:0:0:0:
409,318,53389,2,2,P|449:297|468:258,2,90
94,167,53989,5,2,0:0:0:0:
188,70,54139,1,2,0:0:0:0:
324,70,54289,1,2,0:0:0:0:
418,167,54439,1,2,0:0:0:0:
418,167,54739,1,2,0:0:0:0:
314,279,54889,1,2,0:0:0:0:
94,167,55189,6,2,P|109:255|180:306,1,180
257,103,55789,1,2,0:0:0:0:
387,139,55939,1,2,0:0:0:0:
444,261,56089,1,2,0:0:0:0:
255,281,56389,5,2,0:0:0:0:
125,245,56539,1,2,0:0:0:0:
68,123,56689,1,2,0:0:0:0:
68,123,56839,1,2,0:0:0:0:
68,123,57139,1,2,0:0:0:0:
202,49,57289,1,2,0:0:0:0:
267,217,57589,6,2,P|334:155|419:155,1,180
173,307,58189,1,2,0:0:0:0:
267,217,58339,1,2,0:0:0:0:
311,94,58489,1,2,0:0:0:0:
74,215,58789,5,2,0:0:0:0:
173,307,58939,1,2,0:0:0:0:
305,278,59089,1,2,0:0:0:0:
379,165,59239,1,2,0:0:0:0:
379,165,59539,1,2,0:0:0:0:
265,63,59689,1,2,0:0:0:0:
256,192,59989,12,0,61189,0:0:0:0:
153,177,61489,5,8,0:0:0:0:
319,110,61789,1,8,0:0:0:0:
294,288,62089,1,8,0:0:0:0:
130,73,62389,6,0,P|214:103|302:83,1,180
390,241,62839,2,0,P|362:207|352:163,1,90
460,171,63139,1,0,0:0:0:0:
461,288,63289,1,0,0:0:0:0:
352,331,63439,1,0,0:0:0:0:
257,248,63589,6,0,L|184:299,1,90
86,251,63889,1,0,0:0:0:0:
171,159,64039,1,0,0:0:0:0:
171,159,64114,1,0,0:0:0:0:
171,159,64189,2,0,P|130:143|84:147,1,90
86,251,64489,1,0,0:0:0:0:
156,328,64639,1,0,0:0:0:0:
264,323,64789,6,0,P|290:287|330:267,1,90
419,344,65089,2,0,P|467:268|459:181,1,180
393,95,65539,1,0,0:0:0:0:
326,180,65689,1,0,0:0:0:0:
232,127,65839,1,0,0:0:0:0:
128,180,65989,6,0,L|182:255,1,90,8|0,0:0|0:0,0:0:0:0:
384,180,66289,2,0,L|330:255,1,90,8|0,0:0|0:0,0:0:0:0:
224,186,66589,1,8,0:0:0:0:
109,272,66739,1,0,0:0:0:0:
248,311,66889,1,8,0:0:0:0:
151,159,67039,1,0,0:0:0:0:
117,345,67189,6,0,P|204:326|292:342,1,180
394,284,67639,1,0,0:0:0:0:
416,142,67789,2,0,L|459:223,1,90
458,221,68089,1,0,0:0:0:0:
329,347,68239,6,0,P|269:280|258:194,1,180
367,73,68689,2,0,P|361:117|337:157,1,90
161,187,68989,2,0,P|167:143|191:103,1,90
281,192,69289,1,0,0:0:0:0:
194,283,69439,1,0,0:0:0:0:
85,220,69589,6,0,P|68:262|75:305,1,90
215,340,69889,2,0,B|263:290|337:341|384:294,1,180
425,194,70339,1,0,0:0:0:0:
316,151,70489,1,0,0:0:0:0:
438,93,70639,1,0,0:0:0:0:
153,137,70939,5,0,0:0:0:0:
109,274,71089,2,0,L|195:246,1,90
328,321,71389,2,0,P|306:282|312:239,1,90
423,132,71689,2,0,P|384:154|341:148,1,90
183,61,71989,6,0,P|226:47|270:55,1,90
307,156,72289,1,0,0:0:0:0:
215,213,72439,1,0,0:0:0:0:
107,167,72589,2,0,P|117:257|185:307,1,180
303,306,73039,1,0,0:0:0:0:
447,309,73189,6,0,B|473:271|473:271|449:235|449:235|456:181|438:146,1,180
326,182,73639,1,0,0:0:0:0:
199,136,73789,2,0,P|235:109|252:67,1,90
108,56,74089,2,0,P|72:83|55:125,1,90
75,248,74389,5,0,0:0:0:0:
211,319,74539,1,0,0:0:0:0:
86,331,74689,2,0,P|127:311|152:275,1,90
171,168,74989,1,0,0:0:0:0:
274,112,75139,1,0,0:0:0:0:
392,155,75289,2,0,P|386:111|362:73,1,90
229,46,75589,5,8,0:0:0:0:
211,162,75739,1,0,0:0:0:0:
211,162,75814,1,0,0:0:0:0:
211,162,75889,2,0,L|279:222,1,90,8|0,0:0|0:0,0:0:0:0:
211,317,76189,1,8,0:0:0:0:
101,256,76339,1,0,0:0:0:0:
301,317,76489,1,8,0:0:0:0:
411,256,76639,1,0,0:0:0:0:
426,140,76789,6,0,P|382:135|343:112,1,90
213,77,77089,2,0,P|248:159|211:235,1,180
125,154,77539,1,0,0:0:0:0:
213,77,77689,1,0,0:0:0:0:
329,65,77839,1,0,0:0:0:0:
364,186,77989,6,0,P|409:176|438:145,1,90
397,44,78289,1,0,0:0:0:0:
283,97,78439,1,0,0:0:0:0:
157,87,78589,2,0,P|159:176|224:231,1,180
329,178,79039,1,0,0:0:0:0:
329,178,79114,1,0,0:0:0:0:
329,178,79189,6,0,P|339:221|375:246,1,90
480,160,79489,2,0,P|429:86|347:56,1,180
239,68,79939,1,0,0:0:0:0:
225,175,80089,1,0,0:0:0:0:
141,243,80239,1,0,0:0:0:0:
256,192,80389,12,2,81589,0:0:0:0:
188,74,91189,5,2,0:0:0:0:
188,74,91489,1,0,0:0:0:0:
139,138,91639,1,0,0:0:0:0:
126,218,91789,2,0,B|155:269|155:269|198:348|224:254|247:251|247:251|267:254|296:348|329:269|329:269|357:202,1,360,0|2,0:0|0:0,0:0:0:0:
381,143,92539,1,0,0:0:0:0:
381,143,92839,1,0,0:0:0:0:
352,67,92989,2,0,L|278:119,1,90
231,52,93289,2,0,L|190:132,1,90
107,186,93589,5,2,0:0:0:0:
79,290,93739,1,0,0:0:0:0:
185,222,93889,1,2,0:0:0:0:
157,326,94039,1,0,0:0:0:0:
263,258,94189,2,0,L|238:346,2,90,2|0|0,0:0|0:0|0:0,0:0:0:0:
386,78,94789,6,0,P|318:63|261:88,1,135.000005149842
193,207,95239,2,0,P|261:222|318:197,1,135.000005149842
187,59,95689,2,0,P|177:91|181:124,1,67.5000025749208
110,206,95989,6,0,P|132:270|185:306,1,135.000005149842
348,290,96439,2,0,P|326:226|273:190,1,135.000005149842
265,331,96889,2,0,P|265:298|247:268,1,67.5000025749208
163,192,97189,6,0,P|191:131|250:101,1,135.000005149842
382,153,97639,2,0,P|354:214|295:244,1,135.000005149842
312,95,98089,1,0,0:0:0:0:
312,95,98239,1,0,0:0:0:0:
312,95,98689,5,4,0:0:0:0:
150,95,98989,1,4,0:0:0:0:
119,304,99589,6,0,L|253:284,1,135.000005149842
370,154,100039,2,0,L|236:174,1,135.000005149842
112,106,100489,2,0,L|170:68,1,67.5000025749208
294,94,100789,6,0,L|415:156,1,135.000005149842
446,329,101239,2,0,L|325:267,1,135.000005149842
192,289,101689,2,0,L|218:227,1,67.5000025749208
205,85,101989,6,0,L|148:207,1,135.000005149842
255,346,102439,2,0,L|312:224,1,135.000005149842
444,172,102889,2,0,L|382:145,1,67.5000025749208
254,57,103189,6,0,L|227:119,1,67.5000025749208
120,191,103489,1,6,0:0:0:0:
256,279,103789,1,6,0:0:0:0:
453,166,107989,5,0,0:0:0:0:
433,170,108064,1,0,0:0:0:0:
415,179,108139,1,0,0:0:0:0:
401,193,108214,1,0,0:0:0:0:
390,210,108289,1,0,0:0:0:0:
384,225,108364,1,0,0:0:0:0:
378,240,108439,1,0,0:0:0:0:
370,254,108514,1,0,0:0:0:0:
361,268,108589,2,0,L|334:300,3,33.7500012874604
299,285,108889,2,0,L|277:259,3,33.7500012874604
239,273,109189,5,0,0:0:0:0:
156,204,109339,1,0,0:0:0:0:
212,112,109489,2,0,P|180:80|136:73,1,90
61,217,109789,2,0,P|93:185|100:141,1,90
67,59,110089,1,0,0:0:0:0:
181,34,110239,1,0,0:0:0:0:
289,80,110389,6,0,P|312:118|352:137,1,90
469,205,110689,2,0,P|421:280|337:292,1,180
226,251,111139,1,0,0:0:0:0:
350,178,111289,1,0,0:0:0:0:
228,146,111439,1,0,0:0:0:0:
100,188,111589,5,10,0:0:0:0:
390,333,111889,1,10,0:0:0:0:
374,45,112189,1,10,0:0:0:0:
136,264,112489,1,10,0:0:0:0:
136,264,112639,1,10,0:0:0:0:
268,292,112789,5,4,0:0:0:0:
260,266,112864,1,4,0:0:0:0:
252,240,112939,1,4,0:0:0:0:
244,214,113014,1,4,0:0:0:0:
236,188,113089,1,4,0:0:0:0:
260,83,113239,1,4,0:0:0:0:
393,107,113389,1,4,0:0:0:0:
305,209,113539,1,4,0:0:0:0:
186,62,113689,1,4,0:0:0:0:
364,38,113839,1,0,0:0:0:0:
467,139,113989,6,0,P|435:172|426:214,1,90
441,340,114289,2,0,P|353:320|312:247,1,180
327,129,114739,1,0,0:0:0:0:
241,50,114889,1,0,0:0:0:0:
125,67,115039,1,0,0:0:0:0:
81,185,115189,6,0,P|124:172|167:180,1,90
165,325,115489,2,0,P|249:293|284:214,1,180
361,127,115939,1,0,0:0:0:0:
385,137,116014,1,0,0:0:0:0:
403,156,116089,1,0,0:0:0:0:
456,250,116239,1,0,0:0:0:0:
362,334,116389,6,0,P|273:323|225:252,1,180
260,85,116839,2,0,P|253:129|225:163,1,90
100,178,117139,1,0,0:0:0:0:
61,49,117289,2,0,P|105:47|144:69,1,90
255,161,117589,6,0,L|327:106,1,90
326,106,117889,1,8,0:0:0:0:
140,249,118189,2,0,L|195:321,1,90
194,320,118489,1,8,0:0:0:0:
284,319,118639,1,0,0:0:0:0:
374,318,118789,5,0,0:0:0:0:
443,235,118939,1,0,0:0:0:0:
457,110,119089,2,0,P|384:162|299:149,1,180
182,63,119539,2,0,P|223:45|267:51,1,90
354,76,119839,1,0,0:0:0:0:
366,201,119989,6,0,L|299:263,1,90
146,183,120289,2,0,L|213:121,1,90
330,114,120589,1,0,0:0:0:0:
298,227,120739,1,0,0:0:0:0:
185,257,120889,2,0,P|198:300|231:328,1,90
258,331,121114,1,0,0:0:0:0:
284,329,121189,5,2,0:0:0:0:
450,72,121489,1,2,0:0:0:0:
126,59,121789,1,2,0:0:0:0:
353,315,122089,1,2,0:0:0:0:
451,210,122239,2,0,P|380:155|297:174,1,180,2|2,0:0|0:0,0:0:0:0:
159,315,122839,1,2,0:0:0:0:
61,210,122989,2,0,P|132:155|215:174,1,180,2|8,0:0|0:0,0:0:0:0:
340,93,123589,6,0,P|367:154|427:181,1,135.000005149842
426,180,124039,1,0,0:0:0:0:
426,180,124189,1,0,0:0:0:0:
193,317,124489,1,8,0:0:0:0:
141,52,124789,6,0,B|93:100|93:100|90:168,1,135.000005149842
90,167,125239,1,0,0:0:0:0:
90,167,125389,1,0,0:0:0:0:
344,76,125689,1,8,0:0:0:0:
243,326,125989,6,0,P|307:307|372:321,1,135.000005149842
372,321,126439,1,0,0:0:0:0:
372,321,126589,1,0,0:0:0:0:
226,78,126889,1,8,0:0:0:0:
471,220,127189,6,0,B|444:194|444:194|416:221|376:230|352:227,1,135.000005149842
355,227,127639,1,0,0:0:0:0:
355,227,127789,1,0,0:0:0:0:
80,161,128089,1,8,0:0:0:0:
354,45,128389,6,0,L|413:166,1,135.000005149842
413,166,128839,1,0,0:0:0:0:
413,166,128989,1,0,0:0:0:0:
143,319,129289,1,8,0:0:0:0:
229,35,129589,6,0,P|179:79|113:96,1,135.000005149842
113,95,130039,1,0,0:0:0:0:
113,95,130189,1,0,0:0:0:0:
326,322,130489,1,8,0:0:0:0:
52,208,130789,6,0,L|169:275,1,135.000005149842
169,275,131239,1,0,0:0:0:0:
169,275,131389,1,0,0:0:0:0:
407,56,131689,1,8,0:0:0:0:
138,76,131989,6,0,L|206:84,1,67.5000025749208,8|0,0:0|0:0,0:0:0:0:
183,183,132289,2,0,L|239:221,1,67.5000025749208,8|0,0:0|0:0,0:0:0:0:
313,175,132589,1,8,0:0:0:0:
342,272,132739,1,0,0:0:0:0:
396,141,132889,1,8,0:0:0:0:
425,307,133039,1,0,0:0:0:0:
476,112,133189,1,2,0:0:0:0:
256,192,133339,12,2,135589,0:0:0:0:
193,204,135739,5,0,0:0:0:0:
253,125,135889,1,0,0:0:0:0:
309,207,136039,1,0,0:0:0:0:
141,142,136189,1,0,0:0:0:0:
326,102,136339,1,0,0:0:0:0:
277,285,136489,1,0,0:0:0:0:
88,201,136639,1,0,0:0:0:0:
231,51,136789,6,0,P|275:43|319:51,1,90
381,172,137089,1,0,0:0:0:0:
484,259,137239,2,0,B|414:263|400:353|327:336,1,180
159,151,137839,1,0,0:0:0:0:
110,257,137989,6,0,L|193:290,1,90
307,345,138289,2,0,L|340:262,1,90
412,147,138589,2,0,L|329:114,1,90
212,44,138889,2,0,L|179:127,1,90
209,296,139189,6,0,P|228:208|293:151,1,180
442,215,139639,2,0,P|434:259|405:291,1,90
301,260,139939,1,0,0:0:0:0:
370,182,140089,1,0,0:0:0:0:
374,78,140239,1,0,0:0:0:0:
277,40,140389,6,0,P|244:73|203:82,1,90
94,79,140689,1,0,0:0:0:0:
60,210,140839,2,0,P|93:243|134:252,1,90
243,249,141139,1,0,0:0:0:0:
358,320,141289,2,0,P|390:286|405:246,1,90
363,124,141589,6,0,P|163:140|322:303,1,540.000020599366
158,267,152389,5,0,0:0:0:0:
354,217,152689,1,0,0:0:0:0:
158,161,152989,1,0,0:0:0:0:
354,111,153289,1,0,0:0:0:0:
158,55,153589,5,0,0:0:0:0:
119,290,153889,1,0,0:0:0:0:
354,329,154189,1,0,0:0:0:0:
393,94,154489,1,0,0:0:0:0:
179,121,154789,5,0,0:0:0:0:
396,208,155089,1,0,0:0:0:0:
341,279,155239,1,0,0:0:0:0:
255,306,155389,1,0,0:0:0:0:
116,176,155689,1,0,0:0:0:0:
171,105,155839,1,0,0:0:0:0:
257,78,155989,5,0,0:0:0:0:
107,258,156289,1,0,0:0:0:0:
197,258,156439,1,0,0:0:0:0:
271,309,156589,1,0,0:0:0:0:
405,126,156889,1,0,0:0:0:0:
315,126,157039,1,0,0:0:0:0:
241,75,157189,6,0,L|157:106,1,90
105,251,157489,2,0,L|189:220,1,90
340,321,157789,2,0,L|256:290,1,90
210,143,158089,2,0,L|294:174,1,90
428,196,158389,5,0,0:0:0:0:
391,104,158539,1,0,0:0:0:0:
300,64,158689,1,0,0:0:0:0:
201,71,158839,1,0,0:0:0:0:
84,188,158989,1,0,0:0:0:0:
121,280,159139,1,0,0:0:0:0:
212,320,159289,1,0,0:0:0:0:
311,313,159439,1,0,0:0:0:0:
356,176,159589,5,0,0:0:0:0:
334,160,159664,1,0,0:0:0:0:
308,152,159739,1,0,0:0:0:0:
281,150,159814,1,0,0:0:0:0:
255,157,159889,1,0,0:0:0:0:
234,174,159964,1,0,0:0:0:0:
218,196,160039,1,0,0:0:0:0:
199,215,160114,1,0,0:0:0:0:
173,223,160189,1,0,0:0:0:0:
146,220,160264,1,0,0:0:0:0:
124,204,160339,1,0,0:0:0:0:
116,178,160414,1,0,0:0:0:0:
119,151,160489,1,0,0:0:0:0:
131,127,160564,1,0,0:0:0:0:
150,108,160639,1,0,0:0:0:0:
174,96,160714,1,0,0:0:0:0:
200,89,160789,6,0,L|227:85,7,22.5
247,59,161089,2,0,L|274:55,7,22.5
299,77,161389,2,0,L|321:79,7,22.5
347,53,161689,2,0,L|373:48,7,22.5
256,192,161989,12,0,163189,0:0:0:0:
183,318,163489,1,8,0:0:0:0:
183,65,163789,1,8,0:0:0:0:
401,192,164089,1,8,0:0:0:0:
276,79,173989,6,0,P|285:124|317:151,1,90
468,120,174289,2,0,P|459:210|392:264,1,180
294,270,174739,1,0,0:0:0:0:
213,185,174889,1,0,0:0:0:0:
319,40,175039,6,0,P|240:84|155:69,1,180
33,189,175489,2,0,P|60:154|102:143,1,90
209,192,175789,1,0,0:0:0:0:
290,288,175939,1,0,0:0:0:0:
290,288,176014,1,0,0:0:0:0:
290,288,176089,1,0,0:0:0:0:
156,302,176239,1,0,0:0:0:0:
76,205,176389,6,0,P|106:171|116:129,1,90
260,77,176689,2,0,P|313:149|398:153,1,180
355,73,177139,1,0,0:0:0:0:
274,203,177289,1,0,0:0:0:0:
369,254,177439,1,0,0:0:0:0:
473,226,177589,6,0,L|418:153,1,90,8|0,0:0|0:0,0:0:0:0:
283,48,177889,2,0,L|210:103,1,90,8|0,0:0|0:0,0:0:0:0:
58,179,178189,2,0,L|113:252,1,90,8|0,0:0|0:0,0:0:0:0:
254,347,178489,2,0,L|327:292,1,90,8|0,0:0|0:0,0:0:0:0:
365,182,178789,5,0,0:0:0:0:
467,147,178939,1,0,0:0:0:0:
372,78,179089,1,0,0:0:0:0:
256,96,179239,1,0,0:0:0:0:
247,204,179389,2,0,P|202:200|175:168,2,90
397,267,179839,6,0,P|334:330|248:337,1,180
156,191,180289,2,0,P|185:226|195:269,1,90
103,326,180589,1,0,0:0:0:0:
51,221,180739,1,0,0:0:0:0:
51,221,180814,1,0,0:0:0:0:
51,221,180889,1,0,0:0:0:0:
93,112,181039,1,0,0:0:0:0:
219,121,181189,6,0,P|244:84|284:63,1,90
365,159,181489,2,0,P|289:209|265:290,1,180
410,285,181939,1,0,0:0:0:0:
410,285,182089,1,0,0:0:0:0:
410,285,182239,1,0,0:0:0:0:
300,58,182539,5,2,0:0:0:0:
170,119,182689,1,2,0:0:0:0:
424,283,182989,1,2,0:0:0:0:
294,222,183139,1,0,0:0:0:0:
150,223,183289,1,2,0:0:0:0:
158,258,183364,1,0,0:0:0:0:
174,290,183439,1,0,0:0:0:0:
205,308,183514,1,0,0:0:0:0:
241,308,183589,6,0,P|285:306|325:286,1,90
318,105,183889,2,0,P|320:149|340:189,1,90
440,147,184189,1,0,0:0:0:0:
318,105,184339,1,0,0:0:0:0:
194,138,184489,1,0,0:0:0:0:
68,114,184639,6,0,P|64:203|115:274,1,180
170,170,185089,2,0,P|214:181|246:211,1,90
212,304,185389,1,0,0:0:0:0:
329,308,185539,1,0,0:0:0:0:
409,223,185689,2,0,P|448:245|467:285,1,90
329,308,185989,6,0,P|298:275|293:233,1,90
389,124,186289,2,0,P|313:76|227:85,1,180
187,195,186739,1,0,0:0:0:0:
81,173,186889,1,0,0:0:0:0:
61,67,187039,1,0,0:0:0:0:
176,45,187189,6,0,L|263:65,1,90,8|0,0:0|0:0,0:0:0:0:
109,272,187489,2,0,L|129:185,1,90,8|0,0:0|0:0,0:0:0:0:
336,339,187789,2,0,L|249:319,1,90,8|0,0:0|0:0,0:0:0:0:
403,112,188089,2,0,L|383:199,1,90,8|0,0:0|0:0,0:0:0:0:
258,96,188389,6,0,P|235:183|160:226,1,180
94,129,188839,1,0,0:0:0:0:
192,50,188989,2,0,P|237:38|279:41,1,90
393,74,189289,1,0,0:0:0:0:
276,172,189439,6,0,P|311:254|392:279,1,180
470,146,189889,2,0,P|445:109|404:95,1,90
293,51,190189,1,0,0:0:0:0:
185,96,190339,1,0,0:0:0:0:
291,180,190489,1,0,0:0:0:0:
399,225,190639,1,0,0:0:0:0:
385,341,190789,6,0,P|340:343|304:319,1,90
141,312,191089,2,0,P|185:234|267:204,1,180
358,263,191539,1,0,0:0:0:0:
449,189,191689,1,0,0:0:0:0:
411,78,191839,1,0,0:0:0:0:
109,129,192139,5,2,0:0:0:0:
242,250,192289,1,2,0:0:0:0:
357,46,192589,2,0,P|317:65|272:68,1,90,2|0,0:0|0:0,0:0:0:0:
330,210,192889,2,0,P|290:191|245:188,1,90,2|0,0:0|0:0,0:0:0:0:
116,253,193189,6,0,L|81:171,1,90
165,53,193489,2,0,P|205:133|287:152,1,180
384,129,193939,1,0,0:0:0:0:
460,218,194089,1,0,0:0:0:0:
335,307,194239,6,0,B|305:340|305:340|264:317|222:306|176:323,1,180
94,183,194689,2,0,L|184:187,1,90
127,84,194989,1,0,0:0:0:0:
250,58,195139,1,0,0:0:0:0:
250,58,195214,1,0,0:0:0:0:
250,58,195289,2,0,P|290:78|334:80,1,90
353,187,195589,5,0,0:0:0:0:
236,181,195739,1,0,0:0:0:0:
145,255,195889,2,0,P|165:295|203:318,1,90
365,306,196189,2,0,P|345:266|307:243,1,90
184,188,196489,1,0,0:0:0:0:
261,112,196639,1,0,0:0:0:0:
396,109,196789,6,0,P|364:76|323:61,1,90,8|0,0:0|0:0,0:0:0:0:
173,52,197089,2,0,P|140:84|125:125,1,90,8|0,0:0|0:0,0:0:0:0:
116,275,197389,2,0,P|148:308|189:323,1,90,8|0,0:0|0:0,0:0:0:0:
339,332,197689,2,0,P|372:300|387:259,1,90,8|0,0:0|0:0,0:0:0:0:
305,120,197989,6,0,P|216:130|162:196,1,180
253,271,198439,1,0,0:0:0:0:
402,238,198589,2,0,P|382:278|346:304,1,90
253,271,198889,1,0,0:0:0:0:
124,312,199039,6,0,P|75:237|76:148,1,180
199,75,199489,2,0,P|219:116|220:160,1,90
179,260,199789,1,0,0:0:0:0:
279,320,199939,1,0,0:0:0:0:
279,320,200014,1,0,0:0:0:0:
279,320,200089,1,0,0:0:0:0:
372,249,200239,1,0,0:0:0:0:
344,126,200389,5,2,0:0:0:0:
250,223,200539,1,2,0:0:0:0:
204,96,200689,1,2,0:0:0:0:
354,196,200839,1,2,0:0:0:0:
174,205,200989,1,2,0:0:0:0:
265,39,201139,1,2,0:0:0:0:
425,170,201289,1,2,0:0:0:0:
258,293,201439,1,2,0:0:0:0:
256,192,201589,12,8,202489,0:0:0:0:
136,182,202789,6,0,L|199:245,1,90
369,223,203089,2,0,L|306:286,1,90
256,181,203389,1,0,0:0:0:0:
295,71,203539,1,0,0:0:0:0:
412,73,203689,2,0,P|449:101|468:139,1,90
432,298,203989,6,0,P|358:246|328:165,1,180
213,49,204439,2,0,P|208:139|158:211,1,180
78,296,204889,1,0,0:0:0:0:
186,341,205039,1,0,0:0:0:0:
305,278,205189,6,0,L|391:308,1,90
475,203,205489,2,0,L|390:173,1,90
308,90,205789,1,0,0:0:0:0:
222,139,205939,1,0,0:0:0:0:
125,120,206089,1,0,0:0:0:0:
71,214,206239,1,0,0:0:0:0:
154,283,206389,6,0,P|239:255|323:283,1,180
446,193,206839,2,0,P|360:164|306:95,1,180
235,178,207289,1,0,0:0:0:0:
201,57,207439,1,0,0:0:0:0:
344,42,207589,6,0,P|384:66|403:103,1,90
334,260,207889,2,0,P|306:226|296:182,1,90
403,170,208189,1,0,0:0:0:0:
334,260,208339,1,0,0:0:0:0:
231,308,208489,2,0,P|186:311|148:291,1,90
52,170,208789,6,0,P|116:106|202:83,1,180
460,214,209239,2,0,P|396:278|310:301,1,180
170,274,209689,1,0,0:0:0:0:
256,192,209839,1,0,0:0:0:0:
342,110,209989,1,0,0:0:0:0:
256,192,210139,12,0,211339,0:0:0:0:
256,192,211489,5,0,0:0:0:0:
256,192,211789,1,0,0:0:0:0:
256,96,212089,5,0,0:0:0:0:
256,288,212239,1,0,0:0:0:0:
256,192,212389,12,0,214789,0:0:0:0:
