osu file format v14

[General]
AudioFilename: Nightcore - Spectrum.mp3
AudioLeadIn: 0
PreviewTime: 164605
Countdown: 0
SampleSet: Soft
StackLeniency: 0.9
Mode: 0
LetterboxInBreaks: 1
WidescreenStoryboard: 0

[Editor]
Bookmarks: 60488,64598,96499,102761,160688,163820
DistanceSpacing: 1
BeatDivisor: 4
GridSize: 8
TimelineZoom: 1

[Metadata]
Title:Spectrum (Nightcore)
TitleUnicode:Spectrum (Nightcore)
Artist:Zedd (Feat. Matthew Koma)
ArtistUnicode:Zedd (Feat. Matthew Koma)
Creator:UchiganeNiigata
Version:Variegation
Source:
Tags:Clarity Nightcore
BeatmapID:685345
BeatmapSetID:306144

[Difficulty]
HPDrainRate:7
CircleSize:4
OverallDifficulty:7
ApproachRate:9
SliderMultiplier:1.8
SliderTickRate:2

[Events]
//Background and Video events
0,0,"Spectrum BG.jpg",0,0
//Break Periods
2,90045,95899
2,115094,127211
2,176545,177311
//Storyboard Layer 0 (Background)
//Storyboard Layer 1 (Fail)
//Storyboard Layer 2 (Pass)
//Storyboard Layer 3 (Foreground)
//Storyboard Sound Samples

[TimingPoints]
2560,391.414965098832,4,2,0,60,1,0
27610,-200,4,1,0,60,0,0
40135,391.414965098832,4,1,0,60,1,0
40135,-100,4,1,0,60,0,0
52661,-100,4,2,0,40,0,0
58923,-100,4,1,0,40,0,0
63620,-100,4,2,0,40,0,0
64599,-100,4,2,0,5,0,0
64794,-100,4,2,0,60,0,0
65186,-80,4,1,0,60,0,1
70470,-133.333333333333,4,1,0,60,0,1
71057,-80,4,1,0,60,0,1
73797,-133.333333333333,4,1,0,60,0,1
75558,-80,4,1,0,60,0,1
82995,-133.333333333333,4,1,0,60,0,1
83582,-80,4,1,0,60,0,1
89844,-100,4,1,0,60,0,0
101979,-133.333333333333,4,2,0,60,0,0
102762,-100,4,1,0,60,0,1
105892,-66.6666666666667,4,1,0,60,0,1
108632,-133.333333333333,4,1,0,60,0,1
110981,-100,4,1,0,60,0,1
112155,-66.6666666666667,4,1,0,60,0,1
115287,-100,4,2,0,60,0,0
127810,391.414965098832,4,1,0,60,1,0
127811,-200,4,1,0,60,0,0
130158,-200,4,1,0,5,0,0
130941,-200,4,1,0,60,0,0
134268,-200,4,1,0,5,0,0
135246,-200,4,1,0,60,0,0
136421,-200,4,1,0,5,0,0
137203,-200,4,1,0,60,0,0
140335,-100,4,1,0,60,0,1
152863,-100,4,2,0,60,0,0
159123,-100,4,1,0,60,0,0
164798,-100,4,2,0,5,0,0
165388,-100,4,1,0,60,0,1
176348,-100,4,1,0,60,0,0
177913,-100,4,1,0,60,0,1
190444,-100,4,2,0,60,0,0
202964,-100,4,2,0,60,0,0
203355,-100,4,2,0,55,0,0
203747,-100,4,2,0,45,0,0
204138,-100,4,2,0,35,0,0
204530,-100,4,2,0,25,0,0
204921,-100,4,2,0,15,0,0
205312,-100,4,2,0,5,0,0
205704,-100,4,2,0,5,0,0
206090,-100,4,2,0,5,0,0

[HitObjects]
168,160,2560,6,0,P|176:96|200:80,1,90
256,160,2951,2,0,P|294:108|323:106,1,90
336,200,3342,2,0,P|395:174|421:187,1,90
216,248,3734,2,0,L|136:296,1,90
216,136,4125,6,0,L|272:56,1,90
352,240,4517,2,0,P|360:288|400:288,1,90
208,192,4908,2,0,P|160:216|160:248,1,90
304,312,5299,5,0,0:0:0:0:
296,192,5495,1,0,0:0:0:0:
160,224,5691,1,0,0:0:0:0:
224,104,5887,5,0,0:0:0:0:
224,296,6082,1,0,0:0:0:0:
352,240,6278,1,0,0:0:0:0:
168,168,6474,1,0,0:0:0:0:
88,264,6669,5,0,0:0:0:0:
80,128,6865,1,0,0:0:0:0:
240,152,7061,1,0,0:0:0:0:
288,288,7256,1,0,0:0:0:0:
352,152,7452,5,0,0:0:0:0:
216,56,7648,1,0,0:0:0:0:
304,216,7844,1,0,0:0:0:0:
408,96,8039,1,0,0:0:0:0:
248,200,8235,5,0,0:0:0:0:
280,64,8431,1,0,0:0:0:0:
144,152,8626,1,0,0:0:0:0:
192,280,8822,1,0,0:0:0:0:
168,216,9018,6,0,L|80:296,1,90
168,80,9409,2,0,L|56:48,1,90
288,224,9801,2,0,L|368:312,1,90
248,144,10192,2,0,L|320:80,1,90
144,224,10584,6,0,P|160:280|208:272,1,90
344,152,10975,2,0,P|288:136|256:176,1,90
152,104,11366,2,0,B|104:112|104:112|112:64,1,90
302,79,11758,5,0,0:0:0:0:
422,160,11953,1,0,0:0:0:0:
352,216,12149,1,0,0:0:0:0:
392,76,12345,1,0,0:0:0:0:
277,165,12541,1,0,0:0:0:0:
302,79,12736,1,0,0:0:0:0:
422,160,12932,1,0,0:0:0:0:
392,76,13128,1,0,0:0:0:0:
352,216,13323,1,0,0:0:0:0:
184,144,13519,6,0,P|128:152|128:104,1,90
240,256,13911,2,0,P|224:320|256:344,1,90
88,280,14302,2,0,P|136:312|120:352,1,90
88,136,14693,2,0,P|104:72|64:48,1,90
280,120,15085,6,0,P|272:64|320:48,1,90
320,256,15476,2,0,P|296:304|248:304,2,90
448,144,16063,2,0,P|408:192|448:224,2,90
296,176,16650,6,0,L|192:192,1,90
144,112,17042,2,0,L|48:72,1,90
96,216,17433,2,0,L|168:288,1,90
280,248,17825,1,0,0:0:0:0:
200,128,18020,1,0,0:0:0:0:
344,128,18216,1,0,0:0:0:0:
200,216,18412,1,0,0:0:0:0:
272,88,18608,1,0,0:0:0:0:
352,208,18803,1,0,0:0:0:0:
128,128,18999,5,0,0:0:0:0:
192,264,19195,2,0,L|272:312,1,90
272,160,19586,1,0,0:0:0:0:
400,240,19782,2,0,P|448:208|432:160,1,90
352,40,20173,1,0,0:0:0:0:
216,104,20369,2,0,P|256:152|224:184,1,90
160,272,20760,1,0,0:0:0:0:
64,136,20956,2,0,P|48:64|88:48,1,90
224,160,21347,6,0,L|328:192,1,90
224,216,21739,2,0,L|274:312,1,90
184,256,22130,2,0,L|152:360,1,90
56,232,22522,1,0,0:0:0:0:
136,136,22717,1,0,0:0:0:0:
56,232,22913,1,0,0:0:0:0:
200,160,23109,1,0,0:0:0:0:
56,232,23304,1,0,0:0:0:0:
240,208,23500,1,0,0:0:0:0:
56,232,23696,1,0,0:0:0:0:
272,264,23892,1,0,0:0:0:0:
328,112,24087,6,0,P|336:160|400:192,1,90
376,304,24479,2,0,P|320:320|296:272,1,90
232,128,24870,2,0,P|288:160|264:208,1,90
224,256,25262,2,0,P|168:296|176:320,1,90
104,176,25653,2,0,P|104:128|56:96,1,90
288,128,26044,5,0,0:0:0:0:
320,256,26240,1,0,0:0:0:0:
192,120,26436,1,0,0:0:0:0:
224,248,26632,1,0,0:0:0:0:
96,112,26827,1,0,0:0:0:0:
128,240,27023,1,0,0:0:0:0:
0,104,27219,1,0,0:0:0:0:
32,232,27415,1,0,0:0:0:0:
160,32,27610,6,8,B|160:120|240:88|240:200,1,180
424,232,28980,2,0,P|344:200|360:112,2,180
272,280,30741,2,8,B|216:296|216:296|256:224|256:224|200:232,1,180
88,176,31720,5,0,0:0:0:0:
208,152,31916,1,0,0:0:0:0:
152,80,32111,2,0,L|88:64,1,45
280,96,32503,2,0,L|312:136,1,45
224,240,32894,2,0,P|296:296|320:224,1,180
384,136,33873,6,0,B|312:40|256:128|184:48,1,225
104,104,35047,1,8,0:0:0:0:
144,208,35243,2,0,P|208:208|192:304,1,180
384,280,36417,6,0,B|360:256|360:256|424:240|424:240|384:208,1,135
384,120,37200,1,0,0:0:0:0:
240,104,37395,2,8,P|168:120|208:200,1,180
72,240,38374,6,0,L|40:288,1,45
208,304,38765,2,0,L|256:328,1,45
368,192,39157,2,8,P|320:192|288:160,1,90
176,112,39744,1,8,0:0:0:0:
256,216,40135,6,0,P|184:256|240:320,1,180
384,280,40722,2,0,L|360:192,1,90
296,112,41114,2,0,P|288:64|328:56,1,90
192,128,41505,2,0,L|128:192,1,90
240,280,41897,2,0,P|296:280|296:320,1,90
336,192,42288,2,0,P|296:144|328:96,1,90
160,144,42680,5,0,0:0:0:0:
104,256,42875,1,0,0:0:0:0:
208,328,43071,1,0,0:0:0:0:
320,272,43267,1,0,0:0:0:0:
280,152,43462,1,0,0:0:0:0:
224,216,43658,6,0,L|136:168,1,90
320,88,44049,2,0,L|376:176,1,90
328,256,44441,2,0,L|264:328,1,90
296,168,44832,2,0,L|368:104,1,90
192,160,45224,2,0,L|80:112,1,90
216,240,45615,2,0,P|168:288|184:328,1,90
368,216,46007,6,0,P|416:224|424:184,1,90
328,136,46398,2,0,L|240:80,1,90
296,216,46789,2,0,L|248:304,1,90
208,184,47181,2,0,P|144:144|144:96,1,90
72,232,47572,2,0,P|48:288|64:320,1,90
352,328,47964,1,0,0:0:0:0:
262,172,48159,1,0,0:0:0:0:
397,250,48355,1,0,0:0:0:0:
216,250,48551,1,0,0:0:0:0:
352,172,48746,1,0,0:0:0:0:
261,327,48942,1,0,0:0:0:0:
184,152,49138,6,0,P|136:112|160:80,1,90
296,120,49529,2,0,P|352:136|320:176,1,90
264,224,49921,2,0,P|216:264|192:224,1,90
288,88,50312,2,0,P|240:64|256:24,1,90
352,208,50704,2,0,P|384:240|336:296,1,90
200,280,51095,2,0,P|128:304|120:352,1,90
128,168,51486,6,0,L|96:64,1,90
208,176,51878,2,0,L|280:232,1,90
152,256,52269,2,0,L|56:312,1,90
288,208,52661,6,0,P|336:256|384:240,1,90
360,136,53052,1,0,3:0:0:0:
328,112,53150,1,0,3:0:0:0:
296,88,53248,1,0,3:0:0:0:
176,104,53443,6,0,P|128:128|104:96,1,90
80,200,53835,1,0,3:0:0:0:
112,232,53933,1,0,3:0:0:0:
152,256,54031,1,0,3:0:0:0:
328,264,54226,5,0,3:0:0:0:
368,240,54324,1,0,3:0:0:0:
408,216,54422,1,0,3:0:0:0:
280,160,54618,1,0,3:0:0:0:
280,160,54716,1,0,3:0:0:0:
280,160,54813,1,0,3:0:0:0:
224,288,55009,6,0,L|264:320,1,45,0|0,3:0|3:0,3:0:0:0:
182,305,55205,2,0,L|187:371,1,45,0|0,3:0|3:0,3:0:0:0:
140,287,55401,2,0,L|99:315,1,45,0|0,3:0|3:0,3:0:0:0:
120,248,55596,2,0,L|64:248,1,45,0|0,3:0|3:0,3:0:0:0:
136,200,55792,2,0,L|104:168,1,45,0|0,3:0|3:0,3:0:0:0:
182,187,55988,2,0,L|187:131,1,45,0|0,3:0|3:0,3:0:0:0:
216,208,56183,2,0,L|256:176,1,45,0|0,3:0|3:0,3:0:0:0:
232,248,56379,2,0,L|288:248,1,45,0|0,3:0|3:0,3:0:0:0:
336,192,56575,6,0,L|256:144,1,90
216,136,56868,1,0,3:0:0:0:
176,160,56966,1,0,3:0:0:0:
152,200,57064,1,0,3:0:0:0:
152,248,57162,1,0,3:0:0:0:
336,336,57358,6,0,L|384:256,1,90
392,216,57651,1,0,3:0:0:0:
368,176,57749,1,0,3:0:0:0:
328,152,57847,1,0,3:0:0:0:
280,152,57945,1,0,3:0:0:0:
8,176,58140,6,0,L|88:224,1,90
128,232,58433,1,0,3:0:0:0:
168,208,58531,1,0,3:0:0:0:
192,168,58629,1,0,3:0:0:0:
192,120,58727,1,0,3:0:0:0:
256,80,58923,5,0,0:0:0:0:
160,192,59119,1,0,0:0:0:0:
224,304,59315,1,0,0:0:0:0:
304,160,59510,1,0,0:0:0:0:
160,112,59706,1,0,0:0:0:0:
296,256,59902,1,0,0:0:0:0:
112,256,60097,1,0,0:0:0:0:
224,136,60293,1,0,0:0:0:0:
104,72,60489,5,0,0:0:0:0:
104,88,60587,1,0,0:0:0:0:
104,104,60685,1,0,0:0:0:0:
104,120,60782,1,0,0:0:0:0:
104,144,60880,1,0,0:0:0:0:
104,160,60978,1,0,0:0:0:0:
104,176,61076,1,0,0:0:0:0:
136,208,61174,5,0,0:0:0:0:
160,224,61272,1,0,0:0:0:0:
184,240,61370,1,0,0:0:0:0:
208,256,61467,1,0,0:0:0:0:
232,272,61565,1,0,0:0:0:0:
256,288,61663,1,0,0:0:0:0:
280,304,61761,1,0,0:0:0:0:
312,280,61859,5,0,0:0:0:0:
336,248,61957,1,0,0:0:0:0:
368,216,62055,1,0,0:0:0:0:
400,184,62152,1,0,0:0:0:0:
424,152,62250,1,0,0:0:0:0:
448,120,62348,1,0,0:0:0:0:
480,88,62446,1,0,0:0:0:0:
440,56,62544,5,0,0:0:0:0:
392,32,62642,1,0,0:0:0:0:
336,40,62740,1,0,0:0:0:0:
296,80,62837,1,0,0:0:0:0:
280,128,62935,1,0,0:0:0:0:
304,176,63033,1,0,0:0:0:0:
336,216,63131,1,0,0:0:0:0:
320,280,63229,5,0,0:0:0:0:
256,296,63327,1,0,0:0:0:0:
192,280,63425,1,0,0:0:0:0:
144,232,63522,1,0,0:0:0:0:
256,192,63620,12,0,64599,0:0:0:0:
256,192,64794,5,0,0:0:0:0:
152,80,65186,6,0,P|56:64|40:24,1,112.5
96,280,65577,1,0,0:0:0:0:
200,136,65773,1,0,0:0:0:0:
232,288,65969,2,0,P|168:320|176:368,2,112.5
344,360,66556,1,0,0:0:0:0:
440,248,66752,1,0,0:0:0:0:
440,128,66947,6,0,P|376:224|256:176,1,225
152,128,67534,1,0,0:0:0:0:
336,144,67730,1,0,0:0:0:0:
240,24,67926,1,0,0:0:0:0:
136,120,68122,1,0,0:0:0:0:
8,56,68317,1,0,0:0:0:0:
48,152,68513,6,0,P|118:150|142:94,1,112.5
88,48,68904,2,0,P|168:8|200:48,1,112.5
232,184,69296,2,0,P|300:160|291:88,1,112.5
104,296,69687,1,0,0:0:0:0:
464,248,70079,1,0,0:0:0:0:
352,104,70470,2,0,B|232:152|352:224|224:264,1,202.500007724762
128,224,71449,6,0,B|20:276|20:276|144:336,1,225
256,296,72036,1,0,0:0:0:0:
120,192,72231,1,0,0:0:0:0:
160,40,72427,2,0,P|232:56|224:120,1,112.5
164,266,72818,2,0,P|193:301|259:292,2,112.5
336,72,73406,6,0,P|400:112|376:168,1,112.5
224,184,73797,2,0,B|160:216|160:216|256:240|256:240|168:288,2,270.000010299683
144,72,75558,6,0,P|80:80|64:144,2,112.5
192,248,76146,2,0,P|280:272|296:240,1,112.5
272,136,76537,2,0,P|328:96|320:40,1,112.5
176,128,76928,2,0,P|256:208|384:208,1,225
368,72,77711,5,4,0:0:0:0:
144,128,78103,1,8,0:0:0:0:
336,208,78495,1,0,2:0:0:0:
336,208,78591,1,0,2:0:0:0:
336,208,78690,1,0,2:0:0:0:
144,152,78885,2,8,P|120:232|176:264,1,112.5
272,80,79277,1,0,0:0:0:0:
328,208,79473,1,0,0:0:0:0:
368,360,79668,6,8,P|436:353|443:314,1,112.5
264,264,80060,1,0,0:0:0:0:
368,144,80255,1,0,0:0:0:0:
200,96,80451,1,8,0:0:0:0:
160,224,80647,1,0,0:0:0:0:
304,280,80842,1,0,0:0:0:0:
280,104,81038,1,0,0:0:0:0:
136,144,81234,1,8,0:0:0:0:
400,232,81625,5,0,2:0:0:0:
352,184,81723,1,0,2:0:0:0:
280,160,81821,1,0,2:0:0:0:
216,168,81919,1,0,2:0:0:0:
152,192,82017,1,0,2:0:0:0:
200,304,82212,6,0,P|136:336|80:320,1,112.5
160,160,82604,2,0,P|184:80|256:72,1,112.5
288,224,82995,2,8,P|352:312|416:264,1,202.500007724762
424,168,83974,6,0,P|384:104|504:48,1,225
280,64,84561,2,0,P|208:144|184:136,1,112.5
104,40,84952,1,0,0:0:0:0:
224,144,85148,1,8,0:0:0:0:
80,136,85344,1,0,0:0:0:0:
128,248,85539,2,0,P|136:344|24:312,1,225
256,248,86127,2,0,L|376:240,2,112.5
152,112,86714,5,8,0:0:0:0:
272,48,86909,2,0,P|328:96|368:88,1,112.5
224,208,87301,1,0,0:0:0:0:
392,272,87497,1,8,0:0:0:0:
360,96,87692,1,0,0:0:0:0:
288,160,87888,5,0,0:0:0:0:
288,32,88084,2,0,P|216:40|208:104,1,112.5
264,264,88475,1,0,0:0:0:0:
168,304,88671,2,0,P|160:224|288:168,1,225
336,72,89258,1,0,0:0:0:0:
352,248,89454,2,0,P|432:232|440:168,1,112.5
392,352,89845,1,8,0:0:0:0:
144,160,96499,5,0,0:0:0:0:
160,184,96597,1,0,0:0:0:0:
176,208,96695,1,0,0:0:0:0:
192,232,96793,1,0,0:0:0:0:
208,256,96891,1,0,0:0:0:0:
224,280,96988,1,0,0:0:0:0:
256,272,97086,5,0,0:0:0:0:
288,264,97184,1,0,0:0:0:0:
320,256,97282,1,0,0:0:0:0:
352,248,97380,1,0,0:0:0:0:
384,240,97478,1,0,0:0:0:0:
416,232,97575,1,0,0:0:0:0:
448,200,97673,5,0,0:0:0:0:
472,160,97771,1,0,0:0:0:0:
480,112,97869,1,0,0:0:0:0:
464,72,97967,1,0,0:0:0:0:
440,32,98065,1,0,0:0:0:0:
400,16,98163,1,0,0:0:0:0:
352,32,98260,5,0,0:0:0:0:
312,72,98358,1,0,0:0:0:0:
312,128,98456,1,0,0:0:0:0:
352,168,98554,1,0,0:0:0:0:
384,208,98652,1,0,0:0:0:0:
416,248,98750,1,0,0:0:0:0:
440,304,98848,5,0,0:0:0:0:
408,360,98945,1,0,0:0:0:0:
344,360,99043,1,0,0:0:0:0:
296,320,99141,1,0,0:0:0:0:
296,256,99239,1,0,0:0:0:0:
344,208,99337,1,0,0:0:0:0:
384,152,99435,5,0,0:0:0:0:
416,88,99533,1,0,0:0:0:0:
376,32,99630,1,0,0:0:0:0:
304,16,99728,1,0,0:0:0:0:
248,64,99826,1,0,0:0:0:0:
224,128,99924,1,0,0:0:0:0:
200,208,100022,5,0,0:0:0:0:
128,248,100120,1,0,0:0:0:0:
72,192,100218,1,0,0:0:0:0:
64,112,100315,1,0,0:0:0:0:
112,48,100413,1,0,0:0:0:0:
192,32,100511,1,0,0:0:0:0:
264,88,100609,5,0,0:0:0:0:
304,168,100707,1,0,0:0:0:0:
280,256,100805,1,0,0:0:0:0:
192,280,100903,1,0,0:0:0:0:
128,216,101000,1,0,0:0:0:0:
152,128,101098,1,0,0:0:0:0:
200,208,101196,6,0,L|160:272,1,45
152,184,101392,2,0,L|85:219,1,45
104,136,101587,2,0,L|32:152,1,45
72,80,101783,2,0,L|8:40,1,45
16,152,101979,2,0,B|48:224|131:86|203:222|203:222|240:168,1,270.000010299683
288,88,103153,6,0,P|352:136|304:208,2,180
288,152,104327,1,0,0:0:0:0:
112,96,104620,6,0,L|136:160,1,45
136,160,104816,1,0,0:0:0:0:
304,264,105109,5,0,0:0:0:0:
416,168,105501,2,0,P|344:104|248:128,2,180
328,176,106381,2,0,P|346:249|414:259,1,135.000005149842
232,280,106675,2,0,B|208:328|368:272|400:352|400:352|416:272,1,270.000010299683
304,168,107262,1,0,0:0:0:0:
152,80,107458,1,0,0:0:0:0:
40,216,107654,2,0,P|96:256|160:224,1,135.000005149842
104,160,107947,5,0,2:0:0:0:
176,112,108045,1,0,2:0:0:0:
264,112,108143,1,0,2:0:0:0:
312,184,108241,1,0,2:0:0:0:
248,248,108338,1,0,2:0:0:0:
200,320,108436,1,0,2:0:0:0:
264,384,108534,1,0,2:0:0:0:
328,320,108632,6,0,P|264:256|288:224,1,135.000005149842
432,120,109219,2,0,B|400:88|376:104|320:40,1,135.000005149842
304,160,109806,2,0,B|368:200|320:256|392:288,1,135.000005149842
176,176,110393,2,0,B|152:144|72:160|72:160|96:112,1,135.000005149842
120,256,110981,1,0,0:0:0:0:
360,296,111176,5,0,0:0:0:0:
336,280,111274,1,0,0:0:0:0:
328,248,111372,1,0,0:0:0:0:
288,232,111470,2,0,P|240:280|200:240,1,135
272,120,111959,1,0,0:0:0:0:
160,56,112155,6,0,B|96:112|96:112|192:120|80:232|232:264,1,270.000010299683,0|0,0:0|0:0,0:0:0:0:
248,288,112644,1,0,0:0:0:0:
304,320,112742,1,0,0:0:0:0:
352,272,112840,1,0,0:0:0:0:
440,168,112938,6,0,P|336:160|344:320,1,270.000010299683
400,232,113525,2,0,B|368:120|208:184|216:32,1,270.000010299683
112,144,114112,1,0,0:0:0:0:
200,232,114308,1,0,0:0:0:0:
120,288,114503,2,0,B|56:232|160:176|192:96|88:48,1,270.000010299683
136,128,127811,6,0,B|208:144|176:248|176:248|224:232,1,180
368,208,129179,2,0,B|328:192|328:192|376:176|376:176|328:160|328:160|360:136,1,180
224,80,130158,2,0,P|176:144|256:168,1,180
232,280,131724,2,0,L|208:328,1,45
360,256,132115,2,0,L|392:208,1,45
280,152,132506,2,0,L|240:120,2,45
144,168,133094,6,0,B|104:192|104:192|176:240|176:240|120:304|160:312,1,225
304,304,134268,2,0,B|200:288|400:152|256:128,1,225
432,192,135442,6,0,P|376:104|312:120,1,180
192,160,136421,2,0,P|248:248|312:232,1,180
168,288,137595,6,0,P|144:312|144:336,1,45
304,272,137986,2,0,P|336:264|328:240,1,45
216,184,138378,2,0,P|192:176|192:152,1,45
344,152,138769,6,0,L|392:152,1,45
224,72,139161,2,0,L|184:112,1,45
248,176,139748,1,8,0:0:0:0:
400,24,139943,1,8,0:0:0:0:
168,128,140335,6,0,P|160:160|112:192,1,90
344,112,140726,2,0,P|312:64|328:48,1,90
264,216,141118,2,0,P|240:264|264:288,1,90
368,232,141509,2,0,L|440:168,1,90
312,144,141900,2,0,L|224:88,1,90
224,256,142292,2,0,L|152:320,1,90
144,168,142683,2,0,L|264:128,1,90
336,264,143075,6,0,L|248:320,1,90
360,120,143466,2,0,L|376:16,1,90
232,176,143858,2,0,L|120:224,1,90
408,208,144249,2,0,L|504:224,1,90
256,104,144640,2,0,P|192:120|176:80,1,90
32,32,145032,2,0,P|88:32|128:80,1,90
24,176,145423,2,0,P|80:224|128:208,1,90
288,376,145815,2,0,L|192:296,1,90
352,168,146206,6,0,L|296:248,1,90
416,272,146597,2,0,L|512:248,1,90
464,120,146989,2,0,L|360:80,1,90
240,144,147380,2,0,L|312:216,1,90
280,64,147772,2,0,L|192:0,1,90
88,144,148163,2,0,P|136:208|120:224,1,90
304,104,148554,2,0,P|240:64|256:32,1,90
344,272,148946,2,0,L|264:336,1,90
360,176,149337,6,0,L|328:80,1,90
208,160,149729,2,0,P|168:192|184:224,1,90
360,88,150120,2,0,P|288:80|288:56,1,90
272,192,150512,2,0,P|224:160|240:120,1,90
192,288,150903,2,0,P|136:264|144:224,1,90
376,272,151294,2,0,L|472:240,1,90
344,160,151686,2,0,L|256:112,1,90
400,72,152077,2,0,L|480:24,1,90
344,200,152469,2,0,L|256:272,1,90
168,160,152860,6,0,P|232:152|256:128,1,90
304,144,153251,1,0,3:0:0:0:
320,168,153349,1,0,3:0:0:0:
320,192,153447,1,0,3:0:0:0:
208,296,153643,2,0,P|143:292|115:312,1,90
71,288,154034,1,0,3:0:0:0:
59,261,154132,1,0,3:0:0:0:
63,238,154230,1,0,3:0:0:0:
208,104,154426,6,0,L|128:152,1,90
272,216,154817,1,0,3:0:0:0:
304,184,154915,1,0,3:0:0:0:
336,152,155013,1,0,3:0:0:0:
408,320,155209,2,0,L|336:256,1,90
256,288,155600,1,0,3:0:0:0:
216,304,155698,1,0,3:0:0:0:
176,320,155796,1,0,3:0:0:0:
184,96,155991,6,0,P|216:64|232:96,1,90
176,192,156383,1,0,3:0:0:0:
176,192,156481,1,0,3:0:0:0:
176,192,156578,1,0,3:0:0:0:
368,240,156774,2,0,P|320:256|328:216,1,90
368,128,157166,1,0,3:0:0:0:
368,128,157263,1,0,3:0:0:0:
368,128,157361,1,0,3:0:0:0:
80,48,157557,6,0,L|160:120,1,90
320,256,157948,1,0,3:0:0:0:
280,192,158046,1,0,3:0:0:0:
320,128,158144,1,0,3:0:0:0:
456,56,158340,2,0,L|392:136,1,90
176,200,158731,1,0,3:0:0:0:
232,152,158829,1,0,3:0:0:0:
208,80,158927,1,0,3:0:0:0:
339,275,159123,5,0,0:0:0:0:
172,275,159318,1,0,0:0:0:0:
256,74,159514,1,0,0:0:0:0:
255,309,159710,1,0,0:0:0:0:
138,191,159906,1,0,0:0:0:0:
339,108,160101,1,0,0:0:0:0:
172,108,160297,1,0,0:0:0:0:
373,192,160493,1,0,0:0:0:0:
240,176,160688,5,0,0:0:0:0:
216,168,160786,1,0,0:0:0:0:
200,144,160884,1,0,0:0:0:0:
192,120,160982,1,0,0:0:0:0:
200,96,161080,1,0,0:0:0:0:
224,80,161178,1,0,0:0:0:0:
248,72,161275,1,0,0:0:0:0:
272,72,161373,1,0,0:0:0:0:
304,96,161471,5,0,0:0:0:0:
312,136,161569,1,0,0:0:0:0:
304,176,161667,1,0,0:0:0:0:
272,200,161765,1,0,0:0:0:0:
232,216,161863,1,0,0:0:0:0:
192,216,161960,1,0,0:0:0:0:
160,192,162058,1,0,0:0:0:0:
144,152,162156,1,0,0:0:0:0:
136,96,162254,5,0,0:0:0:0:
88,56,162352,1,0,0:0:0:0:
40,72,162450,1,0,0:0:0:0:
8,120,162548,1,0,0:0:0:0:
16,176,162645,1,0,0:0:0:0:
48,224,162743,1,0,0:0:0:0:
104,240,162841,1,0,0:0:0:0:
152,216,162939,1,0,0:0:0:0:
192,160,163037,5,0,0:0:0:0:
240,112,163135,1,0,0:0:0:0:
304,88,163233,1,0,0:0:0:0:
360,120,163330,1,0,0:0:0:0:
408,168,163428,1,0,0:0:0:0:
424,232,163526,1,0,0:0:0:0:
376,280,163624,1,0,0:0:0:0:
312,312,163722,1,0,0:0:0:0:
256,192,163820,12,0,164798,0:0:0:0:
128,112,165385,5,0,0:0:0:0:
272,216,165581,1,0,0:0:0:0:
144,272,165777,1,0,0:0:0:0:
232,120,165972,1,0,0:0:0:0:
352,240,166168,1,0,0:0:0:0:
248,320,166364,1,0,0:0:0:0:
336,128,166560,1,0,0:0:0:0:
192,200,166755,1,0,0:0:0:0:
320,296,166951,1,0,0:0:0:0:
144,288,167147,6,0,P|88:240|104:216,1,90
344,280,167538,2,0,P|384:336|368:360,1,90
408,144,167930,2,0,L|296:152,1,90
120,144,168321,2,0,L|200:56,1,90
240,272,168712,5,0,0:0:0:0:
152,184,168908,1,0,0:0:0:0:
312,152,169104,1,0,0:0:0:0:
312,336,169299,1,0,0:0:0:0:
216,152,169495,1,0,0:0:0:0:
384,216,169691,1,0,0:0:0:0:
208,272,169887,1,0,0:0:0:0:
136,88,170082,6,0,L|208:168,1,90
192,312,170474,2,0,L|280:248,1,90
344,168,170865,1,0,0:0:0:0:
176,208,171061,1,0,0:0:0:0:
320,48,171257,2,0,L|408:112,1,90
312,224,171648,2,0,L|384:296,1,90
184,312,172039,5,0,0:0:0:0:
344,80,172431,1,0,0:0:0:0:
48,48,172822,2,0,L|128:120,1,90
224,224,173214,2,0,P|270:210|271:156,1,90
232,32,173605,6,0,P|296:16|328:64,1,90
303,266,173996,2,0,L|199:210,1,90
472,368,174388,2,0,L|496:256,1,90
344,112,174779,2,0,L|448:160,1,90
256,176,175171,1,0,0:0:0:0:
224,368,175366,1,0,0:0:0:0:
96,224,175562,1,0,0:0:0:0:
24,368,175758,1,0,0:0:0:0:
176,288,175954,1,0,0:0:0:0:
8,160,176149,1,0,0:0:0:0:
160,64,176345,1,0,0:0:0:0:
256,112,177911,6,0,B|304:168|376:176|376:176|376:240,1,180
304,288,178693,2,0,B|320:232|320:232|264:264|192:160,1,180
120,96,179476,2,0,B|96:144|96:144|144:144|96:168|144:176|144:176|112:240,1,180
408,152,180259,2,0,B|384:208|344:208|344:208|368:256|304:280,1,180
224,112,181042,5,0,0:0:0:0:
312,264,181433,1,8,0:0:0:0:
136,288,181825,5,0,2:0:0:0:
104,256,181923,1,0,2:0:0:0:
96,208,182020,1,0,2:0:0:0:
120,168,182118,1,0,2:0:0:0:
160,144,182216,1,0,2:0:0:0:
440,128,182608,5,0,0:0:0:0:
272,280,182999,1,8,0:0:0:0:
256,112,183390,1,0,0:0:0:0:
88,176,183782,1,8,0:0:0:0:
328,96,184173,6,0,P|280:64|200:144,1,180
280,168,184956,1,0,0:0:0:0:
232,240,185347,2,0,P|280:272|360:192,1,180
112,48,186130,1,8,0:0:0:0:
184,320,186522,1,0,0:0:0:0:
352,72,186913,1,8,0:0:0:0:
408,296,187305,5,0,0:0:0:0:
152,144,187696,1,8,0:0:0:0:
424,96,188087,1,0,0:0:0:0:
272,312,188479,1,8,0:0:0:0:
32,360,188870,1,0,0:0:0:0:
160,144,189262,1,8,0:0:0:0:
8,8,189653,1,0,0:0:0:0:
128,232,190044,1,8,0:0:0:0:
288,88,190436,1,0,0:0:0:0:
360,176,190632,6,0,P|288:208|256:200,1,90
176,96,191023,1,0,0:0:0:0:
192,232,191219,1,0,0:0:0:0:
112,304,191414,2,0,P|80:256|96:200,1,90
224,368,191806,1,0,0:0:0:0:
360,264,192002,1,0,0:0:0:0:
296,144,192197,2,0,P|368:128|392:168,1,90
248,32,192589,1,0,0:0:0:0:
128,96,192784,1,0,0:0:0:0:
296,144,192980,2,0,L|216:224,1,90
128,96,193372,5,0,0:0:0:0:
88,256,193567,1,0,0:0:0:0:
224,208,193763,1,0,0:0:0:0:
360,264,193959,1,0,0:0:0:0:
320,104,194154,1,0,0:0:0:0:
240,288,194350,1,0,0:0:0:0:
112,176,194546,1,0,0:0:0:0:
296,160,194741,1,0,0:0:0:0:
128,272,194937,1,0,0:0:0:0:
288,328,195133,1,0,0:0:0:0:
216,160,195329,6,0,L|112:176,1,90
368,232,195720,2,0,L|400:328,1,90
360,80,196111,2,0,L|440:16,1,90
152,72,196503,2,0,L|96:184,1,90
176,304,196894,2,0,L|272:336,1,90
24,240,197286,2,0,L|136:192,1,90
312,376,197677,2,0,L|200:368,1,90
288,240,198068,5,0,0:0:0:0:
216,88,198264,1,0,0:0:0:0:
368,160,198460,1,0,0:0:0:0:
208,200,198656,1,0,0:0:0:0:
336,304,198851,1,0,0:0:0:0:
304,96,199047,1,0,0:0:0:0:
128,160,199243,1,0,0:0:0:0:
232,280,199438,1,0,0:0:0:0:
360,144,199634,1,0,0:0:0:0:
216,88,199830,5,0,0:0:0:0:
56,120,200026,2,0,P|88:168|48:200,1,90
224,232,200417,1,0,0:0:0:0:
352,264,200613,2,0,P|336:216|376:176,1,90
112,144,201004,1,0,0:0:0:0:
224,232,201200,2,0,P|208:176|240:128,1,90
352,264,201591,1,0,0:0:0:0:
224,232,201787,2,0,P|248:296|208:328,1,90
104,320,202178,1,0,0:0:0:0:
64,176,202374,2,0,L|176:112,1,90
384,192,202765,1,0,0:0:0:0:
208,64,202961,1,0,0:0:0:0:
256,192,203157,12,0,206092,0:0:0:0:
