osu file format v13

[General]
AudioFilename: Tenyou no mai (Zeami feat.Tenco).mp3
AudioLeadIn: 1000
PreviewTime: 54588
Countdown: 0
SampleSet: Soft
StackLeniency: 0.7
Mode: 0
LetterboxInBreaks: 0
WidescreenStoryboard: 0

[Editor]
Bookmarks: 2002,7519,10278,13036,15795,18036,19588,22691,25450,30967,33726,36485,42347,45105,47864,54416,55795,58554,61657,66829,69588,77864,79243,80623,82002,83381,84760,86140,87519,88898,90278,94416,97174
DistanceSpacing: 1.1
BeatDivisor: 4
GridSize: 4
TimelineZoom: 2.2

[Metadata]
Title:Tenyou no Mai
TitleUnicode:天妖ノ舞
Artist:Zeami feat. Tenshi
ArtistUnicode:世阿弥 feat. 天子
Creator:smallboat
Version:Insane
Source:Taiko no Tatsujin
Tags:seven six five namco original vocal music street machine game tatsh red cloud cat fire day god ghost monster dance EmingK Minakami Yuki mtbbsben Kawaiwkyik Mintong89 Mintong cdhsausageboy Firce777 Imai Asami
BeatmapID:430360
BeatmapSetID:178962

[Difficulty]
HPDrainRate:7
CircleSize:4
OverallDifficulty:8
ApproachRate:9
SliderMultiplier:1.6
SliderTickRate:2

[Events]
//Background and Video events
0,0,"bg1.jpg",0,0
//Break Periods
//Storyboard Layer 0 (Background)
//Storyboard Layer 1 (Fail)
//Storyboard Layer 2 (Pass)
//Storyboard Layer 3 (Foreground)
//Storyboard Sound Samples

[TimingPoints]
623,344.827586206897,4,2,1,30,1,0
4760,-100,4,2,1,40,0,0
5450,-100,4,2,1,45,0,0
6140,-100,4,2,1,50,0,0
6829,-100,4,2,1,55,0,0
7174,-133.333333333333,4,2,1,40,0,0
7519,-100,4,2,1,60,0,0
7691,-100,4,2,1,70,0,0
17174,-100,4,2,1,80,0,0
18036,-125,4,2,1,40,0,0
18381,-100,4,2,1,30,0,0
19588,-100,4,2,1,50,0,0
19933,-100,4,2,1,70,0,0
30278,-100,4,2,1,50,0,0
30623,-133.333333333333,4,2,1,60,0,0
30967,-100,4,2,1,70,0,0
35795,-100,4,2,1,65,0,0
36485,-100,4,2,1,70,0,0
38209,-90.9090909090909,4,2,1,75,0,0
39243,-71.4285714285714,4,2,1,80,0,0
39760,-66.6666666666667,4,2,1,85,0,0
40450,-62.5,4,2,1,70,0,0
41312,-83.3333333333333,4,2,1,50,0,0
41829,-133.333333333333,4,2,1,35,0,0
42347,-100,4,2,1,70,0,0
47864,-100,4,2,1,75,0,0
50278,-100,4,2,1,80,0,0
51657,-100,4,2,1,75,0,0
52691,-100,4,2,1,70,0,0
53036,-100,4,2,1,40,0,0
53554,-100,4,2,1,50,0,0
54416,-100,4,2,1,35,0,0
55105,-100,4,2,1,45,0,0
55795,-83.3333333333333,4,2,1,90,0,1
58554,-83.3333333333333,4,2,1,80,0,1
60795,-83.3333333333333,4,2,1,70,0,1
61312,-83.3333333333333,4,2,1,75,0,1
61657,-83.3333333333333,4,2,1,80,0,1
64071,-83.3333333333333,4,2,1,85,0,1
65450,-83.3333333333333,4,2,1,75,0,1
66140,-83.3333333333333,4,2,1,85,0,1
66829,-83.3333333333333,4,2,1,80,0,1
69588,-83.3333333333333,4,2,1,75,0,1
72347,-83.3333333333333,4,2,1,70,0,1
73036,-83.3333333333333,4,2,1,75,0,1
73726,-83.3333333333333,4,2,1,85,0,1
74071,-83.3333333333333,4,2,1,95,0,1
74157,-83.3333333333333,4,2,1,85,0,1
74933,-83.3333333333333,4,2,1,80,0,1
76485,-83.3333333333333,4,2,1,75,0,1
77519,-133.333333333333,4,2,1,55,0,1
77864,-100,4,2,1,70,0,0
78209,-100,4,2,1,90,0,0
82691,-100,4,2,1,80,0,0
83381,-100,4,2,1,85,0,0
86140,-100,4,2,1,90,0,0
87519,-100,4,2,1,80,0,0
88209,-100,4,2,1,75,0,0
88898,-100,4,2,1,70,0,0
89243,-100,4,2,1,85,0,0
94416,-100,4,2,1,90,0,0
97174,-90.9090909090909,4,2,1,75,0,0
98554,-90.9090909090909,4,2,1,80,0,0
99071,-133.333333333333,4,2,1,45,0,0
99588,-133.333333333333,4,2,1,65,0,0
99933,-95.2380952380952,4,2,1,85,0,0
100623,-90.9090909090909,4,2,1,90,0,0
101312,-83.3333333333333,4,2,1,95,0,0
102002,-133.333333333333,4,2,1,65,0,0
102347,-200,4,2,1,50,0,0
102691,-200,4,2,1,45,0,0
102778,-100,4,2,1,10,0,0

[Colours]
Combo1 : 255,38,38
Combo2 : 0,230,57
Combo3 : 79,167,255
Combo4 : 255,255,64

[HitObjects]
256,192,623,12,0,1657,0:0:0:0:
136,72,2002,6,0,P|168:88|190:141,1,80,8|0,0:0|0:0,0:0:0:0:
72,340,2347,2,0,L|144:301,1,80,2|0,0:0|0:0,0:0:0:0:
376,72,2691,2,0,P|344:88|322:141,1,80,8|0,0:0|0:0,0:0:0:0:
440,340,3036,2,0,L|368:301,1,80,2|0,0:0|0:0,0:0:0:0:
44,188,3381,6,0,L|131:197,1,80,8|0,0:0|0:0,0:0:0:0:
468,188,3726,2,0,L|381:197,1,80,2|0,0:0|0:0,0:0:0:0:
256,88,4071,2,0,L|244:4,1,80,8|0,0:0|0:0,0:0:0:0:
256,296,4416,2,0,L|268:380,1,80,2|0,0:0|0:0,0:0:0:0:
136,320,4760,5,8,0:0:0:0:
176,208,4933,1,0,0:0:0:0:
336,208,5105,1,2,0:0:0:0:
376,320,5278,1,0,0:0:0:0:
60,292,5450,6,0,L|37:249,3,40,8|0|0|0,0:0|0:0|0:0|0:0,0:0:0:0:
71,184,5795,2,0,L|52:145,3,40,2|0|0|0,0:0|0:0|0:0|0:0,0:0:0:0:
64,112,6140,5,8,0:0:0:0:
76,76,6226,1,0,0:0:0:0:
104,48,6312,1,0,0:0:0:0:
140,32,6398,1,0,0:0:0:0:
180,24,6485,1,2,0:0:0:0:
220,24,6571,1,0,0:0:0:0:
260,32,6657,1,0,0:0:0:0:
296,48,6743,1,0,0:0:0:0:
316,80,6829,6,0,L|325:119,1,40,8|0,0:0|0:0,0:0:0:0:
429,195,7002,2,0,L|402:134,1,40,2|0,0:0|0:0,0:0:0:0:
336,208,7174,6,0,L|335:226,7,15.0000005722046,8|0|0|0|0|0|8|0,0:0|0:0|0:0|0:0|0:0|0:0|0:0|0:0,0:0:0:0:
320,252,7519,6,0,L|232:257,1,80,12|0,0:0|0:0,0:0:0:0:
116,208,7864,1,2,0:0:0:0:
64,112,8036,1,2,0:0:0:0:
309,241,8209,6,0,L|221:246,1,80,8|0,0:0|0:0,0:0:0:0:
105,197,8554,1,2,0:0:0:0:
53,101,8726,1,2,0:0:0:0:
299,231,8898,6,0,L|211:236,1,80,8|0,0:0|0:0,0:0:0:0:
95,187,9243,1,2,0:0:0:0:
43,91,9415,1,2,0:0:0:0:
208,16,9588,5,8,0:0:0:0:
382,43,9760,1,2,0:0:0:0:
213,236,9933,1,8,0:0:0:0:
390,216,10105,1,2,0:0:0:0:
251,139,10278,6,0,L|171:148,1,80,12|0,0:0|0:0,0:0:0:0:
48,248,10623,1,2,0:0:0:0:
195,309,10795,1,2,0:0:0:0:
340,344,10967,6,0,P|383:348|416:320,1,80,8|0,0:0|0:0,0:0:0:0:
468,184,11312,1,2,0:0:0:0:
312,216,11485,1,2,0:0:0:0:
351,354,11657,6,0,P|394:358|427:330,1,80,8|0,0:0|0:0,0:0:0:0:
479,194,12002,1,2,0:0:0:0:
323,226,12175,1,2,0:0:0:0:
473,275,12347,5,8,0:0:0:0:
286,143,12519,1,2,0:0:0:0:
195,309,12691,1,8,0:0:0:0:
286,143,12864,1,2,0:0:0:0:
50,103,13036,6,0,P|42:141|55:179,1,80,12|0,0:0|0:0,0:0:0:0:
240,204,13381,1,2,0:0:0:0:
124,134,13554,1,2,0:0:0:0:
381,266,13726,6,0,P|395:224|380:184,1,80,8|0,0:0|0:0,0:0:0:0:
240,204,14071,1,2,0:0:0:0:
327,317,14243,1,2,0:0:0:0:
461,166,14416,6,0,P|439:127|394:108,1,80,8|0,0:0|0:0,0:0:0:0:
262,52,14760,1,2,0:0:0:0:
124,134,14933,1,2,0:0:0:0:
60,310,15105,5,8,0:0:0:0:
211,139,15278,1,2,0:0:0:0:
225,316,15450,1,8,0:0:0:0:
49,177,15623,1,2,0:0:0:0:
307,243,15795,6,0,P|350:242|394:211,1,80,12|8,0:0|0:0,0:0:0:0:
495,120,16140,1,2,0:0:0:0:
376,44,16312,1,2,0:0:0:0:
443,290,16485,2,0,P|467:254|468:200,1,80,8|8,0:0|0:0,0:0:0:0:
315,86,16829,2,0,P|296:104|288:128,3,40,2|0|8|8,0:0|0:0|0:0|0:0,0:0:0:0:
259,185,17174,5,2,0:0:0:0:
395,353,17347,1,2,0:0:0:0:
410,124,17519,1,2,0:0:0:0:
225,316,17691,2,0,P|187:304|159:276,1,80,2|0,0:0|0:0,0:0:0:0:
100,112,18036,6,8,L|70:97,3,21.3333333333333,8|8|8|8,0:0|0:0|0:0|0:0,0:0:0:0:
256,36,18381,2,0,L|276:16,2,26.6666666666667,8|0|8,0:0|0:0|0:0,0:0:0:0:
464,196,19588,5,2,0:0:0:0:
428,328,19760,1,2,0:0:0:0:
332,232,19933,6,0,P|276:183|194:183,1,160,8|2,0:0|0:0,0:0:0:0:
56,256,20450,1,0,0:0:0:0:
20,112,20623,2,0,L|-26:96,2,40,8|8|8,0:0|0:0|0:0,0:0:0:0:
122,22,20967,2,0,P|161:27|197:44,1,80,2|0,0:0|0:0,0:0:0:0:
302,142,21312,5,8,0:0:0:0:
212,218,21485,1,8,0:0:0:0:
383,88,21657,2,0,P|400:123|397:163,1,80,2|0,0:0|0:0,0:0:0:0:
357,313,22002,2,0,L|433:288,1,80,8|0,0:0|0:0,0:0:0:0:
212,218,22347,1,2,0:0:0:0:
89,130,22519,1,0,0:0:0:0:
240,100,22691,6,0,P|284:116|305:151,1,80,8|8,0:0|0:0,0:0:0:0:
256,283,23036,1,2,0:0:0:0:
132,204,23209,2,0,L|42:215,1,80,2|8,0:0|0:0,0:0:0:0:
380,204,23554,2,0,L|470:215,1,80,2|2,0:0|0:0,0:0:0:0:
416,96,23898,1,8,0:0:0:0:
296,52,24071,5,8,0:0:0:0:
208,164,24243,1,0,0:0:0:0:
367,164,24416,2,0,L|457:175,1,80,2|0,0:0|0:0,0:0:0:0:
295,132,24760,5,8,0:0:0:0:
441,299,24933,1,8,0:0:0:0:
283,359,25105,1,2,0:0:0:0:
168,224,25278,1,2,0:0:0:0:
168,224,25364,1,2,0:0:0:0:
168,224,25450,6,0,L|64:218,1,80,8|0,0:0|0:0,0:0:0:0:
344,224,25795,2,0,L|450:218,1,80,2|0,0:0|0:0,0:0:0:0:
164,116,26140,2,0,L|116:44,1,80,8|8,0:0|0:0,0:0:0:0:
348,116,26485,2,0,L|396:44,1,80,2|0,0:0|0:0,0:0:0:0:
255,40,26829,5,8,0:0:0:0:
256,160,27002,1,0,0:0:0:0:
256,280,27174,2,0,L|256:360,1,80,2|0,0:0|0:0,0:0:0:0:
403,271,27519,2,0,L|403:170,1,80,8|8,0:0|0:0,0:0:0:0:
109,191,27864,2,0,L|109:271,1,80,2|0,0:0|0:0,0:0:0:0:
329,311,28209,6,0,L|329:231,1,80,8|0,0:0|0:0,0:0:0:0:
256,160,28554,1,2,0:0:0:0:
184,231,28726,2,0,L|184:311,1,80,2|8,0:0|0:0,0:0:0:0:
329,311,29071,1,10,0:0:0:0:
402,195,29243,2,0,L|402:115,1,80,2|0,0:0|0:0,0:0:0:0:
110,195,29588,6,0,L|110:115,1,80,8|0,0:0|0:0,0:0:0:0:
324,24,29933,2,0,L|324:112,1,80,2|0,0:0|0:0,0:0:0:0:
402,195,30278,6,0,L|410:138,1,40,8|8,0:0|0:0,0:0:0:0:
488,188,30450,2,0,L|481:227,1,40,8|8,0:0|0:0,0:0:0:0:
414,276,30623,6,0,L|406:314,5,20.0000007629395,2|2|2|2|2|2,0:0|0:0|0:0|0:0|0:0|0:0,0:0:0:0:
390,330,30967,6,0,B|331:295|331:295|289:321|235:299,1,160,12|2,0:0|0:0,0:0:0:0:
104,304,31485,1,0,0:0:0:0:
24,192,31657,1,8,0:0:0:0:
24,192,31743,1,8,0:0:0:0:
24,192,31829,1,8,0:0:0:0:
87,60,32002,2,0,P|113:30|151:21,1,80,2|0,0:0|0:0,0:0:0:0:
256,192,32347,5,8,0:0:0:0:
416,192,32519,1,8,0:0:0:0:
489,61,32691,2,0,L|412:40,1,80,2|0,0:0|0:0,0:0:0:0:
412,344,33036,2,0,L|500:320,1,80,8|0,0:0|0:0,0:0:0:0:
416,192,33381,1,2,0:0:0:0:
256,272,33554,1,0,0:0:0:0:
100,344,33726,6,0,L|22:322,1,80,8|8,0:0|0:0,0:0:0:0:
96,192,34071,1,2,0:0:0:0:
22,61,34243,2,0,P|84:163|100:40,1,80,2|8,0:0|0:0,0:0:0:0:
256,88,34588,2,0,L|333:67,1,80,2|2,0:0|0:0,0:0:0:0:
304,192,34933,1,0,0:0:0:0:
184,224,35105,5,8,0:0:0:0:
320,320,35278,1,0,0:0:0:0:
416,192,35450,2,0,L|440:100,1,80,2|0,0:0|0:0,0:0:0:0:
308,32,35795,5,8,0:0:0:0:
212,152,35967,1,8,0:0:0:0:
364,248,36140,1,2,0:0:0:0:
248,344,36312,1,2,0:0:0:0:
75,269,36485,6,0,L|96:192,1,80,12|0,0:0|0:0,0:0:0:0:
364,96,36829,2,0,L|336:200,1,80,2|0,0:0|0:0,0:0:0:0:
55,285,37174,2,0,L|75:207,1,80,8|0,0:0|0:0,0:0:0:0:
344,112,37518,2,0,L|316:216,1,80,2|0,0:0|0:0,0:0:0:0:
176,288,37864,1,8,0:0:0:0:
212,152,38036,1,8,0:0:0:0:
384,80,38209,6,0,L|352:180,1,88.000002685547,2|0,0:0|0:0,0:0:0:0:
212,152,38554,2,0,L|240:64,1,88.000002685547,2|0,0:0|0:0,0:0:0:0:
512,152,38898,2,0,L|480:256,1,88.000002685547,2|0,0:0|0:0,0:0:0:0:
256,376,39243,6,0,P|311:376|362:352,1,111.999996582031,8|8,0:0|0:0,0:0:0:0:
332,224,39588,1,2,0:0:0:0:
176,288,39760,6,0,P|124:266|87:213,1,120.000004577637,2|0,0:0|0:0,0:0:0:0:
108,36,40105,1,8,0:0:0:0:
256,148,40278,1,2,0:0:0:0:
256,148,40364,1,2,0:0:0:0:
256,148,40450,6,0,B|308:144|308:144|328:112|372:96,1,128,6|0,0:0|0:0,0:0:0:0:
404,92,40709,1,0,0:0:0:0:
444,96,40795,1,2,0:0:0:0:
480,112,40881,1,0,0:0:0:0:
500,144,40967,1,2,0:0:0:0:
500,184,41054,1,2,0:0:0:0:
488,220,41140,1,2,0:0:0:0:
464,252,41226,1,0,0:0:0:0:
432,276,41312,6,0,L|368:300,1,47.9999985351563,8|0,0:0|0:0,0:0:0:0:
288,272,41485,2,0,L|291:224,1,47.9999985351563,8|0,0:0|0:0,0:0:0:0:
297,123,41657,2,0,L|235:160,1,47.9999985351563,8|8,0:0|0:0,0:0:0:0:
204,208,41829,6,0,L|208:232,3,20.0000007629395,8|8|8|12,0:0|0:0|0:0|0:0,0:0:0:0:
120,316,42174,1,2,0:0:0:0:
204,208,42347,6,0,P|148:232|53:161,1,160,2|8,0:0|0:0,0:0:0:0:
156,40,42864,2,0,L|147:119,1,80,2|2,0:0|0:0,0:0:0:0:
48,84,43209,1,2,0:0:0:0:
256,88,43381,1,8,0:0:0:0:
400,44,43554,2,0,L|494:55,1,80,8|2,0:0|0:0,0:0:0:0:
479,330,43898,2,0,L|400:340,1,80,2|0,0:0|0:0,0:0:0:0:
400,128,44243,2,0,L|489:138,1,80,2|8,0:0|0:0,0:0:0:0:
479,247,44588,1,8,0:0:0:0:
479,247,44674,1,8,0:0:0:0:
479,247,44760,2,0,L|400:256,1,80,8|0,0:0|0:0,0:0:0:0:
256,316,45105,6,0,B|196:324|196:324|176:378|97:383,1,160,2|8,0:0|0:0,0:0:0:0:
33,247,45623,2,0,L|45:153,1,80,2|2,0:0|0:0,0:0:0:0:
180,39,45967,1,2,0:0:0:0:
332,39,46140,1,8,0:0:0:0:
469,167,46312,2,0,L|479:246,1,80,8|2,0:0|0:0,0:0:0:0:
335,354,46657,2,0,L|325:275,1,80,2|0,0:0|0:0,0:0:0:0:
133,172,47002,2,0,L|122:251,1,80,2|10,0:0|0:0,0:0:0:0:
256,140,47347,1,8,0:0:0:0:
256,140,47433,1,8,0:0:0:0:
256,140,47519,2,0,L|256:60,1,80,8|0,0:0|0:0,0:0:0:0:
255,340,47864,6,0,P|181:364|113:327,1,160,2|8,0:0|0:0,0:0:0:0:
56,192,48381,2,0,L|75:96,1,80,2|2,0:0|0:0,0:0:0:0:
187,29,48726,1,2,0:0:0:0:
256,243,48898,1,8,0:0:0:0:
440,113,49071,2,0,L|456:192,1,80,8|2,0:0|0:0,0:0:0:0:
368,272,49416,2,0,L|353:194,1,80,2|0,0:0|0:0,0:0:0:0:
159,194,49760,2,0,L|143:272,1,80,2|2,0:0|0:0,0:0:0:0:
216,368,50105,1,8,0:0:0:0:
216,368,50191,1,8,0:0:0:0:
216,368,50278,6,0,L|311:354,1,80,8|8,0:0|0:0,0:0:0:0:
336,320,50536,1,8,0:0:0:0:
368,272,50623,1,2,0:0:0:0:
357,146,50795,1,8,0:0:0:0:
258,64,50967,2,0,L|219:35,3,40,2|2|2|0,0:0|0:0|0:0|0:0,0:0:0:0:
190,32,51312,1,8,0:0:0:0:
154,33,51398,1,2,0:0:0:0:
118,41,51485,1,2,0:0:0:0:
87,59,51571,1,2,0:0:0:0:
63,85,51657,6,0,P|47:110|46:149,3,40,8|8|8|0,0:0|0:0|0:0|0:0,0:0:0:0:
136,180,52002,2,0,L|143:223,3,40,2|0|8|0,0:0|0:0|0:0|0:0,0:0:0:0:
36,267,52347,2,0,P|43:285|55:302,3,40,8|8|8|2,0:0|0:0|0:0|0:0,0:0:0:0:
120,344,52691,6,2,L|116:378,5,26.6666666666667,2|2|2|2|2|2,0:0|0:0|0:0|0:0|0:0|0:0,0:0:0:0:
154,330,53036,5,12,0:0:0:0:
154,54,53295,1,6,0:0:0:0:
154,54,53554,5,2,0:0:0:0:
154,54,53640,1,0,0:0:0:0:
154,54,53726,2,0,B|209:86,1,40,0|0,0:0|0:0,0:0:0:0:
281,158,53898,2,0,L|274:119,1,40,2|0,0:0|0:0,0:0:0:0:
352,45,54071,2,0,L|383:72,1,40,0|2,0:0|0:0,0:0:0:0:
478,113,54243,2,0,L|454:161,1,40,2|2,0:0|0:0,0:0:0:0:
390,191,54416,5,4,0:0:0:0:
390,191,55105,5,8,0:0:0:0:
196,238,55278,1,2,0:0:0:0:
318,327,55450,1,2,0:0:0:0:
281,158,55623,1,2,0:0:0:0:
128,304,55795,6,0,P|105:264|103:214,1,95.9999970703126,14|8,0:0|0:0,0:0:0:0:
400,32,56140,2,0,P|423:73|424:120,1,95.9999970703126,2|8,0:0|0:0,0:0:0:0:
318,327,56485,2,0,L|296:225,1,95.9999970703126,2|8,0:0|0:0,0:0:0:0:
390,191,56829,1,2,0:0:0:0:
195,237,57002,6,0,P|144:162|183:79,1,191.999994140625,2|8,0:0|0:0,0:0:0:0:
324,56,57519,1,2,0:0:0:0:
390,191,57691,2,0,P|433:172|461:134,1,95.9999970703126,8|8,0:0|0:0,0:0:0:0:
124,180,58036,2,0,P|151:218|194:237,1,95.9999970703126,2|2,0:0|0:0,0:0:0:0:
256,41,58381,1,8,0:0:0:0:
76,23,58554,6,0,L|63:118,1,95.9999970703126,2|8,0:0|0:0,0:0:0:0:
448,118,58898,2,0,L|436:23,1,95.9999970703126,2|8,0:0|0:0,0:0:0:0:
448,265,59243,2,0,L|436:361,1,95.9999970703126,2|8,0:0|0:0,0:0:0:0:
344,216,59588,1,2,0:0:0:0:
256,309,59760,6,0,B|196:293|196:293|140:341|68:293,1,191.999994140625,2|8,0:0|0:0,0:0:0:0:
0,180,60278,1,2,0:0:0:0:
80,72,60450,2,0,P|120:104|128:168,1,95.9999970703126,8|8,0:0|0:0,0:0:0:0:
76,298,60795,5,8,0:0:0:0:
0,180,60967,2,0,L|60:202,1,47.9999985351563,2|8,0:0|0:0,0:0:0:0:
144,224,61140,1,2,0:0:0:0:
144,224,61226,1,8,0:0:0:0:
144,224,61312,2,0,L|156:277,2,47.9999985351563,2|0|8,0:0|0:0|0:0,0:0:0:0:
256,191,61657,6,0,P|229:151|185:135,1,95.9999970703126,2|8,0:0|0:0,0:0:0:0:
252,348,62002,1,2,0:0:0:0:
384,288,62174,1,2,0:0:0:0:
496,200,62347,1,0,0:0:0:0:
512,348,62519,1,2,0:0:0:0:
384,288,62691,5,8,0:0:0:0:
256,191,62864,1,2,0:0:0:0:
256,191,62950,1,2,0:0:0:0:
256,191,63036,1,2,0:0:0:0:
360,124,63209,2,0,L|381:30,1,95.9999970703126,2|8,0:0|0:0,0:0:0:0:
152,124,63554,2,0,L|130:30,1,95.9999970703126,2|2,0:0|0:0,0:0:0:0:
256,276,63898,1,2,0:0:0:0:
256,276,63985,1,2,0:0:0:0:
256,276,64071,6,0,L|161:293,1,95.9999970703126,8|8,0:0|0:0,0:0:0:0:
224,364,64416,1,2,0:0:0:0:
176,208,64588,2,0,L|64:228,1,95.9999970703126,2|8,0:0|0:0,0:0:0:0:
336,200,64933,2,0,L|448:220,1,95.9999970703126,2|8,0:0|0:0,0:0:0:0:
256,136,65278,1,2,0:0:0:0:
194,18,65450,6,0,L|216:61,1,47.9999985351563,8|8,0:0|0:0,0:0:0:0:
296,61,65623,2,0,L|317:18,1,47.9999985351563,8|8,0:0|0:0,0:0:0:0:
410,29,65795,2,0,L|367:115,1,95.9999970703126,2|8,0:0|0:0,0:0:0:0:
256,276,66140,5,2,0:0:0:0:
28,148,66312,1,8,0:0:0:0:
196,220,66485,1,2,0:0:0:0:
296,61,66657,1,2,0:0:0:0:
128,100,66829,6,0,P|114:145|126:191,1,95.9999970703126,14|8,0:0|0:0,0:0:0:0:
385,191,67174,2,0,P|397:145|384:100,1,95.9999970703126,2|8,0:0|0:0,0:0:0:0:
224,20,67519,2,0,P|211:65|225:111,1,95.9999970703126,2|8,0:0|0:0,0:0:0:0:
328,244,67864,1,2,0:0:0:0:
484,152,68036,6,0,P|468:48|380:-4,1,191.999994140625,2|8,0:0|0:0,0:0:0:0:
296,61,68554,1,2,0:0:0:0:
164,132,68726,2,0,L|150:22,1,95.9999970703126,8|8,0:0|0:0,0:0:0:0:
164,252,69071,2,0,L|151:347,1,95.9999970703126,2|2,0:0|0:0,0:0:0:0:
256,192,69416,1,8,0:0:0:0:
364,312,69588,6,0,L|480:304,1,95.9999970703126,2|8,0:0|0:0,0:0:0:0:
459,78,69933,2,0,L|363:71,1,95.9999970703126,2|8,0:0|0:0,0:0:0:0:
124,36,70278,2,0,L|219:29,1,95.9999970703126,2|8,0:0|0:0,0:0:0:0:
348,145,70623,1,2,0:0:0:0:
364,312,70795,6,0,B|308:304|308:304|264:360|176:324,1,191.999994140625,2|8,0:0|0:0,0:0:0:0:
53,229,71312,1,2,0:0:0:0:
38,66,71485,2,0,P|78:38|142:42,1,95.9999970703126,8|2,0:0|0:0,0:0:0:0:
255,131,71829,2,0,P|251:159|259:183,3,47.9999985351563,2|2|8|8,0:0|0:0|0:0|0:0,0:0:0:0:
296,241,72174,1,2,0:0:0:0:
296,241,72260,1,8,0:0:0:0:
296,241,72347,6,0,P|300:269|292:293,3,47.9999985351563,8|8|2|8,0:0|0:0|0:0|0:0,0:0:0:0:
303,361,72691,2,0,P|257:353|227:317,1,95.9999970703126,2|8,0:0|0:0,0:0:0:0:
144,152,73036,5,8,0:0:0:0:
144,152,73123,1,0,0:0:0:0:
144,152,73209,2,8,L|84:168,1,47.9999985351563,8|0,0:0|0:0,0:0:0:0:
48,88,73381,1,2,0:0:0:0:
48,88,73467,1,8,0:0:0:0:
48,88,73554,2,8,L|124:72,1,47.9999985351563,8|8,0:0|0:0,0:0:0:0:
168,24,73726,6,0,L|240:8,1,47.9999985351563,2|0,0:0|0:0,0:0:0:0:
286,136,73898,2,0,L|312:88,1,47.9999985351563,8|8,0:0|0:0,0:0:0:0:
420,72,74071,2,0,L|431:176,1,95.9999970703126,8|2,0:0|0:0,0:0:0:0:
296,232,74416,2,0,L|285:128,1,95.9999970703126,2|8,0:0|0:0,0:0:0:0:
430,167,74760,1,2,0:0:0:0:
472,306,74933,1,2,0:0:0:0:
296,348,75105,6,0,L|364:360,1,47.9999985351563,8|8,0:0|0:0,0:0:0:0:
192,276,75278,2,0,L|240:288,1,47.9999985351563,8|8,0:0|0:0,0:0:0:0:
180,348,75450,2,0,B|88:328|88:328|129:239,1,191.999994140625,2|2,0:0|0:0,0:0:0:0:
148,200,75881,1,2,0:0:0:0:
164,160,75967,1,2,0:0:0:0:
192,124,76054,1,8,0:0:0:0:
228,100,76140,1,2,0:0:0:0:
268,88,76226,1,8,0:0:0:0:
312,88,76312,1,2,0:0:0:0:
488,168,76485,6,0,L|508:238,3,47.9999985351563,8|8|8|10,0:0|0:0|0:0|0:0,0:0:0:0:
392,216,76829,2,0,L|379:262,3,47.9999985351563,2|0|8|8,0:0|0:0|0:0|0:0,0:0:0:0:
352,296,77174,1,8,0:0:0:0:
316,316,77260,1,2,0:0:0:0:
272,324,77347,1,8,0:0:0:0:
228,316,77433,1,2,0:0:0:0:
204,300,77519,6,2,L|195:274,7,15.0000005722046
192,268,77864,6,0,L|97:283,1,80,12|8,0:0|0:0,0:0:0:0:
9,200,78209,2,0,L|105:186,1,80,2|8,0:0|0:0,0:0:0:0:
212,140,78554,1,8,0:0:0:0:
120,60,78726,1,8,0:0:0:0:
120,60,78812,1,8,0:0:0:0:
120,60,78898,2,0,L|24:76,1,80,2|2,0:0|0:0,0:0:0:0:
236,24,79243,6,0,L|272:41,1,40,8|8,0:0|0:0,0:0:0:0:
357,72,79416,2,0,L|380:33,1,40,8|8,0:0|0:0,0:0:0:0:
460,85,79588,2,0,L|452:129,1,40,2|0,0:0|0:0,0:0:0:0:
474,212,79760,2,0,L|511:197,1,40,2|0,0:0|0:0,0:0:0:0:
428,288,79933,6,0,L|360:240,1,80,12|8,0:0|0:0,0:0:0:0:
363,242,80191,1,2,0:0:0:0:
363,242,80278,1,2,0:0:0:0:
149,241,80450,1,8,0:0:0:0:
149,241,80536,1,8,0:0:0:0:
149,241,80623,6,0,L|84:288,1,80,12|8,0:0|0:0,0:0:0:0:
52,304,80881,1,2,0:0:0:0:
20,320,80967,1,2,0:0:0:0:
20,192,81140,1,8,0:0:0:0:
73,76,81312,2,0,L|105:48,3,40,8|8|8|0,0:0|0:0|0:0|0:0,0:0:0:0:
176,32,81657,2,0,L|255:43,1,80,2|8,0:0|0:0,0:0:0:0:
403,104,82002,6,0,P|386:113|373:128,1,40,8|8,0:0|0:0,0:0:0:0:
416,208,82174,2,0,P|433:199|446:184,1,40,8|8,0:0|0:0,0:0:0:0:
332,199,82347,2,0,P|331:239|354:271,1,80,2|2,0:0|0:0,0:0:0:0:
436,375,82691,6,0,L|476:372,1,40,8|8,0:0|0:0,0:0:0:0:
360,348,82864,2,0,L|316:352,1,40,8|8,0:0|0:0,0:0:0:0:
284,352,83036,1,2,0:0:0:0:
248,340,83123,1,0,0:0:0:0:
216,324,83209,1,2,0:0:0:0:
188,300,83295,1,0,0:0:0:0:
164,272,83381,6,0,P|148:236|160:168,1,80,12|8,0:0|0:0,0:0:0:0:
317,123,83726,2,0,P|333:159|332:199,1,80,2|8,0:0|0:0,0:0:0:0:
224,220,84071,1,8,0:0:0:0:
392,268,84243,1,8,0:0:0:0:
392,268,84329,1,8,0:0:0:0:
392,268,84416,2,0,P|416:232|416:184,1,80,2|8,0:0|0:0,0:0:0:0:
336,40,84760,6,0,L|300:22,1,40,8|8,0:0|0:0,0:0:0:0:
281,106,84933,2,0,L|318:123,1,40,8|8,0:0|0:0,0:0:0:0:
420,144,85105,2,0,L|385:164,1,40,2|0,0:0|0:0,0:0:0:0:
456,216,85278,2,0,L|496:211,1,40,2|0,0:0|0:0,0:0:0:0:
392,268,85450,6,0,B|372:299|372:299|322:322,1,80,12|8,0:0|0:0,0:0:0:0:
299,325,85709,1,2,0:0:0:0:
260,332,85795,1,2,0:0:0:0:
110,308,85967,1,2,0:0:0:0:
33,185,86140,6,0,B|57:153|57:153|69:73,1,120,12|2,0:0|0:0,0:0:0:0:
140,48,86485,1,2,0:0:0:0:
256,136,86657,1,8,0:0:0:0:
372,48,86829,2,0,L|404:84,3,40,8|8|8|2,0:0|0:0|0:0|0:0,0:0:0:0:
460,120,87174,2,0,P|431:146|364:141,1,80,2|2,0:0|0:0,0:0:0:0:
256,136,87519,6,0,L|272:180,1,40,8|8,0:0|0:0,0:0:0:0:
344,264,87691,2,0,L|340:225,1,40,8|8,0:0|0:0,0:0:0:0:
259,256,87864,2,0,P|224:244|196:200,1,80,2|0,0:0|0:0,0:0:0:0:
168,72,88209,5,8,0:0:0:0:
140,48,88295,1,8,0:0:0:0:
104,40,88381,1,8,0:0:0:0:
68,48,88467,1,8,0:0:0:0:
40,68,88554,2,0,L|20:124,3,40,2|2|8|0,0:0|0:0|0:0|0:0,0:0:0:0:
23,140,88898,6,0,P|26:179|49:211,1,80,12|8,0:0|0:0,0:0:0:0:
268,180,89243,2,0,P|265:140|242:108,1,80,2|8,0:0|0:0,0:0:0:0:
104,148,89588,1,8,0:0:0:0:
148,279,89760,1,8,0:0:0:0:
175,302,89847,1,8,0:0:0:0:
207,317,89933,2,0,P|242:334|282:330,1,80,2|2,0:0|0:0,0:0:0:0:
389,260,90278,6,0,L|402:219,1,40,8|8,0:0|0:0,0:0:0:0:
477,196,90450,2,0,L|447:144,1,40,8|8,0:0|0:0,0:0:0:0:
512,103,90623,2,0,L|457:73,1,40,2|0,0:0|0:0,0:0:0:0:
484,5,90795,2,0,L|418:11,1,40,2|0,0:0|0:0,0:0:0:0:
367,34,90967,2,0,B|335:43|335:43|260:22,1,80,12|8,0:0|0:0,0:0:0:0:
253,30,91226,1,2,0:0:0:0:
218,40,91312,1,2,0:0:0:0:
199,182,91485,1,2,0:0:0:0:
199,182,91571,1,8,0:0:0:0:
199,182,91657,6,0,P|238:184|288:150,1,80,12|8,0:0|0:0,0:0:0:0:
304,147,91916,1,0,0:0:0:0:
338,138,92002,1,2,0:0:0:0:
389,260,92174,1,8,0:0:0:0:
256,327,92347,2,0,L|202:302,3,40,8|8|8|0,0:0|0:0|0:0|0:0,0:0:0:0:
141,325,92691,2,0,B|96:340|96:340|63:336,1,80,2|8,0:0|0:0,0:0:0:0:
5,212,93036,6,0,L|9:172,1,40,8|8,0:0|0:0,0:0:0:0:
77,135,93209,2,0,L|82:96,1,40,8|8,0:0|0:0,0:0:0:0:
129,35,93381,1,2,0:0:0:0:
255,98,93554,1,2,0:0:0:0:
389,260,93726,6,8,P|428:259|460:231,1,80
458,149,93985,1,8,0:0:0:0:
458,149,94071,2,0,P|428:124|389:124,1,80,2|8,0:0|0:0,0:0:0:0:
348,141,94329,1,0,0:0:0:0:
312,168,94416,6,0,L|256:252,1,80,12|8,0:0|0:0,0:0:0:0:
112,328,94760,2,0,L|156:256,1,80,2|8,0:0|0:0,0:0:0:0:
191,155,95105,1,8,0:0:0:0:
232,328,95278,1,8,0:0:0:0:
36,249,95450,2,0,L|77:180,1,80,2|2,0:0|0:0,0:0:0:0:
236,89,95794,6,0,L|191:155,1,80,8|8,0:0|0:0,0:0:0:0:
0,160,96140,2,0,L|48:80,1,80,2|8,0:0|0:0,0:0:0:0:
144,24,96485,1,8,0:0:0:0:
300,132,96657,1,8,0:0:0:0:
166,289,96829,2,0,P|130:309|90:305,1,80,2|8,0:0|0:0,0:0:0:0:
5,203,97174,6,0,L|0:160,1,44.0000013427735,8|8,0:0|0:0,0:0:0:0:
84,176,97347,2,0,L|108:214,1,44.0000013427735,8|8,0:0|0:0,0:0:0:0:
224,199,97519,2,0,L|156:144,1,88.000002685547,2|8,0:0|0:0,0:0:0:0:
296,308,97864,2,0,L|339:305,3,44.0000013427735,2|0|2|2,0:0|0:0|0:0|0:0,0:0:0:0:
449,295,98209,2,0,L|418:263,3,44.0000013427735,8|0|2|2,0:0|0:0|0:0|0:0,0:0:0:0:
347,217,98554,6,0,L|364:164,1,44.0000013427735,8|8,0:0|0:0,0:0:0:0:
430,121,98726,2,0,L|439:163,1,44.0000013427735,2|2,0:0|0:0,0:0:0:0:
508,212,98898,1,2,0:0:0:0:
486,50,99071,6,2,L|469:43,7,15.0000005722046,2|2|2|2|2|2|2|2,0:0|0:0|0:0|0:0|0:0|0:0|0:0|0:0,0:0:0:0:
401,12,99416,2,0,L|385:62,1,40.000001525879,0|0,0:0|0:0,0:0:0:0:
322,14,99588,2,0,P|270:29|233:63,1,100.000003814697,8|0,0:0|0:0,0:0:0:0:
195,134,99933,5,8,0:0:0:0:
222,170,100019,1,8,0:0:0:0:
260,197,100105,1,8,0:0:0:0:
304,214,100191,1,8,0:0:0:0:
347,217,100278,2,0,P|391:222|431:252,1,83.9999974365235,2|8,0:0|0:0,0:0:0:0:
264,370,100623,6,0,L|260:305,1,44.0000013427735,8|8,0:0|0:0,0:0:0:0:
184,264,100795,2,0,L|175:307,1,44.0000013427735,8|8,0:0|0:0,0:0:0:0:
64,309,100967,2,0,L|93:248,1,44.0000013427735,2|0,0:0|0:0,0:0:0:0:
30,179,101140,2,0,L|4:214,1,44.0000013427735,8|0,0:0|0:0,0:0:0:0:
128,100,101312,6,0,L|195:85,1,47.9999985351563,8|8,0:0|0:0,0:0:0:0:
304,60,101485,2,0,L|317:133,1,47.9999985351563,2|0,0:0|0:0,0:0:0:0:
347,217,101657,2,0,L|300:226,1,47.9999985351563,8|8,0:0|0:0,0:0:0:0:
184,264,101829,2,0,L|171:191,1,47.9999985351563,2|0,0:0|0:0,0:0:0:0:
220,158,102002,6,2,L|227:123,5,20.0000007629395,2|2|2|2|2|2,0:0|0:0|0:0|0:0|0:0|0:0,0:0:0:0:
300,226,102347,6,2,L|295:251,5,13.3333333333333,2|2|2|2|2|2,0:0|0:0|0:0|0:0|0:0|0:0,0:0:0:0:
256,296,102691,5,4,0:0:0:0:
256,192,102778,12,0,105450,0:0:0:0:
