osu file format v13

[General]
AudioFilename: Tenyou no mai (Zeami feat.Tenco).mp3
AudioLeadIn: 1000
PreviewTime: 54588
Countdown: 0
SampleSet: Soft
StackLeniency: 0.7
Mode: 0
LetterboxInBreaks: 0
WidescreenStoryboard: 0

[Editor]
Bookmarks: 2002,7519,10278,13036,15795,19588,25450,30967,33726,40623,42347,47864,55795,58554,66829,69588,73726,77864,80623,83381,88898,94416,102691
DistanceSpacing: 1.2
BeatDivisor: 3
GridSize: 4
TimelineZoom: 1.9

[Metadata]
Title:Tenyou no Mai
TitleUnicode:天妖ノ舞
Artist:Zeami feat. Tenshi
ArtistUnicode:世阿弥 feat. 天子
Creator:smallboat
Version:Hard
Source:Taiko no Tatsujin
Tags:seven six five namco original vocal music street machine game tatsh red cloud cat fire day god ghost monster dance EmingK Minakami Yuki mtbbsben Kawaiwkyik Mintong89 Mintong cdhsausageboy Firce777 Imai Asami
BeatmapID:430359
BeatmapSetID:178962

[Difficulty]
HPDrainRate:6
CircleSize:4
OverallDifficulty:7
ApproachRate:8
SliderMultiplier:1.4
SliderTickRate:2

[Events]
//Background and Video events
0,0,"bg1.jpg",0,0
//Break Periods
//Storyboard Layer 0 (Background)
//Storyboard Layer 1 (Fail)
//Storyboard Layer 2 (Pass)
//Storyboard Layer 3 (Foreground)
//Storyboard Sound Samples

[TimingPoints]
623,344.827586206897,4,2,1,30,1,0
623,-125,4,2,1,30,0,0
4760,-125,4,2,1,40,0,0
5450,-125,4,2,1,45,0,0
6140,-125,4,2,1,50,0,0
6829,-125,4,2,1,55,0,0
7174,-125,4,2,1,40,0,0
7519,-100,4,2,1,60,0,0
7691,-100,4,2,1,70,0,0
17174,-100,4,2,1,80,0,0
18036,-100,4,2,1,40,0,0
18381,-100,4,2,1,30,0,0
19588,-100,4,2,1,50,0,0
19933,-100,4,2,1,70,0,0
30278,-125,4,2,1,50,0,0
30623,-100,4,2,1,60,0,0
30967,-100,4,2,1,70,0,0
35795,-100,4,2,1,65,0,0
36485,-100,4,2,1,70,0,0
38209,-100,4,2,1,75,0,0
39243,-100,4,2,1,80,0,0
39760,-100,4,2,1,85,0,0
40450,-100,4,2,1,70,0,0
41312,-100,4,2,1,50,0,0
42002,-100,4,2,1,35,0,0
42347,-100,4,2,1,70,0,0
47864,-100,4,2,1,75,0,0
50278,-100,4,2,1,80,0,0
51657,-100,4,2,1,75,0,0
53036,-100,4,2,1,40,0,0
53554,-100,4,2,1,50,0,0
54416,-100,4,2,1,35,0,0
55105,-200,4,2,1,45,0,0
55795,-90.9090909090909,4,2,1,90,0,1
58554,-90.9090909090909,4,2,1,80,0,1
60795,-90.9090909090909,4,2,1,70,0,1
61312,-90.9090909090909,4,2,1,75,0,1
61657,-90.9090909090909,4,2,1,80,0,1
64071,-90.9090909090909,4,2,1,85,0,1
65450,-90.9090909090909,4,2,1,75,0,1
66140,-133.333333333333,4,2,1,85,0,1
66829,-90.9090909090909,4,2,1,80,0,1
69588,-90.9090909090909,4,2,1,75,0,1
72347,-90.9090909090909,4,2,1,70,0,1
73036,-90.9090909090909,4,2,1,75,0,1
73726,-90.9090909090909,4,2,1,85,0,1
74071,-90.9090909090909,4,2,1,95,0,1
74157,-90.9090909090909,4,2,1,85,0,1
74933,-90.9090909090909,4,2,1,80,0,1
76485,-90.9090909090909,4,2,1,75,0,1
77519,-90.9090909090909,4,2,1,55,0,1
77864,-100,4,2,1,70,0,0
78209,-100,4,2,1,90,0,0
82691,-100,4,2,1,80,0,0
83381,-100,4,2,1,85,0,0
86140,-100,4,2,1,90,0,0
87519,-100,4,2,1,80,0,0
88209,-100,4,2,1,75,0,0
88898,-100,4,2,1,70,0,0
89243,-100,4,2,1,85,0,0
94416,-100,4,2,1,90,0,0
97174,-100,4,2,1,75,0,0
98554,-100,4,2,1,80,0,0
99071,-100,4,2,1,45,0,0
99933,-100,4,2,1,85,0,0
100623,-100,4,2,1,90,0,0
101312,-100,4,2,1,95,0,0
102002,-100,4,2,1,65,0,0
102347,-100,4,2,1,50,0,0
102691,-100,4,2,1,10,0,0

[Colours]
Combo1 : 255,38,38
Combo2 : 0,230,57
Combo3 : 79,167,255
Combo4 : 255,255,64

[HitObjects]
256,192,623,12,0,1657,0:0:0:0:
56,276,2002,5,8,0:0:0:0:
122,200,2347,2,0,P|179:199|235:238,1,112,2|8,0:0|0:0,0:0:0:0:
278,311,3036,1,2,0:0:0:0:
356,247,3381,5,8,0:0:0:0:
436,316,3726,2,0,P|460:266|455:211,1,112,2|8,0:0|0:0,0:0:0:0:
399,120,4416,1,2,0:0:0:0:
454,35,4760,5,8,0:0:0:0:
353,32,5105,2,0,P|289:54|232:33,1,112,2|8,0:0|0:0,0:0:0:0:
149,67,5795,1,2,0:0:0:0:
55,28,6140,5,8,0:0:0:0:
61,128,6485,2,0,P|73:181|53:232,1,112,2|8,0:0|0:0,0:0:0:0:
27,275,7002,1,8,0:0:0:0:
14,323,7174,2,0,L|40:360,3,28,2|0|0|0,0:0|0:0|0:0|0:0,0:0:0:0:
51,367,7519,6,0,P|121:373|184:326,1,140,12|2,0:0|0:0,0:0:0:0:
233,263,8036,1,2,0:0:0:0:
163,124,8209,2,0,P|140:200|144:264,1,140,8|2,0:0|0:0,0:0:0:0:
312,212,8726,1,2,0:0:0:0:
259,136,8898,6,0,P|222:207|249:285,1,140,8|2,0:0|0:0,0:0:0:0:
287,328,9416,1,2,0:0:0:0:
365,356,9588,2,0,P|406:346|431:323,1,70,8|2,0:0|0:0,0:0:0:0:
461,234,9933,2,0,P|419:243|394:266,1,70,8|2,0:0|0:0,0:0:0:0:
312,212,10278,6,0,P|346:150|327:75,1,140,12|2,0:0|0:0,0:0:0:0:
259,136,10795,1,2,0:0:0:0:
419,170,10967,2,0,P|423:104|382:25,1,140,8|2,0:0|0:0,0:0:0:0:
315,4,11485,1,2,0:0:0:0:
312,212,11657,6,0,P|346:150|327:75,1,140,8|2,0:0|0:0,0:0:0:0:
253,58,12174,1,2,0:0:0:0:
200,128,12347,2,0,P|217:158|221:193,1,70,8|2,0:0|0:0,0:0:0:0:
66,136,12691,2,0,P|52:102|61:55,1,70,8|2,0:0|0:0,0:0:0:0:
135,188,13036,6,0,P|85:236|17:239,1,140,12|2,0:0|0:0,0:0:0:0:
66,136,13554,1,2,0:0:0:0:
144,200,13726,2,0,P|94:247|26:250,1,140,8|2,0:0|0:0,0:0:0:0:
74,147,14244,1,2,0:0:0:0:
196,148,14416,6,0,P|261:168|326:148,1,140,8|2,0:0|0:0,0:0:0:0:
396,200,14933,1,2,0:0:0:0:
477,172,15105,2,0,P|501:140|500:89,1,70,8|2,0:0|0:0,0:0:0:0:
424,108,15450,2,0,P|417:68|378:34,1,70,8|2,0:0|0:0,0:0:0:0:
320,94,15795,6,0,P|263:130|188:100,1,140,12|2,0:0|0:0,0:0:0:0:
135,62,16312,1,2,0:0:0:0:
252,52,16485,2,0,P|262:119|224:177,1,140,8|2,0:0|0:0,0:0:0:0:
152,224,17002,1,2,0:0:0:0:
152,224,17088,1,2,0:0:0:0:
152,224,17174,5,2,0:0:0:0:
66,244,17347,1,2,0:0:0:0:
26,318,17519,1,2,0:0:0:0:
94,366,17691,2,0,B|86:367|169:353,1,70,2|0,0:0|0:0,0:0:0:0:
259,334,18036,6,0,L|287:337,3,23.3333333333333,8|8|8|8,0:0|0:0|0:0|0:0,0:0:0:0:
284,255,18381,2,0,L|288:216,2,23.3333333333333,8|8|8,0:0|0:0|0:0,0:0:0:0:
68,40,19588,6,0,L|152:52,1,70,2|2,0:0|0:0,0:0:0:0:
212,64,19933,5,8,0:0:0:0:
235,187,20278,2,0,B|296:158|296:158|339:83,1,140,2|8,0:0|0:0,0:0:0:0:
448,47,20967,1,2,0:0:0:0:
495,163,21312,6,0,B|484:234|484:234|437:282,1,140,8|2,0:0|0:0,0:0:0:0:
317,324,22002,2,0,L|329:241,1,70,8|8,0:0|0:0,0:0:0:0:
235,187,22347,2,0,L|226:267,1,70,2|0,0:0|0:0,0:0:0:0:
148,313,22691,6,0,B|95:301|95:301|93:253|44:198,1,140,8|2,0:0|0:0,0:0:0:0:
55,145,23209,2,0,P|69:116|112:93,1,70,2|0,0:0|0:0,0:0:0:0:
164,138,23554,2,0,P|196:133|225:98,1,70,2|0,0:0|0:0,0:0:0:0:
237,31,23898,1,2,0:0:0:0:
311,16,24071,6,0,B|399:28,1,70,8|0,0:0|0:0,0:0:0:0:
474,101,24416,2,0,L|390:93,1,70,2|0,0:0|0:0,0:0:0:0:
332,120,24760,1,8,0:0:0:0:
291,185,24933,1,8,0:0:0:0:
335,247,25105,2,0,L|419:287,1,70,2|0,0:0|0:0,0:0:0:0:
452,352,25450,6,0,P|384:364|300:328,1,140,8|2,0:0|0:0,0:0:0:0:
60,352,26140,2,0,P|128:364|212:328,1,140,8|2,0:0|0:0,0:0:0:0:
256,232,26829,1,8,0:0:0:0:
164,108,27174,1,2,0:0:0:0:
84,240,27519,2,0,P|20:187|19:118,1,140,8|2,0:0|0:0,0:0:0:0:
136,36,28209,5,8,0:0:0:0:
204,172,28554,1,2,0:0:0:0:
256,232,28726,2,0,P|324:228|384:152,1,140,2|2,0:0|0:0,0:0:0:0:
412,112,29243,1,2,0:0:0:0:
412,112,29588,6,0,P|426:53|478:83,1,140,8|2,0:0|0:0,0:0:0:0:
440,288,30278,2,0,L|428:336,3,28,10|2|2|0,0:0|0:0|0:0|0:0,0:0:0:0:
396,344,30623,2,0,L|308:336,1,70
189,320,30967,5,12,0:0:0:0:
189,320,31312,2,0,B|155:296|131:244|131:244|142:201,1,140,2|8,0:0|0:0,0:0:0:0:
256,96,32002,1,2,0:0:0:0:
402,49,32347,6,0,B|435:72|459:124|459:124|448:167,1,140,8|2,0:0|0:0,0:0:0:0:
328,264,33036,2,0,P|296:279|262:280,1,70,8|0,0:0|0:0,0:0:0:0:
148,184,33381,2,0,P|182:185|214:201,1,70,2|0,0:0|0:0,0:0:0:0:
69,222,33726,6,0,B|32:184|32:184|24:140|57:95,1,140,8|2,0:0|0:0,0:0:0:0:
173,30,34243,2,0,P|138:32|108:47,1,70,2|0,0:0|0:0,0:0:0:0:
230,80,34588,2,0,P|265:79|296:63,1,70,2|2,0:0|0:0,0:0:0:0:
364,24,34933,1,2,0:0:0:0:
440,36,35105,6,0,P|457:66|459:100,1,70,8|0,0:0|0:0,0:0:0:0:
424,168,35450,2,0,P|426:202|443:232,1,70,2|0,0:0|0:0,0:0:0:0:
496,292,35795,5,8,0:0:0:0:
444,348,35967,1,8,0:0:0:0:
368,368,36140,1,2,0:0:0:0:
299,327,36312,1,2,0:0:0:0:
256,260,36485,6,0,B|216:272|216:272|176:240|92:244,1,140,12|2,0:0|0:0,0:0:0:0:
8,140,37174,2,0,B|48:128|48:128|88:160|172:156,1,140,8|2,0:0|0:0,0:0:0:0:
256,52,37864,5,8,0:0:0:0:
372,156,38209,1,2,0:0:0:0:
368,312,38554,2,0,B|425:320|425:320|457:272|509:244,1,140,8|2,0:0|0:0,0:0:0:0:
504,108,39243,5,8,0:0:0:0:
352,80,39588,1,2,0:0:0:0:
296,132,39760,2,2,B|256:174|256:174|201:157|143:168,1,140,2|8,0:0|0:0,0:0:0:0:
104,192,40278,1,2,0:0:0:0:
28,172,40450,1,6,0:0:0:0:
8,96,40623,6,0,L|52:72,3,35,0|0|0|0,0:0|0:0|0:0|0:0,0:0:0:0:
89,15,40967,2,0,L|141:7,3,35,0|0|0|0,0:0|0:0|0:0|0:0,0:0:0:0:
120,92,41312,2,0,L|160:104,3,35,0|0|0|0,0:0|0:0|0:0|0:0,0:0:0:0:
222,66,41657,2,0,L|234:112,3,35,0|0|0|0,0:0|0:0|0:0|0:0,0:0:0:0:
241,136,42002,5,12,0:0:0:0:
383,170,42347,2,0,P|417:160|443:134,1,70,8|8,0:0|0:0,0:0:0:0:
485,73,42691,1,2,0:0:0:0:
430,18,42864,1,2,0:0:0:0:
290,83,43209,1,2,0:0:0:0:
182,192,43554,1,2,0:0:0:0:
334,226,43898,1,2,0:0:0:0:
256,358,44243,2,0,B|211:369|211:369|155:351|123:286,1,140,2|8,0:0|0:0,0:0:0:0:
95,248,44760,1,8,0:0:0:0:
54,63,45105,6,0,P|89:65|131:37,1,70,8|8,0:0|0:0,0:0:0:0:
188,13,45450,1,2,0:0:0:0:
265,16,45623,1,2,0:0:0:0:
418,74,45967,1,2,0:0:0:0:
294,166,46312,1,2,0:0:0:0:
437,221,46657,1,2,0:0:0:0:
298,289,47002,2,0,B|314:327|370:345|370:345|415:334,1,140,2|8,0:0|0:0,0:0:0:0:
475,288,47519,1,8,0:0:0:0:
418,73,47864,6,0,P|383:70|353:52,1,70,8|8,0:0|0:0,0:0:0:0:
277,14,48209,1,2,0:0:0:0:
193,24,48381,1,2,0:0:0:0:
42,99,48726,1,2,0:0:0:0:
151,226,49071,1,2,0:0:0:0:
246,87,49416,1,2,0:0:0:0:
348,219,49760,2,0,B|364:257|420:275|420:275|465:264,1,140,2|8,0:0|0:0,0:0:0:0:
501,188,50278,6,0,L|489:91,1,70,8|8,0:0|0:0,0:0:0:0:
479,35,50623,1,2,0:0:0:0:
396,20,50795,1,2,0:0:0:0:
396,20,50967,2,0,L|419:183,1,140,2|2,0:0|0:0,0:0:0:0:
348,219,51485,1,2,0:0:0:0:
324,136,51657,6,0,L|280:112,3,35,8|0|2|0,0:0|0:0|0:0|0:0,0:0:0:0:
268,196,52002,2,0,L|212:208,3,35,8|0|2|0,0:0|0:0|0:0|0:0,0:0:0:0:
188,264,52347,1,8,0:0:0:0:
188,264,52433,1,8,0:0:0:0:
188,264,52519,2,0,B|144:292|144:292|126:288,1,70,2|2,0:0|0:0,0:0:0:0:
63,243,52864,1,2,0:0:0:0:
12,188,53036,5,12,0:0:0:0:
94,78,53295,1,6,0:0:0:0:
223,34,53554,1,2,0:0:0:0:
223,34,53640,1,0,0:0:0:0:
223,34,53726,2,0,L|275:50,3,35,2|0|0|2,0:0|0:0|0:0|0:0,0:0:0:0:
293,71,54071,2,0,L|305:127,3,35,0|0|2|0,0:0|0:0|0:0|0:0,0:0:0:0:
311,149,54416,5,4,0:0:0:0:
312,360,55105,6,0,L|319:314,1,35,8|2,0:0|0:0,0:0:0:0:
256,248,55450,2,0,L|248:288,1,35,2|2,0:0|0:0,0:0:0:0:
192,352,55795,6,0,B|160:364|160:364|96:356,1,77.0000023498536,14|8,0:0|0:0,0:0:0:0:
24,276,56140,2,0,B|56:288|56:288|120:280,1,77.0000023498536,2|8,0:0|0:0,0:0:0:0:
160,194,56485,2,0,B|128:206|128:206|64:198,1,77.0000023498536,2|8,0:0|0:0,0:0:0:0:
28,136,56829,1,2,0:0:0:0:
88,68,57002,2,0,B|132:88|132:88|180:48|248:52,1,154.000004699707,2|8,0:0|0:0,0:0:0:0:
296,116,57519,1,2,0:0:0:0:
256,200,57691,2,0,B|300:220|300:220|348:180|416:184,1,154.000004699707,8|2,0:0|0:0,0:0:0:0:
480,225,58209,1,2,0:0:0:0:
423,297,58381,1,8,0:0:0:0:
341,342,58554,6,0,P|305:354|257:351,1,77.0000023498536,2|8,0:0|0:0,0:0:0:0:
136,288,58898,2,0,P|172:275|210:276,1,77.0000023498536,2|8,0:0|0:0,0:0:0:0:
184,360,59243,2,0,P|148:372|100:369,1,77.0000023498536,2|8,0:0|0:0,0:0:0:0:
24,336,59588,1,2,0:0:0:0:
4,248,59760,2,0,B|56:240|56:240|84:188|172:192,1,154.000004699707,2|8,0:0|0:0,0:0:0:0:
232,204,60278,1,2,0:0:0:0:
312,248,60450,2,0,B|364:272|364:272|428:256|462:215,1,154.000004699707,8|2,0:0|0:0,0:0:0:0:
500,152,60967,2,0,L|508:96,3,38.5000011749268,2|0|2|0,0:0|0:0|0:0|0:0,0:0:0:0:
496,68,61312,5,2,0:0:0:0:
316,36,61657,2,0,L|239:46,1,77.0000023498536,2|8,0:0|0:0,0:0:0:0:
124,132,62002,2,0,L|200:120,1,77.0000023498536,2|2,0:0|0:0,0:0:0:0:
292,140,62347,1,2,0:0:0:0:
256,224,62519,1,2,0:0:0:0:
432,244,62864,1,2,0:0:0:0:
304,376,63209,1,2,0:0:0:0:
120,352,63554,2,0,B|92:356|92:356|51:328,1,77.0000023498536,2|8,0:0|0:0,0:0:0:0:
20,240,63898,1,2,0:0:0:0:
59,156,64071,6,0,P|94:139|118:109,1,77.0000023498536,8|8,0:0|0:0,0:0:0:0:
156,24,64416,1,2,0:0:0:0:
64,28,64588,1,2,0:0:0:0:
152,192,64933,1,2,0:0:0:0:
256,344,65278,1,2,0:0:0:0:
348,360,65450,6,0,L|412:348,3,38.5000011749268,8|8|8|0,0:0|0:0|0:0|0:0,0:0:0:0:
456,320,65795,2,0,B|476:304|476:304|492:240,1,77.0000023498536,2|8,0:0|0:0,0:0:0:0:
492,125,66140,6,0,L|474:62,1,52.5000020027161,8|2,0:0|0:0,0:0:0:0:
396,125,66485,2,0,L|413:184,1,52.5000020027161,8|2,0:0|0:0,0:0:0:0:
384,260,66829,6,0,P|350:241|330:208,1,77.0000023498536,14|8,0:0|0:0,0:0:0:0:
292,112,67174,2,0,P|256:98|218:103,1,77.0000023498536,2|8,0:0|0:0,0:0:0:0:
148,180,67519,2,0,P|110:184|74:171,1,77.0000023498536,2|0,0:0|0:0,0:0:0:0:
20,96,67864,1,2,0:0:0:0:
97,44,68036,2,0,B|142:55|142:55|184:23|248:26,1,154.000004699707,2|10,0:0|0:0,0:0:0:0:
336,28,68554,1,2,0:0:0:0:
404,88,68726,2,0,B|376:144|376:144|331:112|285:112,1,154.000004699707,2|2,0:0|0:0,0:0:0:0:
212,128,69243,1,2,0:0:0:0:
148,180,69416,1,8,0:0:0:0:
70,282,69588,6,0,P|116:310|214:260,1,154.000004699707,8|2,0:0|0:0,0:0:0:0:
252,200,70105,1,8,0:0:0:0:
282,112,70278,2,0,L|310:25,1,77.0000023498536,2|0,0:0|0:0,0:0:0:0:
397,28,70623,1,2,0:0:0:0:
476,74,70795,2,0,B|494:129|494:129|480:193|436:231,1,154.000004699707,2|2,0:0|0:0,0:0:0:0:
376,267,71312,1,2,0:0:0:0:
288,297,71485,2,0,B|244:281|244:281|197:308|125:265,1,154.000004699707,10|2,0:0|0:0,0:0:0:0:
54,241,72002,1,2,0:0:0:0:
17,156,72174,1,2,0:0:0:0:
92,101,72347,6,0,B|141:108|141:108|161:48|238:45,1,154.000004699707,8|2,0:0|0:0,0:0:0:0:
313,54,72864,1,8,0:0:0:0:
373,123,73036,2,0,B|308:148|308:148|266:111|210:146,1,154.000004699707,8|2,0:0|0:0,0:0:0:0:
165,203,73554,1,8,0:0:0:0:
126,286,73726,5,2,0:0:0:0:
293,364,74071,2,0,P|330:355|364:309,1,77.0000023498536,2|0,0:0|0:0,0:0:0:0:
447,223,74416,2,0,P|408:224|366:262,1,77.0000023498536,2|0,0:0|0:0,0:0:0:0:
435,310,74760,1,2,0:0:0:0:
297,267,74933,6,0,B|243:262|243:262|217:216|142:197,1,154.000004699707,2|0,0:0|0:0,0:0:0:0:
143,114,75450,2,0,P|108:127|84:157,1,77.0000023498536,2|0,0:0|0:0,0:0:0:0:
223,137,75795,2,0,P|259:122|284:94,1,77.0000023498536,2|0,0:0|0:0,0:0:0:0:
206,54,76140,1,2,0:0:0:0:
116,32,76312,1,2,0:0:0:0:
23,55,76485,6,0,L|-21:112,3,38.5000011749268,8|0|0|0,0:0|0:0|0:0|0:0,0:0:0:0:
69,122,76829,2,0,L|84:169,3,38.5000011749268,2|0|0|0,0:0|0:0|0:0|0:0,0:0:0:0:
153,194,77174,2,0,L|120:235,3,38.5000011749268,2|0|8|0,0:0|0:0|0:0|0:0,0:0:0:0:
48,233,77519,2,0,L|66:282,3,38.5000011749268,2|0|0|0,0:0|0:0|0:0|0:0,0:0:0:0:
82,309,77864,5,12,0:0:0:0:
257,358,78209,1,2,0:0:0:0:
400,272,78554,2,0,B|416:232|416:232|392:172|440:136,1,140,8|2,0:0|0:0,0:0:0:0:
488,196,79071,1,2,0:0:0:0:
328,184,79243,6,0,B|336:128|336:128|376:104|381:58,1,140,8|2,0:0|0:0,0:0:0:0:
320,1,79760,1,2,0:0:0:0:
236,12,79933,2,0,L|113:24,1,105,12|2,0:0|0:0,0:0:0:0:
89,28,80278,1,2,0:0:0:0:
88,110,80450,1,8,0:0:0:0:
88,110,80536,1,8,0:0:0:0:
88,110,80623,6,0,B|124:146|124:146|180:146|207:118,1,140,12|2,0:0|0:0,0:0:0:0:
423,110,81312,2,0,B|388:146|388:146|332:146|304:118,1,140,8|2,0:0|0:0,0:0:0:0:
256,276,82002,2,0,B|291:311|291:311|347:311|374:283,1,140,8|2,0:0|0:0,0:0:0:0:
420,212,82519,1,2,0:0:0:0:
336,209,82691,2,0,B|308:219|308:219|271:187|216:194|184:238,1,140,8|2,0:0|0:0,0:0:0:0:
101,348,83381,6,0,B|55:326|55:326|30:271|32:240,1,140,12|2,0:0|0:0,0:0:0:0:
92,83,84071,2,0,B|137:104|137:104|162:159|160:190,1,140,8|2,0:0|0:0,0:0:0:0:
256,326,84760,2,0,B|299:350|299:350|358:338|383:318,1,140,8|2,0:0|0:0,0:0:0:0:
452,271,85278,1,2,0:0:0:0:
508,209,85450,2,0,B|464:184|464:184|405:196|380:216,1,140,12|2,0:0|0:0,0:0:0:0:
319,270,85967,1,2,0:0:0:0:
256,326,86140,6,0,B|227:305|227:305|168:314|141:239,1,140,12|2,0:0|0:0,0:0:0:0:
133,167,86657,1,8,0:0:0:0:
152,85,86829,2,0,P|179:62|213:54,1,70,8|8,0:0|0:0,0:0:0:0:
317,163,87174,2,0,P|290:185|256:193,1,70,2|2,0:0|0:0,0:0:0:0:
255,115,87519,6,0,P|316:86|378:114,1,140,8|2,0:0|0:0,0:0:0:0:
494,215,88209,1,8,0:0:0:0:
461,292,88381,1,8,0:0:0:0:
391,339,88554,2,0,L|284:352,1,105,2|0,0:0|0:0,0:0:0:0:
244,360,88898,5,12,0:0:0:0:
76,356,89243,1,2,0:0:0:0:
16,204,89588,2,0,B|49:175|49:175|102:179|121:95,1,140,8|2,0:0|0:0,0:0:0:0:
169,53,90105,1,2,0:0:0:0:
246,85,90278,6,0,B|290:112|332:88|332:88|392:108,1,140,8|2,0:0|0:0,0:0:0:0:
462,94,90795,1,2,0:0:0:0:
492,172,90967,2,0,B|508:208|488:240|488:240|492:284,1,105,12|2,0:0|0:0,0:0:0:0:
496,316,91312,1,2,0:0:0:0:
412,304,91485,1,2,0:0:0:0:
412,304,91571,1,8,0:0:0:0:
412,304,91657,6,0,B|384:261|384:261|408:217|376:178,1,140,12|2,0:0|0:0,0:0:0:0:
135,178,92347,2,0,B|103:217|127:261|127:261|100:304,1,140,8|2,0:0|0:0,0:0:0:0:
325,260,93036,2,0,B|282:232|282:232|238:256|199:224,1,140,8|2,0:0|0:0,0:0:0:0:
135,178,93554,1,2,0:0:0:0:
96,104,93726,2,0,B|129:61|184:74|184:74|231:47,1,140,8|2,0:0|0:0,0:0:0:0:
416,104,94416,6,0,B|383:61|328:74|328:74|281:47,1,140,12|2,0:0|0:0,0:0:0:0:
256,120,94933,1,8,0:0:0:0:
280,204,95105,2,0,P|344:226|403:192,1,140,8|2,0:0|0:0,0:0:0:0:
336,144,95623,1,2,0:0:0:0:
256,120,95795,6,0,P|191:142|132:108,1,140,8|2,0:0|0:0,0:0:0:0:
48,96,96312,1,8,0:0:0:0:
28,176,96485,1,8,0:0:0:0:
108,200,96657,1,8,0:0:0:0:
102,283,96829,1,2,0:0:0:0:
184,299,97002,1,8,0:0:0:0:
256,192,97174,12,0,99588,0:0:0:0:
98,198,99933,5,8,0:0:0:0:
98,198,100019,1,8,0:0:0:0:
98,198,100105,1,8,0:0:0:0:
145,270,100278,2,0,L|237:265,1,70,2|8,0:0|0:0,0:0:0:0:
414,198,100623,5,8,0:0:0:0:
414,198,100709,1,8,0:0:0:0:
414,198,100795,1,8,0:0:0:0:
367,270,100968,2,0,L|275:265,1,70,2|8,0:0|0:0,0:0:0:0:
256,192,101312,5,8,0:0:0:0:
325,122,101485,1,2,0:0:0:0:
256,52,101657,1,8,0:0:0:0:
186,121,101829,1,2,0:0:0:0:
92,97,102002,6,0,L|69:31,2,46.6666666666667,2|2|2,0:0|0:0|0:0,0:0:0:0:
116,186,102347,2,0,L|98:235,2,46.6666666666667,2|2|2,0:0|0:0|0:0,0:0:0:0:
256,192,102691,12,0,105450,0:0:0:0:
