osu file format v12

[General]
AudioFilename: 174.mp3
AudioLeadIn: 0
PreviewTime: 54919
Countdown: 0
SampleSet: Soft
StackLeniency: 0.7
Mode: 0
LetterboxInBreaks: 0
WidescreenStoryboard: 0

[Editor]
Bookmarks: 5386
DistanceSpacing: 1
BeatDivisor: 4
GridSize: 4
TimelineZoom: 1.5

[Metadata]
Title:Tenyou no Mai
TitleUnicode:天妖ノ舞
Artist:Zeami feat. Tenshi
ArtistUnicode:世阿弥 feat.天子
Creator:TaMul
Version:Normal
Source:太鼓の達人
Tags:alacat koreapenguin
BeatmapID:405164
BeatmapSetID:166710

[Difficulty]
HPDrainRate:4
CircleSize:3
OverallDifficulty:4
ApproachRate:4
SliderMultiplier:1.2
SliderTickRate:2

[Events]
//Background and Video events
0,0,"361379-1366x768.jpg",0,0
//Break Periods
//Storyboard Layer 0 (Background)
//Storyboard Layer 1 (Fail)
//Storyboard Layer 2 (Pass)
//Storyboard Layer 3 (Foreground)
//Storyboard Sound Samples
//Background Colour Transformations
3,100,163,162,255

[TimingPoints]
559,344.827586206897,4,2,1,50,1,0
12627,-100,4,2,3,50,0,0
12800,-100,4,2,1,50,0,0
16076,-100,4,2,3,50,0,0
16248,-100,4,2,1,50,0,0
22972,-100,4,2,3,50,0,0
24007,-100,4,2,4,50,0,0
24179,-100,4,2,1,50,0,0
25731,-100,4,2,3,50,0,0
25903,-100,4,2,1,50,0,0
28490,-100,4,2,3,50,0,0
28834,-100,4,2,4,50,0,0
29007,-100,4,2,1,50,0,0
34007,-100,4,2,3,50,0,0
34179,-100,4,2,1,50,0,0
34696,-100,4,2,3,50,0,0
35041,-100,4,2,1,50,0,0
36765,-100,4,2,3,50,0,0
37110,-100,4,2,1,50,0,0
42972,-100,4,2,3,50,0,0
43145,-100,4,2,1,50,0,0
45731,-100,4,2,3,50,0,0
46765,-100,4,2,1,50,0,0
48145,-100,4,2,4,50,0,0
48317,-100,4,2,1,50,0,0
49524,-100,4,2,4,50,0,0
50214,-100,4,2,1,50,0,0
50559,-100,4,2,3,50,0,0
50731,-100,4,2,1,50,0,0
51938,-100,4,2,3,50,0,0
52110,-100,4,2,1,50,0,0
52283,-100,4,2,4,50,0,0
52455,-100,4,2,1,50,0,0
53317,-100,4,2,4,50,0,0
53662,-100,4,2,1,50,0,0
54007,-100,4,2,4,50,0,0
54179,-100,4,2,1,50,0,0
55731,-100,4,2,1,50,0,1
57455,-100,4,2,3,50,0,1
57627,-100,4,2,1,50,0,1
60214,-100,4,2,3,50,0,1
60559,-100,4,2,1,50,0,1
62972,-100,4,2,3,50,0,1
63145,-100,4,2,1,50,0,1
63317,-100,4,2,4,50,0,1
63490,-100,4,2,1,50,0,1
64352,-100,4,2,3,50,0,1
64524,-100,4,2,1,50,0,1
67110,-100,4,2,3,50,0,1
67283,-100,4,2,1,50,0,1
69869,-100,4,2,3,50,0,1
70041,-100,4,2,1,50,0,1
72627,-100,4,2,3,50,0,1
72800,-100,4,2,1,50,0,1
74007,-100,4,2,3,50,0,1
74179,-100,4,2,1,50,0,1
74696,-100,4,2,3,50,0,1
74869,-100,4,2,1,50,0,1
77455,-100,4,2,1,50,0,0
77800,-100,4,2,1,50,0,1
78834,-100,4,2,3,50,0,1
79007,-100,4,2,1,50,0,1
82283,-100,4,2,3,50,0,1
82455,-100,4,2,1,50,0,1
82627,-100,4,2,4,50,0,1
82800,-100,4,2,1,50,0,1
86421,-100,4,2,3,50,0,1
86593,-100,4,2,1,50,0,1
86765,-100,4,2,4,50,0,1
86938,-100,4,2,1,50,0,1
88317,-100,4,2,4,50,0,1
88490,-100,4,2,1,50,0,1
89179,-100,4,2,3,50,0,1
89352,-100,4,2,1,50,0,1
90559,-100,4,2,3,50,0,1
90731,-100,4,2,1,50,0,1
93317,-100,4,2,3,50,0,1
93662,-100,4,2,1,50,0,1
97455,-100,4,2,3,50,0,1
97627,-100,4,2,1,50,0,1
97800,-100,4,2,4,50,0,1
97972,-100,4,2,1,50,0,1
99869,-100,4,2,1,50,0,0

[Colours]
Combo1 : 128,128,255
Combo2 : 255,0,128
Combo3 : 255,128,255
Combo4 : 0,128,192

[HitObjects]
256,192,559,12,4,1938,0:0:0:0:
128,172,2283,6,0,B|108:212|148:244|136:288,1,120,8|2,0:0|0:0,0:0:0:0:
256,280,2972,1,8,0:0:0:0:
376,288,3317,2,0,B|364:244|404:212|384:172,1,120,2|8,0:0|0:0,0:0:0:0:
316,72,4007,1,2,0:0:0:0:
196,72,4352,1,8,0:0:0:0:
256,192,4696,12,6,7455,0:0:0:0:
64,80,8145,6,0,P|108:64|176:84,1,120,2|8,0:0|0:0,0:0:0:0:
256,172,8834,1,2,0:0:0:0:
335,84,9179,2,0,P|391:63|448:80,2,120,8|2|8,0:0|0:0|0:0,0:0:0:0:
256,172,10214,5,2,0:0:0:0:
300,284,10559,1,8,0:0:0:0:
420,288,10903,2,0,P|420:244|368:188,1,120,2|8,0:0|0:0,0:0:0:0:
256,172,11593,2,0,P|204:200|140:192,1,120,2|8,0:0|0:0,0:0:0:0:
36,140,12283,2,0,L|8:324,1,180,2|0,0:0|0:0,0:0:0:0:
68,300,12972,6,0,P|112:296|180:332,1,120,6|8,0:0|0:0,0:0:0:0:
256,240,13662,2,0,L|256:120,2,120,2|8|2,0:0|0:0|0:0,0:0:0:0:
334,329,14696,2,0,P|384:298|444:300,1,120,8|2,0:0|0:0,0:0:0:0:
496,192,15386,1,8,0:0:0:0:
480,72,15731,6,0,B|420:68|368:128|376:192|376:192|352:180|312:180,1,240,2|2,0:0|0:0,0:0:0:0:
256,76,16765,1,8,0:0:0:0:
188,176,17110,2,0,B|160:204|52:132|12:176,2,180,2|2|2,0:0|3:0|0:0,0:0:0:0:
256,192,18490,12,0,19524,0:0:0:0:
128,300,19869,6,0,P|152:244|140:184,1,120,4|8,0:0|0:0,0:0:0:0:
92,76,20559,1,2,0:0:0:0:
20,172,20903,1,8,0:0:0:0:
141,187,21248,2,0,P|188:152|252:156,1,120,2|8,0:0|0:0,0:0:0:0:
368,144,21938,2,0,P|412:164|480:144,1,120,2|8,0:0|0:0,0:0:0:0:
424,40,22627,6,0,P|388:24|264:80,1,180,2|0,0:0|0:0,0:0:0:0:
256,196,23490,1,0,0:0:0:0:
328,292,23834,2,0,P|368:312|448:304,1,120
468,252,24352,2,0,L|492:372,2,120,8|2|8,0:0|0:0|0:0,0:0:0:0:
364,188,25386,6,0,P|280:184|220:312,1,240,2|2,0:0|0:0,0:0:0:0:
128,232,26421,1,8,0:0:0:0:
24,292,26765,6,0,P|64:336|124:352,1,120,2|8,0:0|0:0,0:0:0:0:
128,232,27455,2,0,P|140:176|124:112,1,120,2|8,0:0|0:0,0:0:0:0:
228,56,28145,6,0,L|408:64,2,180,2|0|8,0:0|0:0|0:0,0:0:0:0:
296,156,29524,2,0,P|276:200|288:276,1,120,0|2,0:0|0:0,0:0:0:0:
204,360,30214,1,8,0:0:0:0:
96,304,30559,1,8,0:0:0:0:
96,184,30903,6,0,P|124:136|120:68,1,120,6|8,0:0|0:0,0:0:0:0:
236,32,31593,2,0,P|260:64|340:72,1,120,2|8,0:0|0:0,0:0:0:0:
436,8,32283,1,2,0:0:0:0:
452,128,32627,1,8,0:0:0:0:
384,228,32972,2,0,P|376:264|404:344,1,120,2|8,0:0|0:0,0:0:0:0:
288,380,33662,6,0,P|296:296|268:200,1,180,2|0,0:0|0:0,0:0:0:0:
156,168,34524,2,0,P|156:236|188:284,1,120
124,260,35041,2,0,P|84:248|4:264,1,120,2|8,0:0|0:0,0:0:0:0:
36,144,35731,1,2,0:0:0:0:
12,28,36076,1,8,0:0:0:0:
124,68,36421,6,0,B|168:96|244:40|304:72,1,180,6|0,0:0|0:0,0:0:0:0:
348,104,37110,2,0,P|372:144|364:216,1,120,2|8,0:0|0:0,0:0:0:0:
256,264,37800,1,2,0:0:0:0:
147,214,38145,2,0,P|137:156|164:104,2,120,8|2|8,0:0|0:0|0:0,0:0:0:0:
160,336,39179,5,2,0:0:0:0:
256,184,39696,1,2,0:0:0:0:
352,336,40214,1,8,0:0:0:0:
352,336,40386,1,6,0:0:0:0:
256,192,40559,12,0,41593,0:0:0:0:
76,104,42283,6,0,P|132:128|156:200,1,120,8|2,0:0|0:0,0:0:0:0:
148,240,42800,2,0,P|136:280|164:356,1,120
256,276,43490,1,0,0:0:0:0:
351,351,43834,2,0,P|375:297|364:240,1,120
64,252,45041,6,0,P|116:232|176:248,1,120,8|2,0:0|0:0,0:0:0:0:
168,188,45559,2,0,L|156:68,1,120
256,136,46248,1,0,0:0:0:0:
356,68,46593,2,0,L|344:188,1,120
72,64,47800,6,0,P|104:72|148:204,1,180,8|0,0:0|0:0,0:0:0:0:
136,316,48662,1,0,0:0:0:0:
256,300,49007,1,0,0:0:0:0:
376,316,49352,2,0,P|424:324|496:312,1,120
476,192,50041,1,0,0:0:0:0:
476,192,50214,6,0,L|464:8,1,180,2|0,0:0|0:0,0:0:0:0:
408,32,50903,2,0,P|364:52|284:44,1,120,2|8,0:0|0:0,0:0:0:0:
176,28,51593,2,0,P|204:72|88:44,1,300,2|0,0:0|0:0,0:0:0:0:
0,128,52800,1,0,0:0:0:0:
0,128,52972,6,0,P|24:180|132:228,1,180,12|0,0:0|0:0,0:0:0:0:
188,212,53662,2,0,P|224:192|408:244,1,240,12|6,0:0|0:0,0:0:0:0:
76,264,55731,6,0,L|200:284,1,120,6|8,0:0|0:0,0:0:0:0:
220,164,56421,2,0,L|101:144,1,120,2|8,0:0|0:0,0:0:0:0:
80,28,57110,2,0,L|316:68,1,240,0|2,0:0|0:0,0:0:0:0:
444,272,58490,6,0,L|456:148,1,120,2|8,0:0|0:0,0:0:0:0:
336,140,59179,2,0,L|324:259,1,120,2|8,0:0|0:0,0:0:0:0:
204,268,59869,2,0,L|224:88,1,180,2|0,0:0|0:0,0:0:0:0:
272,56,60559,2,0,P|324:28|384:40,1,120,2|8,0:0|0:0,0:0:0:0:
408,156,61248,6,0,P|356:184|296:172,1,120,2|8,0:0|0:0,0:0:0:0:
184,136,61938,2,0,P|136:112|72:124,1,120,2|8,0:0|0:0,0:0:0:0:
120,232,62627,2,0,P|140:296|68:376,2,180,2|0|8,0:0|0:0|0:0,0:0:0:0:
240,228,64007,6,0,B|264:280|240:360|240:360|292:336|352:348,1,240,2|2,0:0|0:0,0:0:0:0:
456,380,65041,1,8,0:0:0:0:
424,264,65386,2,0,P|416:224|432:144,1,120,2|2,0:0|0:0,0:0:0:0:
508,56,66076,1,8,0:0:0:0:
392,32,66421,1,8,0:0:0:0:
312,120,66765,6,0,P|304:164|136:212,1,240,6|2,0:0|0:0,0:0:0:0:
64,124,67800,1,8,0:0:0:0:
116,16,68145,2,0,P|180:12|236:48,1,120,2|8,0:0|0:0,0:0:0:0:
312,120,68834,2,0,P|320:164|380:212,1,120,2|8,0:0|0:0,0:0:0:0:
432,104,69524,6,0,P|400:20|264:0,1,240,2|2,0:0|0:0,0:0:0:0:
192,96,70559,1,8,0:0:0:0:
244,204,70903,2,0,P|260:264|248:320,1,120,2|8,0:0|0:0,0:0:0:0:
140,372,71593,1,2,0:0:0:0:
32,316,71938,1,8,0:0:0:0:
52,196,72283,6,0,P|76:92|196:64,1,240,2|2,0:0|0:0,0:0:0:0:
256,164,73317,1,8,0:0:0:0:
318,63,73662,2,0,P|430:85|460:196,2,240,2|2|2,0:0|0:0|0:0,0:0:0:0:
256,192,75214,12,6,77800,0:0:0:0:
196,84,78490,6,0,P|140:132|256:152,1,240,2|2,0:0|0:0,0:0:0:0:
320,80,79524,1,8,0:0:0:0:
436,108,79869,2,0,P|480:136|496:204,1,120,2|8,0:0|0:0,0:0:0:0:
440,304,80559,1,2,0:0:0:0:
320,316,80903,1,8,0:0:0:0:
256,212,81248,2,0,P|308:188|372:200,1,120,2|8,0:0|0:0,0:0:0:0:
392,80,81938,6,0,P|336:72|96:232,1,360,2|8,0:0|0:0,0:0:0:0:
144,336,83317,5,6,0:0:0:0:
256,292,83662,1,8,0:0:0:0:
368,336,84007,2,0,P|416:352|484:332,1,120,2|8,0:0|0:0,0:0:0:0:
428,228,84696,2,0,P|452:180|444:112,1,120,2|8,0:0|0:0,0:0:0:0:
332,156,85386,1,2,0:0:0:0:
256,64,85731,1,8,0:0:0:0:
180,156,86076,6,0,P|136:188|148:36,1,360,2|8,0:0|0:0,0:0:0:0:
256,64,87455,2,0,P|312:80|372:64,1,120,8|8,0:0|0:0,0:0:0:0:
476,120,88145,2,0,L|456:248,1,120,2|8,0:0|0:0,0:0:0:0:
465,364,88834,6,0,P|361:314|344:200,1,240,6|2,0:0|0:0,0:0:0:0:
256,116,89869,1,8,0:0:0:0:
168,200,90214,2,0,P|150:314|46:364,1,240,2|2,0:0|0:0,0:0:0:0:
60,124,91593,5,2,0:0:0:0:
140,36,91938,1,8,0:0:0:0:
256,68,92283,2,0,P|296:88|376:76,1,120,2|8,0:0|0:0,0:0:0:0:
460,0,92972,2,0,L|448:188,1,180,2|0,0:0|0:0,0:0:0:0:
444,240,93662,1,2,0:0:0:0:
204,232,94352,6,0,P|144:212|80:228,2,120,6|8|2,0:0|0:0|0:0,0:0:0:0:
256,340,95386,1,8,0:0:0:0:
328,245,95731,2,0,P|386:256|444:240,2,120,2|8|2,0:0|0:0|0:0,0:0:0:0:
284,136,96765,1,8,0:0:0:0:
336,28,97110,6,0,P|404:132|240:240,1,360,2|8,0:0|0:0,0:0:0:0:
256,192,98490,12,8,99524,0:0:0:0:
256,192,99869,12,6,102627,0:0:0:0:
