osu file format v12

[General]
AudioFilename: 174.mp3
AudioLeadIn: 0
PreviewTime: 54919
Countdown: 0
SampleSet: Soft
StackLeniency: 0.7
Mode: 1
LetterboxInBreaks: 0
WidescreenStoryboard: 0

[Editor]
Bookmarks: 5386
DistanceSpacing: 1
BeatDivisor: 4
GridSize: 4
TimelineZoom: 1.5

[Metadata]
Title:Tenyou no Mai
TitleUnicode:天妖ノ舞
Artist:Zeami feat. Tenshi
ArtistUnicode:世阿弥 feat.天子
Creator:TaMul
Version:Inner Oni
Source:太鼓の達人
Tags:alacat koreapenguin
BeatmapID:405242
BeatmapSetID:166710

[Difficulty]
HPDrainRate:5
CircleSize:3
OverallDifficulty:5
ApproachRate:5
SliderMultiplier:1.4
SliderTickRate:2

[Events]
//Background and Video events
0,0,"361379-1366x768.jpg",0,120
//Break Periods
//Storyboard Layer 0 (Background)
//Storyboard Layer 1 (Fail)
//Storyboard Layer 2 (Pass)
//Storyboard Layer 3 (Foreground)
//Storyboard Sound Samples
//Background Colour Transformations
3,100,163,162,255

[TimingPoints]
559,344.827586206897,4,2,1,100,1,0
55731,-100,4,2,1,100,0,1
77455,-100,4,2,1,100,0,0
77800,-100,4,2,1,100,0,1
99869,-100,4,2,1,100,0,0

[Colours]
Combo1 : 128,128,255
Combo2 : 255,0,128
Combo3 : 255,128,255
Combo4 : 0,128,192

[HitObjects]
256,192,1938,5,0,0:0:0:0:
256,192,2283,1,0,0:0:0:0:
256,192,2627,1,0,0:0:0:0:
256,192,2972,1,0,0:0:0:0:
256,192,3317,1,0,0:0:0:0:
256,192,3662,1,0,0:0:0:0:
256,192,4007,1,0,0:0:0:0:
256,192,4352,1,0,0:0:0:0:
256,192,4696,1,0,0:0:0:0:
256,192,4869,1,0,0:0:0:0:
256,192,4955,1,0,0:0:0:0:
256,192,5041,1,8,0:0:0:0:
256,192,5214,1,0,0:0:0:0:
256,192,5386,1,8,0:0:0:0:
256,192,5472,1,0,0:0:0:0:
256,192,5559,1,0,0:0:0:0:
256,192,5645,1,0,0:0:0:0:
256,192,5731,1,8,0:0:0:0:
256,192,5903,1,0,0:0:0:0:
256,192,6076,1,8,0:0:0:0:
256,192,6162,1,0,0:0:0:0:
256,192,6248,1,0,0:0:0:0:
256,192,6334,1,0,0:0:0:0:
256,192,6421,1,8,0:0:0:0:
256,192,6507,1,0,0:0:0:0:
256,192,6593,1,0,0:0:0:0:
256,192,6679,1,0,0:0:0:0:
256,192,6765,1,8,0:0:0:0:
256,192,6938,1,0,0:0:0:0:
256,192,7110,1,8,0:0:0:0:
256,192,7196,1,0,0:0:0:0:
256,192,7283,1,0,0:0:0:0:
256,192,7369,1,0,0:0:0:0:
256,192,7455,1,0,0:0:0:0:
256,192,7627,1,0,0:0:0:0:
256,192,7714,1,0,0:0:0:0:
256,192,7800,1,8,0:0:0:0:
256,192,7972,1,0,0:0:0:0:
256,192,8145,1,8,0:0:0:0:
256,192,8231,1,8,0:0:0:0:
256,192,8317,1,0,0:0:0:0:
256,192,8490,1,8,0:0:0:0:
256,192,8662,1,0,0:0:0:0:
256,192,8834,1,8,0:0:0:0:
256,192,9007,1,8,0:0:0:0:
256,192,9093,1,8,0:0:0:0:
256,192,9179,1,0,0:0:0:0:
256,192,9352,1,8,0:0:0:0:
256,192,9524,1,8,0:0:0:0:
256,192,9610,1,8,0:0:0:0:
256,192,9696,1,0,0:0:0:0:
256,192,9783,1,0,0:0:0:0:
256,192,9869,1,8,0:0:0:0:
256,192,9955,1,0,0:0:0:0:
256,192,10041,1,0,0:0:0:0:
256,192,10127,1,0,0:0:0:0:
256,192,10214,1,8,0:0:0:0:
256,192,10386,1,0,0:0:0:0:
256,192,10473,1,0,0:0:0:0:
256,192,10559,1,8,0:0:0:0:
256,192,10731,1,0,0:0:0:0:
256,192,10904,1,8,0:0:0:0:
256,192,10990,1,8,0:0:0:0:
256,192,11076,1,0,0:0:0:0:
256,192,11249,1,8,0:0:0:0:
256,192,11421,1,0,0:0:0:0:
256,192,11593,1,8,0:0:0:0:
256,192,11766,1,8,0:0:0:0:
256,192,11852,1,8,0:0:0:0:
256,192,11938,1,0,0:0:0:0:
256,192,12111,1,8,0:0:0:0:
256,192,12283,1,8,0:0:0:0:
256,192,12369,1,8,0:0:0:0:
256,192,12455,1,8,0:0:0:0:
256,192,12541,1,8,0:0:0:0:
256,192,12627,1,0,0:0:0:0:
256,192,12714,1,0,0:0:0:0:
256,192,12800,1,0,0:0:0:0:
256,192,12886,1,0,0:0:0:0:
256,192,12972,1,0,0:0:0:0:
256,192,13145,1,0,0:0:0:0:
256,192,13231,1,0,0:0:0:0:
256,192,13317,1,8,0:0:0:0:
256,192,13490,1,0,0:0:0:0:
256,192,13662,1,8,0:0:0:0:
256,192,13834,1,0,0:0:0:0:
256,192,13921,1,8,0:0:0:0:
256,192,14007,1,0,0:0:0:0:
256,192,14179,1,8,0:0:0:0:
256,192,14352,1,0,0:0:0:0:
256,192,14524,1,8,0:0:0:0:
256,192,14696,1,8,0:0:0:0:
256,192,14869,1,0,0:0:0:0:
256,192,15041,1,8,0:0:0:0:
256,192,15127,1,8,0:0:0:0:
256,192,15214,1,0,0:0:0:0:
256,192,15386,1,8,0:0:0:0:
256,192,15559,1,0,0:0:0:0:
256,192,15731,1,0,0:0:0:0:
256,192,15903,1,0,0:0:0:0:
256,192,16076,1,8,0:0:0:0:
256,192,16248,1,0,0:0:0:0:
256,192,16334,1,0,0:0:0:0:
256,192,16421,1,8,0:0:0:0:
256,192,16593,1,0,0:0:0:0:
256,192,16765,1,8,0:0:0:0:
256,192,16852,1,8,0:0:0:0:
256,192,16938,1,0,0:0:0:0:
256,192,17024,1,0,0:0:0:0:
256,192,17110,1,8,0:0:0:0:
256,192,17283,1,8,0:0:0:0:
256,192,17455,1,8,0:0:0:0:
256,192,17627,1,0,0:0:0:0:
256,192,17972,1,0,0:0:0:0:
256,192,18030,1,0,0:0:0:0:
256,192,18087,1,0,0:0:0:0:
256,192,18145,1,0,0:0:0:0:
256,192,18317,1,0,0:0:0:0:
256,192,19869,1,0,0:0:0:0:
256,192,20041,1,8,0:0:0:0:
256,192,20127,1,8,0:0:0:0:
256,192,20214,1,0,0:0:0:0:
256,192,20386,1,0,0:0:0:0:
256,192,20559,1,8,0:0:0:0:
256,192,20731,1,0,0:0:0:0:
256,192,20817,1,0,0:0:0:0:
256,192,20903,1,8,0:0:0:0:
256,192,21076,1,0,0:0:0:0:
256,192,21248,1,0,0:0:0:0:
256,192,21421,1,0,0:0:0:0:
256,192,21593,1,8,0:0:0:0:
256,192,21679,1,8,0:0:0:0:
256,192,21765,1,0,0:0:0:0:
256,192,21938,1,8,0:0:0:0:
256,192,22024,1,8,0:0:0:0:
256,192,22110,1,0,0:0:0:0:
256,192,22283,1,8,0:0:0:0:
256,192,22455,1,0,0:0:0:0:
256,192,22627,1,0,0:0:0:0:
256,192,22800,1,0,0:0:0:0:
256,192,22886,1,0,0:0:0:0:
256,192,22972,1,8,0:0:0:0:
256,192,23145,1,0,0:0:0:0:
256,192,23317,1,8,0:0:0:0:
256,192,23490,1,0,0:0:0:0:
256,192,23576,1,0,0:0:0:0:
256,192,23662,1,8,0:0:0:0:
256,192,23834,1,0,0:0:0:0:
256,192,24007,1,0,0:0:0:0:
256,192,24179,1,0,0:0:0:0:
256,192,24265,1,0,0:0:0:0:
256,192,24352,1,8,0:0:0:0:
256,192,24524,1,0,0:0:0:0:
256,192,24696,1,8,0:0:0:0:
256,192,24783,1,8,0:0:0:0:
256,192,24869,1,0,0:0:0:0:
256,192,25041,1,8,0:0:0:0:
256,192,25214,1,0,0:0:0:0:
256,192,25386,1,0,0:0:0:0:
256,192,25559,1,0,0:0:0:0:
256,192,25645,1,0,0:0:0:0:
256,192,25731,1,8,0:0:0:0:
256,192,25903,1,0,0:0:0:0:
256,192,26076,1,8,0:0:0:0:
256,192,26162,1,8,0:0:0:0:
256,192,26248,1,0,0:0:0:0:
256,192,26421,1,8,0:0:0:0:
256,192,26593,1,0,0:0:0:0:
256,192,26765,1,8,0:0:0:0:
256,192,26938,1,8,0:0:0:0:
256,192,27110,1,0,0:0:0:0:
256,192,27283,1,8,0:0:0:0:
256,192,27369,1,8,0:0:0:0:
256,192,27455,1,0,0:0:0:0:
256,192,27627,1,0,0:0:0:0:
256,192,27800,1,8,0:0:0:0:
256,192,27972,1,0,0:0:0:0:
256,192,28145,1,0,0:0:0:0:
256,192,28317,1,0,0:0:0:0:
256,192,28403,1,0,0:0:0:0:
256,192,28490,1,8,0:0:0:0:
256,192,28662,1,8,0:0:0:0:
256,192,28834,1,0,0:0:0:0:
256,192,29007,1,8,0:0:0:0:
256,192,29093,1,8,0:0:0:0:
256,192,29179,1,0,0:0:0:0:
256,192,29352,1,8,0:0:0:0:
256,192,29524,1,0,0:0:0:0:
256,192,29696,1,0,0:0:0:0:
256,192,29783,1,0,0:0:0:0:
256,192,29869,1,0,0:0:0:0:
256,192,30041,5,0,0:0:0:0:
256,192,30214,1,8,0:0:0:0:
256,192,30300,1,8,0:0:0:0:
256,192,30386,1,0,0:0:0:0:
256,192,30472,1,0,0:0:0:0:
256,192,30559,1,8,0:0:0:0:
256,192,30731,1,0,0:0:0:0:
256,192,30903,1,0,0:0:0:0:
256,192,31076,1,8,0:0:0:0:
256,192,31162,1,8,0:0:0:0:
256,192,31248,1,0,0:0:0:0:
256,192,31421,1,0,0:0:0:0:
256,192,31593,1,8,0:0:0:0:
256,192,31765,1,0,0:0:0:0:
256,192,31852,1,0,0:0:0:0:
256,192,31938,1,8,0:0:0:0:
256,192,32110,1,0,0:0:0:0:
256,192,32283,1,0,0:0:0:0:
256,192,32456,1,8,0:0:0:0:
256,192,32542,1,8,0:0:0:0:
256,192,32628,1,0,0:0:0:0:
256,192,32801,1,0,0:0:0:0:
256,192,32973,1,8,0:0:0:0:
256,192,33145,1,0,0:0:0:0:
256,192,33232,1,0,0:0:0:0:
256,192,33318,1,8,0:0:0:0:
256,192,33490,1,0,0:0:0:0:
256,192,33662,1,0,0:0:0:0:
256,192,33834,1,0,0:0:0:0:
256,192,33921,1,0,0:0:0:0:
256,192,34007,1,8,0:0:0:0:
256,192,34179,1,0,0:0:0:0:
256,192,34352,1,8,0:0:0:0:
256,192,34438,1,8,0:0:0:0:
256,192,34524,1,0,0:0:0:0:
256,192,34610,1,0,0:0:0:0:
256,192,34696,1,8,0:0:0:0:
256,192,34869,1,0,0:0:0:0:
256,192,35041,1,8,0:0:0:0:
256,192,35214,1,8,0:0:0:0:
256,192,35300,1,8,0:0:0:0:
256,192,35386,1,0,0:0:0:0:
256,192,35559,1,0,0:0:0:0:
256,192,35731,1,8,0:0:0:0:
256,192,35903,1,0,0:0:0:0:
256,192,36076,1,8,0:0:0:0:
256,192,36248,1,0,0:0:0:0:
256,192,36334,1,0,0:0:0:0:
256,192,36421,1,0,0:0:0:0:
256,192,36593,1,0,0:0:0:0:
256,192,36765,1,8,0:0:0:0:
256,192,36938,1,0,0:0:0:0:
256,192,37024,1,0,0:0:0:0:
256,192,37110,1,8,0:0:0:0:
256,192,37283,1,0,0:0:0:0:
256,192,37455,1,8,0:0:0:0:
256,192,37627,1,0,0:0:0:0:
256,192,37800,1,0,0:0:0:0:
256,192,37972,1,0,0:0:0:0:
256,192,38059,1,8,0:0:0:0:
256,192,38145,1,0,0:0:0:0:
256,192,38317,1,8,0:0:0:0:
256,192,38403,1,0,0:0:0:0:
256,192,38490,1,8,0:0:0:0:
256,192,38662,1,8,0:0:0:0:
256,192,38834,1,8,0:0:0:0:
256,192,39007,1,0,0:0:0:0:
256,192,39179,1,8,0:0:0:0:
256,192,39352,1,0,0:0:0:0:
256,192,39524,1,0,0:0:0:0:
256,192,39696,1,8,0:0:0:0:
256,192,39869,1,0,0:0:0:0:
256,192,40041,1,0,0:0:0:0:
256,192,40214,1,8,0:0:0:0:
256,192,40300,1,8,0:0:0:0:
256,192,40386,1,0,0:0:0:0:
256,192,40559,1,8,0:0:0:0:
256,192,40645,1,8,0:0:0:0:
256,192,40731,1,8,0:0:0:0:
256,192,40817,1,0,0:0:0:0:
256,192,40903,1,8,0:0:0:0:
256,192,40990,1,8,0:0:0:0:
256,192,41076,1,8,0:0:0:0:
256,192,41162,1,0,0:0:0:0:
256,192,41248,1,8,0:0:0:0:
256,192,41334,1,8,0:0:0:0:
256,192,41421,1,8,0:0:0:0:
256,192,41507,1,8,0:0:0:0:
256,192,41593,1,0,0:0:0:0:
256,192,41679,1,0,0:0:0:0:
256,192,41765,1,0,0:0:0:0:
256,192,41823,1,0,0:0:0:0:
256,192,41880,1,0,0:0:0:0:
256,192,41938,1,0,0:0:0:0:
256,192,42110,1,0,0:0:0:0:
256,192,42196,1,0,0:0:0:0:
256,192,42283,1,8,0:0:0:0:
256,192,42455,1,0,0:0:0:0:
256,192,42627,1,8,0:0:0:0:
256,192,42714,1,8,0:0:0:0:
256,192,42800,1,0,0:0:0:0:
256,192,42972,1,8,0:0:0:0:
256,192,43145,1,0,0:0:0:0:
256,192,43317,1,0,0:0:0:0:
256,192,43490,1,0,0:0:0:0:
256,192,43576,1,0,0:0:0:0:
256,192,43662,1,8,0:0:0:0:
256,192,43834,1,0,0:0:0:0:
256,192,44007,1,8,0:0:0:0:
256,192,44093,1,8,0:0:0:0:
256,192,44179,1,0,0:0:0:0:
256,192,44352,1,8,0:0:0:0:
256,192,44524,1,0,0:0:0:0:
256,192,44696,1,0,0:0:0:0:
256,192,44869,1,0,0:0:0:0:
256,192,44955,1,0,0:0:0:0:
256,192,45042,1,8,0:0:0:0:
256,192,45214,1,0,0:0:0:0:
256,192,45386,1,8,0:0:0:0:
256,192,45473,1,8,0:0:0:0:
256,192,45559,1,0,0:0:0:0:
256,192,45731,1,8,0:0:0:0:
256,192,45904,1,0,0:0:0:0:
256,192,46076,1,0,0:0:0:0:
256,192,46249,1,0,0:0:0:0:
256,192,46335,1,0,0:0:0:0:
256,192,46421,1,8,0:0:0:0:
256,192,46593,1,0,0:0:0:0:
256,192,46765,1,0,0:0:0:0:
256,192,46938,1,8,0:0:0:0:
256,192,47024,1,0,0:0:0:0:
256,192,47110,1,0,0:0:0:0:
256,192,47283,1,8,0:0:0:0:
256,192,47455,1,0,0:0:0:0:
256,192,47627,1,8,0:0:0:0:
256,192,47714,1,8,0:0:0:0:
256,192,47800,1,0,0:0:0:0:
256,192,47972,1,0,0:0:0:0:
256,192,48145,1,8,0:0:0:0:
256,192,48231,1,8,0:0:0:0:
256,192,48317,1,0,0:0:0:0:
256,192,48490,1,8,0:0:0:0:
256,192,48662,1,0,0:0:0:0:
256,192,48834,1,0,0:0:0:0:
256,192,49007,1,0,0:0:0:0:
256,192,49093,1,0,0:0:0:0:
256,192,49179,1,8,0:0:0:0:
256,192,49352,1,0,0:0:0:0:
256,192,49524,1,8,0:0:0:0:
256,192,49696,1,8,0:0:0:0:
256,192,49783,1,0,0:0:0:0:
256,192,49869,1,0,0:0:0:0:
256,192,50041,1,8,0:0:0:0:
256,192,50214,1,0,0:0:0:0:
256,192,50386,1,8,0:0:0:0:
256,192,50559,1,0,0:0:0:0:
256,192,50731,1,8,0:0:0:0:
256,192,50903,1,0,0:0:0:0:
256,192,51075,1,8,0:0:0:0:
256,192,51248,1,0,0:0:0:0:
256,192,51420,1,8,0:0:0:0:
256,192,51507,1,0,0:0:0:0:
256,192,51593,1,0,0:0:0:0:
256,192,51765,1,0,0:0:0:0:
256,192,51938,1,8,0:0:0:0:
256,192,52110,1,0,0:0:0:0:
256,192,52283,1,0,0:0:0:0:
256,192,52455,1,0,0:0:0:0:
256,192,52627,1,8,0:0:0:0:
256,192,52800,1,0,0:0:0:0:
256,192,52857,1,0,0:0:0:0:
256,192,52915,1,0,0:0:0:0:
256,192,52972,1,8,0:0:0:0:
256,192,53231,1,12,0:0:0:0:
256,192,53490,1,4,0:0:0:0:
256,192,53662,1,12,0:0:0:0:
256,192,53921,1,4,0:0:0:0:
256,192,54179,1,12,0:0:0:0:
256,192,54352,1,4,0:0:0:0:
256,192,55041,1,8,0:0:0:0:
256,192,55214,1,8,0:0:0:0:
256,192,55300,1,8,0:0:0:0:
256,192,55386,1,0,0:0:0:0:
256,192,55559,1,8,0:0:0:0:
256,192,55731,1,0,0:0:0:0:
256,192,55903,1,8,0:0:0:0:
256,192,55990,1,8,0:0:0:0:
256,192,56076,1,0,0:0:0:0:
256,192,56248,1,8,0:0:0:0:
256,192,56421,1,0,0:0:0:0:
256,192,56593,1,8,0:0:0:0:
256,192,56680,1,8,0:0:0:0:
256,192,56766,1,0,0:0:0:0:
256,192,56938,1,8,0:0:0:0:
256,192,57111,1,0,0:0:0:0:
256,192,57196,1,0,0:0:0:0:
256,192,57283,1,8,0:0:0:0:
256,192,57369,1,8,0:0:0:0:
256,192,57455,1,0,0:0:0:0:
256,192,57627,1,8,0:0:0:0:
256,192,57800,1,0,0:0:0:0:
256,192,57972,1,8,0:0:0:0:
256,192,58059,1,0,0:0:0:0:
256,192,58145,1,8,0:0:0:0:
256,192,58317,1,0,0:0:0:0:
256,192,58490,1,0,0:0:0:0:
256,192,58661,1,8,0:0:0:0:
256,192,58748,1,8,0:0:0:0:
256,192,58834,1,0,0:0:0:0:
256,192,59006,1,8,0:0:0:0:
256,192,59179,1,0,0:0:0:0:
256,192,59351,1,8,0:0:0:0:
256,192,59438,1,8,0:0:0:0:
256,192,59524,1,0,0:0:0:0:
256,192,59696,1,8,0:0:0:0:
252,192,59868,1,0,0:0:0:0:
256,192,59954,1,0,0:0:0:0:
256,192,60041,1,8,0:0:0:0:
256,192,60127,1,8,0:0:0:0:
256,192,60213,1,8,0:0:0:0:
256,192,60385,1,8,0:0:0:0:
256,192,60558,1,8,0:0:0:0:
256,192,60730,1,8,0:0:0:0:
256,192,60817,1,0,0:0:0:0:
256,192,60903,1,8,0:0:0:0:
256,192,61076,1,0,0:0:0:0:
256,192,61248,1,0,0:0:0:0:
252,192,61421,1,0,0:0:0:0:
256,192,61507,1,0,0:0:0:0:
256,192,61593,1,8,0:0:0:0:
256,192,61765,1,0,0:0:0:0:
256,192,61852,1,0,0:0:0:0:
256,192,61938,1,8,0:0:0:0:
256,192,62110,1,0,0:0:0:0:
256,192,62283,1,8,0:0:0:0:
256,192,62455,1,8,0:0:0:0:
256,192,62541,1,8,0:0:0:0:
256,192,62627,1,0,0:0:0:0:
256,192,62800,1,0,0:0:0:0:
252,192,62972,1,8,0:0:0:0:
256,192,63145,1,0,0:0:0:0:
256,192,63317,1,0,0:0:0:0:
256,192,63490,1,0,0:0:0:0:
256,192,63576,1,0,0:0:0:0:
256,192,63662,1,8,0:0:0:0:
256,192,63834,1,0,0:0:0:0:
256,192,63921,1,0,0:0:0:0:
256,192,64007,1,0,0:0:0:0:
256,192,64179,1,0,0:0:0:0:
256,192,64265,1,0,0:0:0:0:
256,192,64352,1,8,0:0:0:0:
252,192,64524,1,0,0:0:0:0:
256,192,64610,1,0,0:0:0:0:
256,192,64696,1,0,0:0:0:0:
256,192,64869,1,0,0:0:0:0:
256,192,64955,1,0,0:0:0:0:
256,192,65041,1,8,0:0:0:0:
256,192,65214,1,0,0:0:0:0:
256,192,65386,1,8,0:0:0:0:
256,192,65472,1,8,0:0:0:0:
256,192,65559,1,0,0:0:0:0:
256,192,65645,1,0,0:0:0:0:
256,192,65731,1,8,0:0:0:0:
256,192,65903,1,0,0:0:0:0:
252,192,66076,1,8,0:0:0:0:
256,192,66162,1,8,0:0:0:0:
256,192,66248,1,8,0:0:0:0:
256,192,66334,1,8,0:0:0:0:
256,192,66421,1,0,0:0:0:0:
256,192,66507,1,0,0:0:0:0:
256,192,66593,1,0,0:0:0:0:
256,192,66679,1,0,0:0:0:0:
256,192,66765,1,0,0:0:0:0:
256,192,66938,1,0,0:0:0:0:
256,192,67110,1,8,0:0:0:0:
256,192,67283,1,0,0:0:0:0:
256,192,67369,1,0,0:0:0:0:
256,192,67455,1,8,0:0:0:0:
252,192,67627,1,0,0:0:0:0:
256,192,67800,1,8,0:0:0:0:
256,192,67972,1,8,0:0:0:0:
256,192,68059,1,8,0:0:0:0:
256,192,68145,1,0,0:0:0:0:
256,192,68317,1,8,0:0:0:0:
256,192,68490,1,8,0:0:0:0:
256,192,68662,1,0,0:0:0:0:
256,192,68834,1,8,0:0:0:0:
256,192,69007,1,0,0:0:0:0:
252,192,69093,1,0,0:0:0:0:
252,192,69179,1,8,0:0:0:0:
256,192,69352,1,0,0:0:0:0:
256,192,69524,1,0,0:0:0:0:
256,192,69696,1,0,0:0:0:0:
256,192,69783,1,0,0:0:0:0:
256,192,69869,1,8,0:0:0:0:
256,192,70041,1,0,0:0:0:0:
256,192,70214,1,8,0:0:0:0:
256,192,70386,1,8,0:0:0:0:
256,192,70472,1,8,0:0:0:0:
256,192,70559,1,0,0:0:0:0:
252,192,70731,1,8,0:0:0:0:
256,192,70903,1,0,0:0:0:0:
256,192,70990,1,8,0:0:0:0:
256,192,71076,1,0,0:0:0:0:
256,192,71248,1,8,0:0:0:0:
256,192,71334,1,0,0:0:0:0:
256,192,71421,1,8,0:0:0:0:
256,192,71593,1,0,0:0:0:0:
256,192,71679,1,0,0:0:0:0:
256,192,71765,1,0,0:0:0:0:
256,192,71852,1,0,0:0:0:0:
256,192,71938,1,8,0:0:0:0:
256,192,72110,1,0,0:0:0:0:
252,192,72196,1,0,0:0:0:0:
252,192,72283,1,0,0:0:0:0:
256,192,72455,1,0,0:0:0:0:
256,192,72541,1,0,0:0:0:0:
256,192,72627,1,8,0:0:0:0:
256,192,72800,1,0,0:0:0:0:
256,192,72972,1,8,0:0:0:0:
256,192,73059,1,8,0:0:0:0:
256,192,73145,1,0,0:0:0:0:
256,192,73317,1,8,0:0:0:0:
256,192,73490,1,0,0:0:0:0:
256,192,73662,1,0,0:0:0:0:
252,192,73834,1,8,0:0:0:0:
256,192,73921,1,0,0:0:0:0:
256,192,74007,1,0,0:0:0:0:
256,192,74179,1,0,0:0:0:0:
256,192,74352,1,8,0:0:0:0:
256,192,74524,1,0,0:0:0:0:
256,192,74696,1,8,0:0:0:0:
256,192,74783,1,8,0:0:0:0:
256,192,74869,1,0,0:0:0:0:
256,192,74955,1,0,0:0:0:0:
256,192,75041,1,8,0:0:0:0:
256,192,75214,1,8,0:0:0:0:
252,192,75300,1,8,0:0:0:0:
252,192,75386,1,8,0:0:0:0:
256,192,75559,1,0,0:0:0:0:
256,192,75731,1,8,0:0:0:0:
256,192,75817,1,8,0:0:0:0:
256,192,75903,1,0,0:0:0:0:
256,192,76076,1,0,0:0:0:0:
256,192,76248,1,8,0:0:0:0:
256,192,76421,1,0,0:0:0:0:
256,192,76507,1,0,0:0:0:0:
256,192,76593,1,0,0:0:0:0:
256,192,76679,1,0,0:0:0:0:
256,192,76765,1,8,0:0:0:0:
252,192,76852,1,8,0:0:0:0:
252,192,76938,1,8,0:0:0:0:
256,192,77024,1,8,0:0:0:0:
256,192,77110,1,0,0:0:0:0:
256,192,77196,1,8,0:0:0:0:
256,192,77283,1,0,0:0:0:0:
256,192,77369,1,8,0:0:0:0:
256,192,77455,1,0,0:0:0:0:
256,192,77541,1,8,0:0:0:0:
256,192,77627,1,0,0:0:0:0:
256,192,77714,1,8,0:0:0:0:
256,192,77800,1,0,0:0:0:0:
256,192,77972,1,8,0:0:0:0:
256,192,78059,1,8,0:0:0:0:
256,192,78145,1,0,0:0:0:0:
256,192,78317,1,8,0:0:0:0:
252,192,78490,1,0,0:0:0:0:
256,192,78662,1,8,0:0:0:0:
256,192,78748,1,8,0:0:0:0:
256,192,78834,1,0,0:0:0:0:
256,192,79007,1,8,0:0:0:0:
256,192,79179,1,8,0:0:0:0:
256,192,79265,1,8,0:0:0:0:
256,192,79352,1,0,0:0:0:0:
256,192,79438,1,0,0:0:0:0:
256,192,79524,1,8,0:0:0:0:
256,192,79696,1,0,0:0:0:0:
256,192,79869,1,8,0:0:0:0:
252,192,80041,1,8,0:0:0:0:
256,192,80127,1,0,0:0:0:0:
256,192,80214,1,8,0:0:0:0:
256,192,80386,1,0,0:0:0:0:
256,192,80559,1,8,0:0:0:0:
256,192,80731,1,0,0:0:0:0:
256,192,80817,1,0,0:0:0:0:
256,192,80903,1,8,0:0:0:0:
256,192,81076,1,8,0:0:0:0:
256,192,81162,1,0,0:0:0:0:
256,192,81248,1,0,0:0:0:0:
256,192,81421,1,0,0:0:0:0:
252,192,81593,1,8,0:0:0:0:
256,192,81765,1,0,0:0:0:0:
256,192,81852,1,0,0:0:0:0:
256,192,81938,1,8,0:0:0:0:
256,192,82110,1,8,0:0:0:0:
256,192,82196,1,8,0:0:0:0:
256,192,82283,1,0,0:0:0:0:
256,192,82455,1,8,0:0:0:0:
256,192,82627,1,8,0:0:0:0:
256,192,82714,1,8,0:0:0:0:
256,192,82800,1,8,0:0:0:0:
256,192,82886,1,8,0:0:0:0:
256,192,82972,1,0,0:0:0:0:
252,192,83059,1,0,0:0:0:0:
252,192,83145,1,0,0:0:0:0:
256,192,83231,1,0,0:0:0:0:
256,192,83317,1,8,0:0:0:0:
256,192,83490,1,0,0:0:0:0:
256,192,83576,1,0,0:0:0:0:
256,192,83662,1,8,0:0:0:0:
256,192,83834,1,0,0:0:0:0:
256,192,84007,1,8,0:0:0:0:
256,192,84179,1,0,0:0:0:0:
256,192,84265,1,0,0:0:0:0:
256,192,84352,1,8,0:0:0:0:
256,192,84524,1,0,0:0:0:0:
252,192,84696,1,0,0:0:0:0:
256,192,84869,1,8,0:0:0:0:
256,192,84955,1,8,0:0:0:0:
256,192,85041,1,0,0:0:0:0:
256,192,85214,1,0,0:0:0:0:
256,192,85386,1,8,0:0:0:0:
256,192,85559,1,0,0:0:0:0:
256,192,85645,1,0,0:0:0:0:
256,192,85731,1,8,0:0:0:0:
256,192,85903,1,0,0:0:0:0:
256,192,86076,1,0,0:0:0:0:
252,192,86248,1,8,0:0:0:0:
256,192,86334,1,0,0:0:0:0:
256,192,86507,1,0,0:0:0:0:
256,192,86593,1,8,0:0:0:0:
252,192,86765,1,0,0:0:0:0:
256,192,86938,1,0,0:0:0:0:
256,192,87110,1,8,0:0:0:0:
256,192,87283,1,0,0:0:0:0:
256,192,87369,1,0,0:0:0:0:
256,192,87455,1,8,0:0:0:0:
252,192,87800,1,12,0:0:0:0:
256,192,88145,1,0,0:0:0:0:
252,192,88317,1,0,0:0:0:0:
256,192,88403,1,0,0:0:0:0:
256,192,88490,1,8,0:0:0:0:
256,192,88662,1,0,0:0:0:0:
256,192,88834,1,0,0:0:0:0:
256,192,89007,1,8,0:0:0:0:
252,192,89093,1,8,0:0:0:0:
252,192,89179,1,0,0:0:0:0:
252,192,89352,1,8,0:0:0:0:
256,192,89524,1,0,0:0:0:0:
256,192,89696,1,0,0:0:0:0:
252,192,89783,1,0,0:0:0:0:
252,192,89869,1,8,0:0:0:0:
256,192,90041,1,0,0:0:0:0:
256,192,90214,1,8,0:0:0:0:
256,192,90386,1,0,0:0:0:0:
256,192,90472,1,0,0:0:0:0:
256,192,90559,1,8,0:0:0:0:
252,192,90731,1,0,0:0:0:0:
252,192,90903,1,8,0:0:0:0:
256,192,91076,1,8,0:0:0:0:
256,192,91162,1,0,0:0:0:0:
256,192,91248,1,8,0:0:0:0:
252,192,91421,1,0,0:0:0:0:
256,192,91593,1,0,0:0:0:0:
256,192,91765,1,0,0:0:0:0:
256,192,91852,1,0,0:0:0:0:
256,192,91938,1,8,0:0:0:0:
256,192,92110,1,0,0:0:0:0:
252,192,92283,1,8,0:0:0:0:
252,192,92369,1,8,0:0:0:0:
252,192,92455,1,0,0:0:0:0:
256,192,92627,1,8,0:0:0:0:
256,192,92800,1,0,0:0:0:0:
252,192,92972,1,8,0:0:0:0:
256,192,93059,1,8,0:0:0:0:
256,192,93145,1,8,0:0:0:0:
256,192,93231,1,8,0:0:0:0:
256,192,93317,1,0,0:0:0:0:
256,192,93403,1,0,0:0:0:0:
256,192,93490,1,0,0:0:0:0:
256,192,93576,1,0,0:0:0:0:
256,192,93662,1,8,0:0:0:0:
252,192,93834,1,0,0:0:0:0:
252,192,94007,1,8,0:0:0:0:
256,192,94179,1,0,0:0:0:0:
256,192,94265,1,0,0:0:0:0:
256,192,94352,1,0,0:0:0:0:
252,192,94524,1,0,0:0:0:0:
256,192,94696,1,8,0:0:0:0:
256,192,94869,1,0,0:0:0:0:
256,192,94955,1,0,0:0:0:0:
256,192,95041,1,8,0:0:0:0:
256,192,95214,1,0,0:0:0:0:
252,192,95386,1,8,0:0:0:0:
252,192,95559,1,0,0:0:0:0:
256,192,95731,1,8,0:0:0:0:
256,192,95903,1,0,0:0:0:0:
252,192,95990,1,0,0:0:0:0:
252,192,96076,1,8,0:0:0:0:
256,192,96248,1,0,0:0:0:0:
256,192,96334,1,0,0:0:0:0:
256,192,96421,1,0,0:0:0:0:
256,192,96593,1,0,0:0:0:0:
256,192,96679,1,0,0:0:0:0:
256,192,96765,1,8,0:0:0:0:
252,192,96938,1,0,0:0:0:0:
252,192,97110,1,0,0:0:0:0:
256,192,97196,1,0,0:0:0:0:
256,192,97283,1,0,0:0:0:0:
256,192,97369,1,0,0:0:0:0:
256,192,97455,1,0,0:0:0:0:
252,192,97541,1,0,0:0:0:0:
252,192,97627,1,0,0:0:0:0:
256,192,97714,1,0,0:0:0:0:
256,192,97800,1,0,0:0:0:0:
256,192,97886,1,0,0:0:0:0:
256,192,97972,1,0,0:0:0:0:
256,192,98059,1,0,0:0:0:0:
256,192,98145,1,8,0:0:0:0:
256,192,98231,1,0,0:0:0:0:
256,192,98317,1,8,0:0:0:0:
252,192,98490,1,4,0:0:0:0:
256,192,98834,1,0,0:0:0:0:
256,192,99007,1,4,0:0:0:0:
256,192,99352,1,0,0:0:0:0:
256,192,99524,1,8,0:0:0:0:
256,192,99610,1,8,0:0:0:0:
256,192,99696,1,8,0:0:0:0:
256,192,99783,1,8,0:0:0:0:
256,192,99869,1,0,0:0:0:0:
252,192,100041,1,0,0:0:0:0:
256,192,100127,1,0,0:0:0:0:
256,192,100214,1,8,0:0:0:0:
256,192,100386,1,0,0:0:0:0:
256,192,100559,1,0,0:0:0:0:
256,192,100731,1,8,0:0:0:0:
256,192,100817,1,8,0:0:0:0:
256,192,100903,1,0,0:0:0:0:
256,192,101076,1,8,0:0:0:0:
256,192,101248,1,0,0:0:0:0:
256,192,101334,1,0,0:0:0:0:
256,192,101421,1,0,0:0:0:0:
252,192,101507,1,0,0:0:0:0:
252,192,101593,1,8,0:0:0:0:
256,192,101679,1,8,0:0:0:0:
256,192,101765,1,8,0:0:0:0:
256,192,101852,1,8,0:0:0:0:
256,192,101938,1,0,0:0:0:0:
256,192,102024,1,0,0:0:0:0:
256,192,102110,1,8,0:0:0:0:
256,192,102196,1,8,0:0:0:0:
256,192,102283,1,0,0:0:0:0:
256,192,102369,1,0,0:0:0:0:
256,192,102455,1,8,0:0:0:0:
256,192,102541,1,8,0:0:0:0:
256,192,102627,1,0,0:0:0:0:
