osu file format v12

[General]
AudioFilename: 174.mp3
AudioLeadIn: 0
PreviewTime: 54919
Countdown: 0
SampleSet: Soft
StackLeniency: 0.7
Mode: 0
LetterboxInBreaks: 0
WidescreenStoryboard: 0

[Editor]
DistanceSpacing: 1
BeatDivisor: 4
GridSize: 4
TimelineZoom: 1

[Metadata]
Title:Tenyou no Mai
TitleUnicode:天妖ノ舞
Artist:Zeami feat. Tenshi
ArtistUnicode:世阿弥 feat.天子
Creator:TaMul
Version:Easy
Source:太鼓の達人
Tags:alacat koreapenguin
BeatmapID:405163
BeatmapSetID:166710

[Difficulty]
HPDrainRate:2
CircleSize:3
OverallDifficulty:2
ApproachRate:3
SliderMultiplier:0.899999999999999
SliderTickRate:2

[Events]
//Background and Video events
0,0,"361379-1366x768.jpg",0,0
//Break Periods
//Storyboard Layer 0 (Background)
//Storyboard Layer 1 (Fail)
//Storyboard Layer 2 (Pass)
//Storyboard Layer 3 (Foreground)
//Storyboard Sound Samples
//Background Colour Transformations
3,100,163,162,255

[TimingPoints]
559,344.827586206897,4,2,1,50,1,0
10559,-100,4,2,3,50,0,0
10731,-100,4,2,1,50,0,0
11248,-100,4,2,3,50,0,0
11421,-100,4,2,1,50,0,0
16076,-100,4,2,3,50,0,0
16248,-100,4,2,1,50,0,0
22972,-100,4,2,3,50,0,0
23145,-100,4,2,1,50,0,0
24352,-100,4,2,3,50,0,0
24524,-100,4,2,1,50,0,0
34007,-100,4,2,3,50,0,0
34352,-100,4,2,4,50,0,0
34524,-100,4,2,1,50,0,0
35386,-100,4,2,3,50,0,0
35559,-100,4,2,1,50,0,0
47800,-100,4,2,3,50,0,0
47972,-100,4,2,1,50,0,0
48490,-100,4,2,3,50,0,0
48662,-100,4,2,1,50,0,0
50559,-100,4,2,3,50,0,0
50731,-100,4,2,1,50,0,0
51938,-100,4,2,3,50,0,0
52110,-100,4,2,1,50,0,0
52283,-100,4,2,4,50,0,0
52455,-100,4,2,1,50,0,0
55731,-100,4,2,1,50,0,1
57455,-100,4,2,3,50,0,1
57627,-100,4,2,1,50,0,1
60214,-100,4,2,3,50,0,1
60386,-100,4,2,1,50,0,1
60903,-100,4,2,3,50,0,1
61076,-100,4,2,1,50,0,1
64352,-100,4,2,3,50,0,1
64524,-100,4,2,1,50,0,1
67110,-100,4,2,3,50,0,1
67283,-100,4,2,1,50,0,1
68490,-100,4,2,3,50,0,1
68662,-100,4,2,1,50,0,1
69869,-100,4,2,3,50,0,1
70041,-100,4,2,1,50,0,1
70214,-100,4,2,4,50,0,1
70386,-100,4,2,1,50,0,1
72627,-100,4,2,3,50,0,1
72800,-100,4,2,1,50,0,1
74007,-100,4,2,3,50,0,1
74179,-100,4,2,1,50,0,1
74696,-100,4,2,3,50,0,1
74869,-100,4,2,1,50,0,1
77455,-100,4,2,1,50,0,0
77800,-100,4,2,1,50,0,1
78834,-100,4,2,3,50,0,1
79007,-100,4,2,1,50,0,1
80903,-100,4,2,3,50,0,1
81076,-100,4,2,1,50,0,1
82283,-100,4,2,3,50,0,1
82455,-100,4,2,1,50,0,1
83662,-100,4,2,3,50,0,1
83834,-100,4,2,1,50,0,1
85041,-100,4,2,3,50,0,1
85214,-100,4,2,1,50,0,1
86421,-100,4,2,3,50,0,1
86593,-100,4,2,1,50,0,1
87800,-100,4,2,3,50,0,1
87972,-100,4,2,1,50,0,1
89179,-100,4,2,3,50,0,1
89352,-100,4,2,1,50,0,1
90559,-100,4,2,3,50,0,1
90731,-100,4,2,1,50,0,1
93317,-100,4,2,3,50,0,1
93490,-100,4,2,1,50,0,1
96076,-100,4,2,3,50,0,1
96248,-100,4,2,1,50,0,1
97455,-100,4,2,3,50,0,1
97627,-100,4,2,2,50,0,1
97800,-100,4,2,4,50,0,1
97972,-100,4,2,1,50,0,1
99869,-100,4,2,1,50,0,0

[Colours]
Combo1 : 128,128,255
Combo2 : 255,0,128
Combo3 : 255,128,255
Combo4 : 0,128,192

[HitObjects]
256,192,559,12,2,1938,0:0:0:0:
112,96,2627,5,2,0:0:0:0:
256,208,3317,1,2,0:0:0:0:
400,96,4007,1,2,0:0:0:0:
256,192,4696,12,6,7455,0:0:0:0:
104,112,8145,6,0,P|112:136|96:200,1,89.9999999999999,2|8,0:0|0:0,0:0:0:0:
120,288,8834,1,2,0:0:0:0:
256,168,9524,2,0,L|352:176,1,89.9999999999999,2|8,0:0|0:0,0:0:0:0:
380,260,10214,6,0,L|196:244,2,180,2|2|2,0:0|0:0|0:0,0:0:0:0:
432,188,11938,1,8,0:0:0:0:
408,100,12283,2,0,P|376:64|372:16,1,89.9999999999999,2|8,0:0|0:0,0:0:0:0:
284,44,12972,5,6,0:0:0:0:
104,20,13662,2,0,P|116:80|104:120,1,89.9999999999999,2|8,0:0|0:0,0:0:0:0:
76,192,14352,1,2,0:0:0:0:
109,276,14696,2,0,P|116:321|104:364,2,89.9999999999999,8|2|8,0:0|0:0|0:0,0:0:0:0:
76,192,15731,6,0,B|124:172|164:200|164:200|208:220|252:196,1,180,2|2,0:0|0:0,0:0:0:0:
316,136,16765,1,8,0:0:0:0:
332,48,17110,2,0,P|276:52|228:120,2,135,2|2|6,0:0|3:0|0:0,0:0:0:0:
256,192,18490,12,6,19869,0:0:0:0:
116,272,20559,5,2,0:0:0:0:
256,156,21248,1,2,0:0:0:0:
396,272,21938,2,0,P|432:256|484:264,1,89.9999999999999,2|8,0:0|0:0,0:0:0:0:
452,348,22627,6,0,P|376:364|304:288,1,180,2|2,0:0|0:0,0:0:0:0:
256,224,23662,1,8,0:0:0:0:
205,298,24007,2,0,P|145:361|60:348,1,180
116,272,25041,1,8,0:0:0:0:
84,188,25386,5,2,0:0:0:0:
172,32,26076,1,2,0:0:0:0:
336,108,26765,2,0,P|376:128|424:124,1,89.9999999999999,2|8,0:0|0:0,0:0:0:0:
480,192,27455,1,2,0:0:0:0:
420,258,27800,2,0,P|375:256|336:276,1,89.9999999999999,8|2,0:0|0:0,0:0:0:0:
256,168,28662,5,0,0:0:0:0:
175,275,29179,2,0,P|136:256|91:258,1,89.9999999999999,8|2,0:0|0:0,0:0:0:0:
32,192,29869,1,8,0:0:0:0:
44,104,30214,2,0,P|84:116|116:160,1,89.9999999999999,8|2,0:0|0:0,0:0:0:0:
196,192,30903,5,6,0:0:0:0:
340,84,31593,1,2,0:0:0:0:
480,196,32283,2,0,P|464:240|472:284,1,89.9999999999999,2|8,0:0|0:0,0:0:0:0:
396,332,32972,1,2,0:0:0:0:
308,308,33317,1,8,0:0:0:0:
292,220,33662,6,0,P|244:236|216:316,2,135,2|0|8,0:0|0:0|0:0,0:0:0:0:
324,136,35041,2,0,P|264:136|160:196,1,180,2|2,0:0|0:0,0:0:0:0:
72,192,36076,1,8,0:0:0:0:
36,108,36421,5,6,0:0:0:0:
76,284,37110,1,2,0:0:0:0:
256,284,37800,1,2,0:0:0:0:
280,196,38145,6,0,P|240:192|196:216,1,89.9999999999999,8|2,0:0|0:0,0:0:0:0:
160,296,38834,1,8,0:0:0:0:
216,368,39179,2,0,P|276:380|336:332,1,135,2|2,0:0|0:0,0:0:0:0:
416,232,40214,2,0,L|424:288,1,45,8|4,0:0|0:0,0:0:0:0:
256,192,40559,12,6,41938,0:0:0:0:
112,256,42627,5,2,0:0:0:0:
232,124,43317,2,0,P|248:160|296:192,1,89.9999999999999,2|8,0:0|0:0,0:0:0:0:
380,192,44007,2,0,P|424:180|472:200,1,89.9999999999999,2|8,0:0|0:0,0:0:0:0:
420,272,44696,5,2,0:0:0:0:
256,344,45386,1,2,0:0:0:0:
92,272,46076,2,0,P|56:280|4:248,1,89.9999999999999,2|8,0:0|0:0,0:0:0:0:
72,188,46765,2,0,P|84:144|76:92,1,89.9999999999999,2|8,0:0|0:0,0:0:0:0:
148,40,47455,6,0,P|168:112|152:224,2,180,0|0|2,0:0|0:0|0:0,0:0:0:0:
240,44,49179,1,8,0:0:0:0:
328,52,49524,1,2,0:0:0:0:
416,60,49869,1,8,0:0:0:0:
508,68,50214,6,0,P|492:120|492:244,1,180,2|2,0:0|0:0,0:0:0:0:
340,344,51593,2,0,P|368:288|240:300,1,270,2|8,0:0|0:0,0:0:0:0:
156,332,52972,6,0,P|148:292|204:164,2,180,6|6|6,0:0|0:0|0:0,0:0:0:0:
280,204,55041,1,0,0:0:0:0:
200,76,55731,6,0,P|252:80|288:64,1,89.9999999999999,6|8,0:0|0:0,0:0:0:0:
364,108,56421,2,0,P|396:104|456:128,1,89.9999999999999,2|8,0:0|0:0,0:0:0:0:
500,196,57110,2,0,P|500:280|428:336,1,180,0|2,0:0|0:0,0:0:0:0:
256,288,58490,6,0,P|220:292|180:328,1,89.9999999999999,2|8,0:0|0:0,0:0:0:0:
100,288,59179,2,0,P|60:308|4:292,1,89.9999999999999,2|8,0:0|0:0,0:0:0:0:
48,216,59869,2,0,L|68:32,2,180,2|2|2,0:0|0:0|0:0,0:0:0:0:
216,148,61938,5,2,0:0:0:0:
392,188,62627,2,0,P|432:192|476:168,1,89.9999999999999,2|8,0:0|0:0,0:0:0:0:
488,260,63317,2,0,P|476:312|488:360,1,89.9999999999999,2|8,0:0|0:0,0:0:0:0:
392,344,64007,6,0,B|340:332|320:292|320:292|280:332|232:312,1,180,2|2,0:0|0:0,0:0:0:0:
108,192,65386,1,2,0:0:0:0:
68,272,65731,1,8,0:0:0:0:
156,264,66076,2,0,P|188:236|196:188,1,89.9999999999999,2|8,0:0|0:0,0:0:0:0:
256,124,66765,6,0,L|432:164,1,180,6|2,0:0|0:0,0:0:0:0:
408,344,68145,2,0,L|232:304,1,180,2|2,0:0|0:0,0:0:0:0:
140,148,69524,2,0,P|172:172|64:192,1,270,2|8,0:0|0:0,0:0:0:0:
56,108,70903,6,0,P|88:68|128:56,1,89.9999999999999,2|8,0:0|0:0,0:0:0:0:
208,84,71593,1,2,0:0:0:0:
380,32,72283,6,0,L|360:220,1,180,2|2,0:0|0:0,0:0:0:0:
188,264,73662,2,0,L|207:85,2,180,2|2|2,0:0|0:0|0:0,0:0:0:0:
256,192,75214,12,6,77800,0:0:0:0:
256,32,78490,6,0,B|224:88|292:152|256:212,1,180,2|2,0:0|0:0,0:0:0:0:
116,316,79869,1,2,0:0:0:0:
36,156,80559,6,0,P|84:136|208:168,1,180,2|2,0:0|0:0,0:0:0:0:
256,336,81938,2,0,P|252:288|336:192,1,180,2|2,0:0|0:0,0:0:0:0:
416,228,82972,1,8,0:0:0:0:
492,180,83317,6,0,P|508:220|424:320,1,180,6|2,0:0|0:0,0:0:0:0:
256,284,84696,2,0,P|248:224|144:184,1,180,2|2,0:0|0:0,0:0:0:0:
84,248,85731,1,8,0:0:0:0:
172,268,86076,6,0,P|192:224|312:216,1,180,2|2,0:0|0:0,0:0:0:0:
368,284,87110,1,8,0:0:0:0:
456,300,87455,2,0,L|472:120,1,180,2|2,0:0|0:0,0:0:0:0:
316,32,88834,6,0,L|300:212,1,180,6|2,0:0|0:0,0:0:0:0:
412,68,90214,2,0,P|392:104|260:120,1,180,2|2,0:0|0:0,0:0:0:0:
180,96,91248,1,8,0:0:0:0:
104,144,91593,6,0,P|88:104|100:56,1,89.9999999999999,2|8,0:0|0:0,0:0:0:0:
172,8,92283,2,0,P|216:12|256:48,1,89.9999999999999,2|8,0:0|0:0,0:0:0:0:
268,128,92972,2,0,B|240:192|180:188|180:188|184:224|172:252,1,180,2|2,0:0|0:0,0:0:0:0:
256,284,94007,1,8,0:0:0:0:
340,252,94352,6,0,P|384:244|432:260,1,89.9999999999999,6|8,0:0|0:0,0:0:0:0:
492,196,95041,2,0,P|472:164|472:112,1,89.9999999999999,2|8,0:0|0:0,0:0:0:0:
388,76,95731,2,0,P|352:136|240:176,1,180,2|2,0:0|0:0,0:0:0:0:
168,152,96765,1,8,0:0:0:0:
148,64,97110,6,0,P|212:72|192:240,1,270,2|8,0:0|0:0,0:0:0:0:
256,192,98490,12,4,102627,0:0:0:0:
