osu file format v9

[General]
AudioFilename: SenpuuAC.mp3
AudioLeadIn: 2000
PreviewTime: 27017
Countdown: 0
SampleSet: Normal
StackLeniency: 0.7
Mode: 1
LetterboxInBreaks: 1

[Editor]
DistanceSpacing: 0.8
BeatDivisor: 4
GridSize: 32

[Metadata]
Title:Senpuu no Mai (AC ver.)
Artist:Zeami feat. Ayane
Creator:lepidopodus
Version:Taiko Oni
Source:Taiko no Tatsujin
Tags:Tatsh Natteke

[Difficulty]
HPDrainRate:5
CircleSize:5
OverallDifficulty:5
ApproachRate:5
SliderMultiplier:1.4
SliderTickRate:1

[Events]
//Background and Video events
0,0,"senpuuACbg.png"
//Break Periods
//Storyboard Layer 0 (Background)
//Storyboard Layer 1 (Fail)
//Storyboard Layer 2 (Pass)
//Storyboard Layer 3 (Foreground)
//Storyboard Sound Samples
//Background Colour Transformations
3,100,163,162,255

[TimingPoints]
215,374.906273431642,4,1,0,90,1,0
10712,374.906273431642,6,1,0,90,1,0
12961,374.906273431642,4,1,0,90,1,0
27207,374.906273431642,4,1,0,90,1,0
52700,-100,4,1,0,90,0,1
79693,-100,4,1,0,90,0,0

[Colours]
Combo1 : 213,170,255
Combo2 : 128,0,255
Combo3 : 128,128,255
Combo4 : 64,0,128

[HitObjects]
83,166,215,1,0
286,4,1152,1,8
362,74,1527,1,0
381,122,1714,1,0
353,222,2089,1,0
202,183,2651,1,8
192,234,2839,1,8
190,130,3214,1,0
339,84,3776,1,8
355,103,3870,1,8
361,128,3964,1,8
337,229,4338,1,8
290,252,4526,1,0
238,258,4713,1,0
176,174,5088,1,0
326,133,5651,1,0
351,127,5744,1,0
376,124,5838,1,0
416,155,6026,1,8
405,206,6213,5,0
148,161,7150,1,8
240,114,7525,1,0
291,108,7713,1,0
366,213,8088,1,0
211,195,8650,1,8
170,227,8837,1,8
236,146,9212,1,0
333,109,9587,1,8
358,112,9681,1,8
378,127,9775,1,8
370,230,10150,1,8
293,245,10524,1,8
242,232,10712,5,0
168,158,11086,1,0
267,128,11461,1,4
431,328,12399,1,0
422,312,12461,1,0
414,296,12524,1,0
409,279,12586,1,8
306,262,12961,5,0
281,254,13054,1,0
256,244,13148,1,0
256,217,13242,1,8
276,201,13335,1,0
296,185,13429,1,8
320,176,13523,1,0
344,166,13617,1,8
367,155,13710,1,0
386,137,13804,1,0
400,115,13898,1,0
404,89,13991,1,8
378,84,14085,1,0
352,82,14179,1,8
326,83,14273,1,8
300,86,14366,1,8
274,83,14460,1,0
248,87,14554,1,0
196,98,14648,1,0
185,122,14741,1,8
195,145,14835,1,0
215,160,14929,1,8
239,167,15022,1,0
262,178,15116,1,8
287,182,15210,1,0
312,187,15304,1,0
337,189,15397,1,8
360,177,15491,1,0
381,163,15585,1,0
402,148,15679,1,8
413,124,15772,1,0
448,96,15866,1,8
426,80,15960,1,0
402,70,16053,1,0
376,67,16147,1,0
349,66,16241,1,8
322,64,16335,1,0
296,63,16428,1,0
269,62,16522,1,0
243,64,16616,1,8
229,86,16710,1,0
226,111,16803,1,8
222,136,16897,1,8
234,159,16991,1,0
244,183,17084,1,0
267,193,17178,1,8
292,196,17272,1,0
318,197,17366,1,8
344,197,17459,1,0
369,191,17553,1,0
394,185,17647,1,0
419,179,17741,1,8
436,159,17834,1,0
443,134,17928,1,0
448,108,18022,1,0
427,92,18115,1,8
402,83,18209,1,0
376,80,18303,1,8
350,74,18397,1,0
324,71,18490,1,8
298,66,18584,1,0
206,115,18959,5,0
185,130,19053,1,0
164,146,19146,1,0
166,171,19240,1,8
189,182,19334,1,0
212,193,19428,1,8
237,198,19521,1,0
263,199,19615,1,8
288,202,19709,1,0
313,201,19803,1,0
339,200,19896,1,0
364,194,19990,1,8
386,181,20084,1,0
395,156,20177,1,8
408,133,20271,1,8
413,107,20365,1,8
391,92,20459,1,0
367,81,20552,1,0
341,73,20646,1,0
315,69,20740,1,8
289,64,20834,1,0
263,64,20927,1,8
251,87,21021,1,0
231,103,21115,1,8
216,124,21208,1,0
203,146,21302,1,0
189,168,21396,1,0
207,186,21490,1,8
228,201,21583,1,0
252,208,21677,1,8
276,216,21771,1,0
301,220,21865,1,8
327,218,21958,1,0
352,213,22052,1,0
376,204,22146,1,0
399,193,22239,1,8
405,167,22333,1,0
408,141,22427,1,0
413,115,22521,1,0
404,90,22614,1,8
380,77,22708,1,0
354,78,22802,1,8
327,79,22896,1,8
300,79,22989,1,8
279,95,23083,1,0
255,105,23177,1,8
231,115,23270,1,8
207,125,23364,1,8
200,150,23458,1,0
189,173,23552,1,0
178,196,23645,1,0
190,218,23739,1,8
212,231,23833,1,0
234,242,23927,1,0
258,249,24020,1,0
283,243,24114,1,8
308,238,24208,1,0
333,233,24301,1,8
358,228,24395,1,0
383,221,24489,1,8
387,195,24583,1,0
393,169,24676,1,0
395,143,24770,1,0
344,130,24958,5,4
267,113,25239,1,4
191,131,25520,1,4
203,234,25895,1,4
253,245,26082,1,4
300,266,26270,1,4
180,35,27207,5,0
230,46,27394,1,0
280,60,27581,1,8
304,67,27675,1,8
326,80,27769,1,0
361,117,27956,1,0
385,162,28144,1,0
386,214,28331,1,8
383,239,28425,1,8
378,264,28519,1,0
328,278,28706,1,0
276,275,28894,1,0
227,255,29081,1,8
205,241,29175,1,8
183,225,29268,1,0
168,174,29456,1,8
165,122,29643,1,0
180,101,29737,1,0
201,86,29831,1,0
252,87,30018,1,8
303,94,30206,1,0
348,119,30393,1,0
381,159,30581,1,8
393,181,30674,1,8
410,200,30768,1,0
383,244,30956,1,0
338,271,31143,1,0
286,265,31330,1,8
261,258,31424,1,8
236,248,31518,1,0
217,199,31705,1,0
195,151,31893,1,0
216,103,32080,1,8
238,90,32174,1,8
263,85,32268,1,0
315,87,32455,1,0
362,107,32643,1,8
376,128,32736,1,8
389,150,32830,1,0
399,173,32924,1,0
411,196,33018,1,8
408,248,33205,5,0
372,285,33392,1,0
319,283,33580,1,8
293,280,33674,1,8
275,260,33767,1,0
239,222,33955,1,0
213,176,34142,1,0
229,126,34330,1,8
240,102,34423,1,8
264,92,34517,1,0
315,100,34705,1,0
358,128,34892,1,0
401,157,35080,1,8
406,182,35173,1,8
408,234,35267,1,0
363,261,35454,1,8
312,270,35642,1,0
285,271,35736,1,0
258,272,35829,1,0
223,233,36017,1,8
186,196,36204,1,0
170,146,36392,1,0
182,95,36579,1,8
203,80,36673,1,8
229,79,36767,1,0
278,93,36954,1,0
324,115,37142,1,0
375,119,37329,1,8
395,135,37423,1,8
410,155,37516,1,0
413,180,37610,1,0
410,205,37704,1,0
225,301,38454,1,0
193,259,38641,1,8
181,235,38735,1,0
181,208,38829,1,8
191,184,38922,1,0
184,158,39016,1,8
177,132,39110,1,0
199,119,39204,5,8
354,105,39766,1,0
382,148,39953,1,0
404,249,40328,1,8
300,258,40703,1,0
175,164,41265,1,0
177,138,41359,1,0
177,111,41453,1,0
228,101,41640,1,8
331,112,42015,1,8
375,138,42203,1,0
317,282,42765,1,0
268,301,42953,1,0
190,231,43327,1,8
218,130,43702,1,0
372,108,44265,1,0
373,134,44358,1,0
373,160,44452,1,0
367,211,44640,1,8
359,235,44733,1,8
350,259,44827,1,8
310,292,45015,1,8
259,278,45202,5,0
222,241,45389,1,8
202,192,45577,1,0
200,140,45764,1,8
203,114,45858,1,8
226,102,45952,1,0
276,92,46139,1,8
323,70,46327,1,0
350,114,46514,1,0
354,139,46608,1,0
350,164,46702,1,0
379,206,46889,1,8
360,254,47077,1,0
309,265,47264,1,8
282,265,47358,1,8
255,263,47451,1,0
205,246,47639,1,8
200,194,47826,1,0
205,142,48014,1,0
209,116,48108,1,0
216,90,48201,1,0
260,63,48389,1,8
308,81,48576,1,0
346,115,48764,1,8
361,136,48857,1,8
374,158,48951,1,0
379,209,49139,1,8
350,252,49326,1,0
299,264,49513,1,0
273,268,49607,1,0
247,270,49701,1,0
202,244,49888,1,8
187,222,49982,1,8
193,196,50076,1,0
219,151,50263,1,8
236,131,50357,1,0
260,121,50451,1,8
285,114,50544,1,0
310,109,50638,1,8
335,111,50732,1,0
360,115,50826,1,8
383,125,50919,1,0
403,141,51013,1,0
414,164,51107,1,0
419,189,51201,5,0
229,274,51950,1,4
146,141,52513,1,8
161,119,52606,1,8
184,107,52700,5,0
235,101,52888,1,8
261,100,52981,1,8
286,103,53075,1,0
335,119,53262,1,8
376,150,53450,1,0
394,198,53637,1,0
397,223,53731,1,0
403,248,53825,1,8
354,267,54012,1,0
301,265,54200,1,0
275,262,54293,1,0
249,259,54387,1,0
202,235,54575,1,0
167,196,54762,1,8
165,143,54950,1,0
175,119,55043,1,0
200,113,55137,1,8
251,107,55324,1,0
302,107,55512,1,8
350,125,55699,1,0
376,169,55887,1,8
377,195,55981,1,8
368,219,56074,1,0
326,250,56262,1,0
275,260,56449,1,8
227,239,56637,1,0
189,202,56824,1,8
183,176,56918,1,8
192,151,57012,1,0
219,106,57199,1,0
267,88,57386,1,8
318,97,57574,1,0
363,121,57761,1,0
403,153,57949,1,0
413,176,58043,1,0
417,201,58136,1,0
383,240,58324,1,4
279,242,58699,5,4
229,227,58886,1,0
205,215,58980,1,0
184,198,59074,1,8
184,146,59261,1,0
212,102,59448,1,8
262,91,59636,1,0
287,95,59730,1,0
312,97,59823,1,8
357,121,60011,1,0
372,170,60198,1,0
367,221,60386,1,0
351,241,60479,1,0
328,254,60573,1,8
276,254,60761,1,0
226,236,60948,1,8
175,225,61136,1,0
155,208,61229,1,0
148,182,61323,1,8
143,130,61510,1,0
176,89,61698,1,0
278,69,62073,1,0
303,74,62167,1,0
329,74,62260,1,8
351,86,62354,1,8
370,103,62448,1,0
359,206,62823,1,0
340,224,62916,1,0
315,232,63010,1,8
289,235,63104,1,8
263,230,63198,1,0
215,208,63385,1,8
188,162,63572,1,0
181,137,63666,1,0
190,112,63760,1,8
237,90,63947,1,0
262,84,64041,1,0
287,79,64135,1,0
312,81,64228,1,8
337,85,64322,1,8
379,115,64510,1,8
404,160,64697,5,0
385,208,64885,1,8
371,230,64978,1,8
345,235,65072,1,0
295,250,65259,1,8
242,246,65447,1,0
194,224,65634,1,0
173,207,65728,1,0
164,182,65822,1,8
191,138,66009,1,0
229,102,66197,1,0
252,91,66290,1,0
276,81,66384,1,0
300,90,66572,1,0
346,112,66759,1,8
362,161,66947,1,0
359,186,67040,1,0
345,207,67134,1,8
333,257,67321,1,0
283,270,67509,1,8
233,254,67696,1,0
202,211,67884,1,8
190,187,67978,1,8
195,161,68071,1,0
192,109,68259,1,8
233,77,68446,1,0
257,69,68540,1,0
283,68,68634,1,0
332,85,68821,1,8
370,119,69009,1,8
382,169,69196,1,0
381,194,69290,1,0
364,214,69383,1,8
352,237,69477,1,8
327,246,69571,1,0
276,256,69758,1,8
224,248,69946,1,0
200,237,70040,1,0
178,222,70133,1,8
160,203,70227,1,8
150,178,70321,1,0
155,126,70508,1,8
198,97,70696,5,0
249,92,70883,1,8
300,100,71071,1,0
339,133,71258,1,8
353,154,71352,1,8
364,177,71445,1,0
376,227,71633,1,8
333,256,71820,1,0
308,263,71914,1,0
282,267,72008,1,0
233,247,72195,1,0
225,195,72383,1,8
202,148,72570,1,0
214,97,72758,1,8
235,82,72851,1,8
261,83,72945,1,0
312,88,73133,1,8
337,94,73226,1,8
359,106,73320,1,0
376,124,73414,1,0
389,146,73507,1,0
368,194,73695,1,4
274,239,74070,1,8
222,232,74257,1,8
184,80,74820,1,8
209,82,74913,1,8
234,87,75007,1,8
283,102,75195,1,4
351,179,75569,1,8
329,226,75757,1,8
177,188,76319,1,8
169,212,76413,1,8
174,237,76507,1,8
224,224,76694,2,0,L|456:254|429:100|109:89|96:263|160:352,1,980
101,176,79693,5,0
109,151,79787,1,0
120,127,79881,1,0
137,107,79975,1,8
162,101,80068,1,0
187,100,80162,1,8
213,99,80256,1,0
239,100,80349,1,8
265,100,80443,1,0
290,103,80537,1,0
315,106,80631,1,0
340,110,80724,1,8
365,115,80818,1,0
389,121,80912,1,8
414,128,81006,1,0
438,135,81099,1,8
441,160,81193,1,0
443,185,81287,1,0
441,211,81380,1,8
437,236,81474,1,0
427,260,81568,1,0
405,274,81662,1,8
387,292,81755,1,0
361,295,81849,1,8
335,292,81943,1,0
309,286,82037,1,0
285,274,82130,1,8
263,259,82224,1,0
241,244,82318,1,0
222,225,82411,1,8
213,200,82505,1,0
206,174,82599,1,8
201,148,82693,1,0
206,122,82786,1,0
218,99,82880,1,0
242,89,82974,1,8
267,85,83068,1,0
291,92,83161,1,0
315,100,83255,1,0
338,110,83349,1,8
350,132,83442,1,0
358,156,83536,1,0
365,181,83630,1,0
365,207,83724,1,8
356,231,83817,1,0
340,251,83911,1,0
320,267,84005,1,0
296,277,84099,1,8
270,281,84192,1,0
244,280,84286,1,0
223,264,84380,1,8
204,245,84473,1,8
184,227,84567,1,0
169,205,84661,1,0
160,180,84755,1,8
164,154,84848,1,8
158,128,84942,1,0
176,110,85036,1,8
198,96,85130,1,0
223,93,85223,1,8
248,90,85317,1,0
273,87,85411,1,8
298,81,85504,1,0
322,89,85598,1,8
345,99,85692,5,0
358,120,85786,1,0
369,143,85879,1,0
383,164,85973,1,8
392,188,86067,1,0
402,211,86161,1,8
406,236,86254,1,0
397,260,86348,1,8
371,265,86442,1,0
345,265,86535,1,0
318,264,86629,1,0
292,268,86723,1,8
270,253,86817,1,0
258,229,86910,1,8
238,211,87004,1,0
228,186,87098,1,8
227,159,87192,1,0
232,133,87285,1,0
246,111,87379,1,0
266,94,87473,1,8
292,92,87566,1,0
317,95,87660,1,0
342,101,87754,1,8
365,113,87848,1,0
384,130,87941,1,0
399,150,88035,1,8
409,174,88129,1,0
412,199,88222,1,8
403,223,88316,1,0
388,244,88410,1,0
369,262,88504,1,8
346,274,88597,1,0
319,273,88691,1,8
293,270,88785,1,8
269,259,88879,1,0
246,245,88972,1,0
224,230,89066,1,8
208,209,89160,1,8
188,191,89253,1,0
184,165,89347,1,0
199,144,89441,1,8
215,124,89535,1,8
237,110,89628,1,0
260,98,89722,1,0
285,100,89816,1,8
310,103,89910,1,8
335,109,90003,1,0
358,120,90097,1,8
377,137,90191,1,0
387,160,90284,1,0
393,185,90378,1,0
405,207,90472,1,8
389,227,90566,1,0
369,244,90659,1,0
348,259,90753,1,0
322,264,90847,1,8
296,267,90941,1,0
270,262,91034,1,8
244,258,91128,1,0
222,243,91222,1,8
199,230,91315,1,0
187,206,91409,1,8
179,181,91503,1,8
171,156,91597,1,8
185,134,91690,5,0
202,114,91784,1,8
224,100,91878,1,8
249,94,91972,1,0
274,91,92065,1,8
299,92,92159,1,8
324,98,92253,1,0
340,147,92440,1,8
346,172,92534,1,8
357,195,92628,1,0
373,214,92721,1,8
376,239,92815,1,0
396,255,92909,1,8
408,278,93003,1,0
355,274,93190,1,4
