osu file format v9

[General]
AudioFilename: SenpuuAC.mp3
AudioLeadIn: 2000
PreviewTime: 27017
Countdown: 0
SampleSet: Normal
StackLeniency: 0.7
Mode: 1
LetterboxInBreaks: 1

[Editor]
DistanceSpacing: 0.8
BeatDivisor: 4
GridSize: 32

[Metadata]
Title:Senpuu no Mai (AC ver.)
Artist:Zeami feat. Ayane
Creator:lepidopodus
Version:Taiko Muzukashii
Source:Taiko no Tatsujin
Tags:Tatsh Natteke

[Difficulty]
HPDrainRate:4
CircleSize:5
OverallDifficulty:4
ApproachRate:4
SliderMultiplier:1.4
SliderTickRate:1

[Events]
//Background and Video events
0,0,"senpuuACbg.png"
//Break Periods
//Storyboard Layer 0 (Background)
//Storyboard Layer 1 (Fail)
//Storyboard Layer 2 (Pass)
//Storyboard Layer 3 (Foreground)
//Storyboard Sound Samples
//Background Colour Transformations
3,100,163,162,255

[TimingPoints]
215,374.906273431642,4,1,0,90,1,0
10712,374.906273431642,6,1,0,90,1,0
12961,374.906273431642,4,1,0,90,1,0
27207,374.906273431642,4,1,0,90,1,0
52700,-100,4,1,0,90,0,1
79693,-100,4,1,0,90,0,0

[Colours]
Combo1 : 213,170,255
Combo2 : 128,0,255
Combo3 : 128,128,255
Combo4 : 64,0,128

[HitObjects]
256,192,215,1,4
448,96,1152,1,8
288,160,1527,1,0
352,160,1714,1,0
416,64,2089,1,0
320,192,2651,1,8
352,160,2839,1,8
416,64,3214,1,0
320,224,3776,1,8
288,160,3964,1,8
384,96,4338,1,8
320,128,4526,1,0
256,160,4713,1,0
160,224,5088,1,0
64,224,5651,1,0
128,224,5838,1,0
128,224,6026,1,0
160,128,6213,5,0
256,128,6775,1,0
320,128,6963,1,0
384,160,7150,1,8
448,256,7525,1,0
352,288,7713,1,0
384,192,8088,1,0
256,32,8650,1,8
288,96,8837,1,8
384,160,9212,1,0
288,192,9587,1,8
256,224,9775,1,8
224,320,10150,1,8
320,288,10524,1,8
384,256,10712,5,0
256,96,11461,1,4
448,192,12586,1,12
352,224,12961,5,0
320,224,13054,1,0
288,224,13148,1,0
224,256,13335,1,0
192,256,13429,1,0
192,256,13523,1,0
192,192,13710,1,0
192,160,13804,1,0
224,96,13991,1,0
224,128,14085,1,0
288,128,14273,1,8
352,160,14460,1,0
384,192,14554,1,0
384,224,14648,1,0
384,288,14835,1,0
352,288,14929,1,0
320,288,15022,1,0
256,288,15210,1,0
224,288,15304,1,0
192,288,15397,1,0
128,288,15585,1,0
160,192,15960,1,0
160,160,16053,1,0
192,128,16147,1,0
256,128,16335,1,0
288,128,16428,1,0
320,128,16522,1,0
384,160,16710,1,8
416,192,16803,1,8
416,224,16897,1,8
384,256,17084,1,8
352,256,17178,1,8
320,256,17272,1,8
256,256,17459,1,0
224,256,17553,1,0
192,256,17647,1,0
160,224,17834,1,0
160,192,17928,1,0
160,160,18022,1,0
224,160,18209,1,0
256,160,18303,1,0
288,160,18397,1,0
288,96,18584,1,4
352,224,18959,5,0
320,224,19053,1,0
288,224,19146,1,0
224,256,19334,1,0
192,256,19428,1,0
192,256,19521,1,0
192,192,19709,1,0
192,160,19803,1,0
224,96,19990,1,0
224,128,20084,1,0
288,128,20271,1,8
352,160,20459,1,0
384,192,20552,1,0
384,224,20646,1,0
384,288,20834,1,0
352,288,20927,1,0
320,288,21021,1,0
256,288,21208,1,0
224,288,21302,1,0
192,288,21396,1,0
128,288,21583,1,0
160,192,21958,1,0
160,160,22052,1,0
192,128,22146,1,0
256,128,22333,1,0
288,128,22427,1,0
320,128,22521,1,0
384,160,22708,1,8
416,192,22802,1,8
416,224,22896,1,8
384,256,23083,1,8
352,256,23177,1,8
320,256,23270,1,8
256,256,23458,1,0
224,256,23552,1,0
160,256,23739,1,0
128,256,23833,1,0
160,192,24020,1,0
192,160,24208,1,0
224,160,24301,1,0
256,128,24395,1,0
320,128,24583,1,0
384,224,24958,5,4
352,320,25239,1,4
288,288,25520,1,4
192,256,25895,1,4
224,288,26082,1,4
192,256,26270,1,4
416,64,27207,5,0
384,96,27394,1,0
416,128,27581,1,8
416,192,27769,1,0
352,256,28144,1,0
320,256,28237,1,0
288,256,28331,1,0
256,224,28519,1,0
224,160,28706,1,0
256,96,28894,1,0
352,96,29081,1,8
384,128,29268,1,0
448,224,29643,1,0
448,256,29737,1,0
448,288,29831,1,0
416,64,30206,1,0
384,96,30393,1,0
416,128,30581,1,8
416,192,30768,1,0
352,256,31143,1,0
320,256,31237,1,0
288,256,31330,1,0
256,224,31518,1,0
224,160,31705,1,0
256,96,31893,1,0
352,96,32080,1,8
384,128,32268,1,0
448,224,32643,1,8
448,256,32736,1,8
448,288,32830,1,8
416,64,33205,5,0
384,96,33392,1,0
416,128,33580,1,8
416,192,33767,1,0
352,256,34142,1,0
320,256,34236,1,0
288,256,34330,1,0
256,224,34517,1,0
224,160,34705,1,0
256,96,34892,1,0
352,96,35080,1,8
384,128,35267,1,0
448,224,35642,1,0
448,256,35736,1,0
448,288,35829,1,0
384,288,36017,1,0
320,288,36204,1,0
256,256,36392,1,0
288,224,36579,1,8
320,192,36767,1,0
384,192,36954,1,0
416,160,37142,1,0
448,128,37329,1,8
480,192,37516,1,0
448,224,37704,1,0
256,352,38454,1,0
288,320,38547,1,0
320,288,38641,1,0
288,320,38735,1,0
320,288,38829,1,0
320,192,39204,5,0
160,128,39766,1,0
192,160,39953,1,0
288,160,40328,1,8
384,192,40703,1,0
288,352,41265,1,0
320,320,41359,1,0
320,320,41453,1,0
320,320,42203,1,0
320,320,42765,1,0
320,320,42953,1,0
384,224,43327,1,8
320,128,43702,1,0
288,288,44265,1,0
288,256,44358,1,0
288,224,44452,1,0
384,192,44827,1,8
448,96,45202,5,0
448,160,45389,1,8
480,192,45577,1,0
448,160,45764,1,8
480,192,45952,1,0
448,160,46139,1,0
480,192,46327,1,0
416,96,46702,1,0
448,128,46889,1,8
480,192,47077,1,0
448,160,47264,1,8
480,192,47451,1,0
384,192,47826,1,0
288,160,48201,1,0
352,128,48389,1,8
416,128,48576,1,0
448,224,48951,1,0
480,160,49139,1,8
448,224,49326,1,0
384,320,49701,2,0,L|128:256|128:96|288:96,1,560
448,224,51950,5,4
256,96,52700,5,0
320,128,52888,1,8
352,128,52981,1,8
384,160,53075,1,8
352,224,53262,1,8
320,256,53450,1,0
256,256,53637,1,0
224,256,53731,1,0
192,256,53825,1,0
192,160,54200,1,0
224,128,54293,1,0
192,160,54387,1,0
256,160,54575,1,8
320,160,54762,1,8
384,192,54950,1,0
416,192,55043,1,0
448,192,55137,1,0
448,256,55324,1,8
352,256,55699,1,0
288,256,55887,1,8
256,256,55981,1,8
256,224,56074,1,8
224,256,56262,1,8
256,224,56449,1,0
224,256,56637,1,0
256,224,56730,1,0
224,256,56824,1,0
320,192,57199,1,0
256,192,57574,12,0,58324
416,128,58699,5,4
448,192,58886,1,0
448,224,58980,1,0
448,256,59074,1,0
384,256,59261,1,0
288,192,59636,1,8
288,96,60011,1,8
416,128,60198,1,0
448,192,60386,1,0
448,224,60479,1,0
448,256,60573,1,0
384,256,60761,1,0
288,192,61136,1,8
288,160,61229,1,8
288,160,61323,1,8
384,96,61698,1,0
384,96,61792,1,0
384,96,61885,1,0
416,128,62073,1,8
416,224,62448,1,0
416,224,62541,1,0
416,224,62635,1,0
384,192,62823,1,8
288,128,63198,1,0
288,128,63291,1,0
288,128,63385,1,0
288,128,63572,1,0
288,128,63666,1,0
288,128,63760,1,0
288,128,63947,1,0
288,128,64041,1,0
288,128,64135,1,0
288,128,64322,1,8
256,96,64697,5,0
320,128,64885,1,8
352,128,64978,1,8
384,160,65072,1,8
352,224,65259,1,8
320,256,65447,1,0
256,256,65634,1,0
224,256,65728,1,0
192,256,65822,1,0
128,256,66009,1,0
192,160,66197,1,0
224,128,66290,1,0
192,160,66384,1,0
256,160,66572,1,8
320,160,66759,1,8
384,192,66947,1,0
416,192,67040,1,0
448,192,67134,1,0
448,256,67321,1,8
352,256,67696,1,0
288,256,67884,1,8
256,256,67978,1,8
256,224,68071,1,8
224,256,68259,1,8
256,224,68446,1,0
224,256,68540,1,0
256,224,68634,1,0
224,256,68821,1,0
320,192,69196,1,4
416,192,69571,1,4
416,288,69946,1,4
384,192,70321,1,4
256,96,70696,5,4
320,128,70883,1,8
352,128,70977,1,8
384,160,71071,1,8
352,224,71258,1,8
320,256,71445,1,0
256,256,71539,1,0
224,256,71633,1,0
192,256,71820,1,0
192,160,72195,1,0
224,128,72289,1,0
192,160,72383,1,0
256,160,72570,1,8
320,160,72758,1,8
384,192,72945,1,0
416,192,73039,1,0
448,192,73133,1,0
448,256,73320,1,8
352,288,73695,1,4
352,192,74070,1,8
224,32,74632,1,8
256,64,74820,1,8
352,96,75195,1,4
416,192,75569,1,8
256,256,76132,1,8
288,224,76319,1,8
192,256,76694,2,0,L|64:96|384:96|384:320|128:288,1,980
352,224,79693,5,0
320,224,79787,1,0
288,224,79881,1,0
224,256,80068,1,0
192,256,80162,1,0
192,256,80256,1,0
192,192,80443,1,0
192,160,80537,1,0
224,96,80724,1,0
224,128,80818,1,0
288,128,81006,1,8
352,160,81193,1,0
384,192,81287,1,0
384,224,81380,1,0
384,288,81568,1,0
352,288,81662,1,0
320,288,81755,1,0
256,288,81943,1,0
224,288,82037,1,0
192,288,82130,1,0
128,288,82318,1,0
160,192,82693,1,0
160,160,82786,1,0
192,128,82880,1,0
256,128,83068,1,0
288,128,83161,1,0
320,128,83255,1,0
384,160,83442,1,8
416,192,83536,1,8
416,224,83630,1,8
384,256,83817,1,8
352,256,83911,1,8
320,256,84005,1,8
256,256,84192,1,0
224,256,84286,1,0
192,256,84380,1,0
160,224,84567,1,0
160,192,84661,1,0
160,160,84755,1,0
224,160,84942,1,0
256,160,85036,1,0
288,160,85130,1,0
288,96,85317,1,4
352,224,85692,5,0
320,224,85786,1,0
288,224,85879,1,0
224,256,86067,1,0
192,256,86161,1,0
192,256,86254,1,0
192,192,86442,1,0
192,160,86535,1,0
224,96,86723,1,0
224,128,86817,1,0
288,128,87004,1,8
352,160,87192,1,0
384,192,87285,1,0
384,224,87379,1,0
384,288,87566,1,0
352,288,87660,1,0
320,288,87754,1,0
256,288,87941,1,0
224,288,88035,1,0
192,288,88129,1,0
192,256,88222,1,0
128,288,88316,1,0
160,192,88691,1,0
160,160,88785,1,0
192,128,88879,1,0
256,128,89066,1,0
288,128,89160,1,0
320,128,89253,1,0
384,160,89441,1,8
416,192,89535,1,8
416,224,89628,1,8
384,256,89816,1,8
352,256,89910,1,8
320,256,90003,1,8
256,256,90191,1,0
224,256,90284,1,0
160,256,90472,1,0
128,256,90566,1,0
160,192,90753,1,0
192,160,90847,1,0
224,160,91034,1,0
256,128,91128,1,0
320,128,91315,1,8
384,224,91690,5,4
352,320,91972,1,4
288,288,92253,1,4
192,256,92628,1,4
224,288,92815,1,4
192,256,93003,1,4
192,192,93190,1,4
