osu file format v9

[General]
AudioFilename: SenpuuAC.mp3
AudioLeadIn: 2000
PreviewTime: 27017
Countdown: 0
SampleSet: Soft
StackLeniency: 0.5
Mode: 0
LetterboxInBreaks: 1

[Editor]
DistanceSpacing: 0.7
BeatDivisor: 4
GridSize: 8

[Metadata]
Title:Senpuu no Mai (AC ver.)
Artist:Zeami feat. Ayane
Creator:lepidopodus
Version:Normal
Source:Taiko no Tatsujin
Tags:Tatsh Natteke

[Difficulty]
HPDrainRate:4
CircleSize:4
OverallDifficulty:4
ApproachRate:5
SliderMultiplier:1.2
SliderTickRate:1

[Events]
//Background and Video events
0,0,"senpuuACtaikOsu%20copy1.png"
//Break Periods
//Storyboard Layer 0 (Background)
//Storyboard Layer 1 (Fail)
//Storyboard Layer 2 (Pass)
//Storyboard Layer 3 (Foreground)
//Storyboard Sound Samples
//Background Colour Transformations
3,100,163,162,255

[TimingPoints]
215,374.906273431642,4,2,0,50,1,0
590,-100,4,2,0,100,0,0
3027,-100,4,2,0,50,0,0
3402,-100,4,2,0,100,0,0
6166,-100,4,2,0,50,0,0
6590,-100,4,2,0,100,0,0
9027,-100,4,2,0,50,0,0
9402,-100,4,2,0,100,0,0
10712,374.906273431642,6,2,0,50,1,0
10902,-100,6,2,0,60,0,0
11277,-100,6,2,0,70,0,0
11840,-100,6,2,0,80,0,0
12961,374.906273431642,4,2,0,100,1,0
27207,374.906273431642,4,2,0,100,1,0
52700,-100,4,2,0,100,0,1
79693,-100,4,2,0,100,0,0
93190,-100,4,2,0,100,0,1
93191,-100,4,2,0,100,0,0

[Colours]
Combo1 : 213,170,255
Combo2 : 128,0,255
Combo3 : 128,128,255
Combo4 : 64,0,128

[HitObjects]
256,64,215,1,4
120,280,1527,2,0,B|184:280,1,60
256,280,2089,1,0
256,64,3214,5,4
392,280,4526,2,0,B|328:280,1,60
256,280,5088,1,0
256,176,5651,6,0,B|192:144|192:64|256:32,1,180,0|4
384,248,7525,2,0,B|328:280,1,60,0|0
256,280,8088,1,0
256,64,9212,5,4
256,312,10524,2,0,B|320:312,1,60,0|4
384,280,11086,1,4
452,312,11461,1,4
256,192,12586,5,4
176,216,12961,6,0,B|168:152|104:112,1,120,0|2
144,40,13710,2,0,B|264:40,1,120,0|2
288,120,14460,1,0
366,89,14835,1,0
405,163,15210,1,0
486,140,15585,1,2
464,221,15960,6,0,B|464:365,2,120,0|0|0
395,172,17084,1,2
352,240,17459,2,0,B|216:288|112:176,1,240
96,120,18584,1,4
48,184,18959,6,0,B|48:256|104:304,1,120,0|2
164,333,19709,2,0,B|172:261|252:226,1,120,0|2
200,160,20459,1,0
200,160,20834,1,0
280,136,21208,1,0
280,136,21583,1,2
256,56,21958,6,0,B|336:56|416:104|456:184,1,240
424,256,23083,1,2
344,272,23458,2,0,B|320:184|192:184|160:272,1,240
192,344,24583,1,2
256,288,24958,6,4,B|256:184,2,90
176,288,25895,1,4
176,288,26082,1,4
176,288,26270,1,4
384,312,27207,5,4
434,244,27581,1,8
368,192,27956,2,0,B|232:184|168:56,1,240
88,64,29081,1,8
56,144,29456,2,0,B|112:176|128:256,1,120,0|8
112,320,30206,5,0
192,288,30581,2,0,B|240:240|232:160,2,120,8|0|8
256,344,31705,2,0,B|392:336|464:224,1,240
496,160,32830,1,8
432,104,33205,6,0,B|360:112|312:56,1,120,0|8
256,16,33955,2,0,B|216:144|72:160,1,240
88,240,35080,1,8
160,272,35454,2,0,B|200:336|272:328,1,120,0|8
344,312,36204,6,0,B|352:216|448:160,1,180
360,64,37329,1,0
360,64,37516,1,0
360,64,37704,1,4
152,328,39204,6,0,B|160:192|280:136,1,240,4|8
120,88,40703,2,0,B|160:208|312:224,1,240,0|8
344,296,41828,1,0
416,248,42203,6,0,B|368:208|360:136,1,120
392,64,42953,1,8
392,64,43327,1,0
312,64,43702,2,0,B|112:64,2,180
336,144,45202,5,0
264,184,45577,1,8
304,256,45952,1,0
232,296,46327,1,8
192,224,46702,2,0,B|120:232|88:152,1,120,0|8
176,144,47451,2,0,B|144:80|72:88,2,120,0|8|0
256,296,48951,5,0
256,296,49139,1,0
256,296,49326,1,8
256,192,49701,8,4,51201
256,192,51950,5,4
160,56,52700,6,0,B|296:56,1,120,4|8
240,128,53450,2,0,B|320:128|352:184,1,120,0|8
424,200,54200,1,0
400,280,54575,1,8
400,280,54762,1,0
400,280,54950,2,0,B|360:328|280:336,1,120,0|8
216,296,55699,6,0,B|96:320,1,120,0|8
56,328,56262,2,0,B|40:232|123:167,1,180,0|8
88,88,57199,2,0,B|256:-16|432:88,1,360,0|4
384,160,58699,5,4
440,224,59074,1,8
400,296,59448,2,0,B|352:240|272:240,1,120,0|8
296,160,60198,1,0
296,160,60386,1,0
296,160,60573,2,0,B|168:160,1,120,8|0
144,80,61323,1,4
216,40,61698,5,4
280,96,62073,2,0,B|200:192|280:336,1,240,8|8
352,312,63198,2,0,B|416:296|456:240,1,120,0|8
456,160,63947,1,0
448,120,64135,1,0
424,88,64322,1,8
352,40,64697,6,0,B|336:104|272:144,1,120,4|8
200,112,65447,2,0,B|144:144|128:208,1,120,0|8
160,280,66197,1,0
232,240,66572,1,8
272,312,66947,1,0
352,280,67321,1,8
384,200,67696,6,0,B|296:168|256:64,2,180,0|0|8
320,256,69196,1,4
256,320,69571,1,4
192,256,69946,1,4
256,192,70321,1,4
256,112,70696,5,4
96,152,71445,2,0,B|81:222|18:263,1,120,0|8
88,320,72195,2,0,B|256:200|424:320,1,360,0|8
442,236,73695,5,4
422,154,74070,1,8
422,154,74257,1,0
367,89,74632,1,0
367,89,74820,1,8
288,64,75195,5,4
208,88,75569,1,8
208,88,75757,1,0
160,160,76132,1,0
160,160,76319,1,8
256,192,76694,8,4,78944
256,80,79693,6,0,B|128:80,1,120,0|2
80,144,80443,2,0,B|128:192|112:264,1,120,0|2
184,304,81193,1,0
184,304,81380,1,0
184,304,81568,1,2
264,288,81943,2,0,B|336:288|376:232,1,120,0|2
383,162,82693,6,0,B|375:90|303:74,2,120
299,162,83817,1,2
216,136,84192,2,0,B|208:272|48:320,1,240
40,232,85317,1,4
88,160,85692,6,0,B|152:160|200:112,1,120,0|2
216,32,86442,2,0,B|152:32|96:88,1,120,0|2
88,160,87192,2,0,B|152:176|184:256,1,120,0|2
256,272,87941,1,0
256,272,88129,1,0
256,272,88316,1,2
320,320,88691,5,0
400,304,89066,1,0
384,224,89441,1,0
464,200,89816,1,2
408,136,90191,6,0,B|272:152|192:48,1,240
112,56,91315,1,2
88,136,91690,6,4,B|56:176|88:224,2,90
160,176,92628,2,4,B|232:176,3,60
