osu file format v9

[General]
AudioFilename: SenpuuAC.mp3
AudioLeadIn: 2000
PreviewTime: 27017
Countdown: 0
SampleSet: Normal
StackLeniency: 0.6
Mode: 0
LetterboxInBreaks: 1

[Editor]
DistanceSpacing: 1.2
BeatDivisor: 4
GridSize: 8

[Metadata]
Title:Senpuu no Mai (AC ver.)
Artist:Zeami feat. Ayane
Creator:lepidopodus
Version:Natteke
Source:Taiko no Tatsujin
Tags:Tatsh Natteke

[Difficulty]
HPDrainRate:7
CircleSize:4
OverallDifficulty:7
ApproachRate:8
SliderMultiplier:1.8
SliderTickRate:0.5

[Events]
//Background and Video events
0,0,"senpuuACtaikOsu%20copy1.png"
//Break Periods
//Storyboard Layer 0 (Background)
//Storyboard Layer 1 (Fail)
//Storyboard Layer 2 (Pass)
//Storyboard Layer 3 (Foreground)
//Storyboard Sound Samples
//Background Colour Transformations
3,100,163,162,255

[TimingPoints]
215,374.906273431642,4,1,0,70,1,0
308,-100,4,2,0,0,0,0
496,-100,4,2,0,70,0,0
1433,-100,4,1,0,70,0,0
2465,-100,4,2,0,70,0,0
3121,-100,4,1,0,70,0,0
3308,-100,4,2,0,70,0,0
4433,-100,4,1,0,70,0,0
6308,-100,4,2,0,70,0,0
7433,-100,4,1,0,70,0,0
8277,-100,4,2,0,70,0,0
9121,-100,4,1,0,70,0,0
9308,-100,4,2,0,70,0,0
10433,-100,4,1,0,70,0,0
10712,374.906273431642,6,1,0,70,1,0
12961,374.906273431642,4,1,0,70,1,0
13048,-100,4,2,0,70,0,0
13235,-100,4,1,0,70,0,0
13423,-100,4,2,0,70,0,0
13610,-100,4,1,0,70,0,0
14173,-100,4,2,0,70,0,0
14360,-100,4,1,0,70,0,0
14923,-100,4,2,0,70,0,0
15110,-100,4,1,0,70,0,0
15297,-100,4,2,0,70,0,0
15484,-100,4,1,0,70,0,0
16048,-100,4,2,0,70,0,0
16235,-100,4,1,0,70,0,0
16422,-100,4,2,0,70,0,0
16609,-100,4,1,0,70,0,0
16796,-100,4,2,0,70,0,0
16983,-100,4,1,0,70,0,0
17170,-100,4,2,0,70,0,0
17366,-100,4,1,0,70,0,0
19423,-100,4,2,0,70,0,0
19610,-100,4,1,0,70,0,0
19797,-100,4,2,0,70,0,0
19984,-100,4,1,0,70,0,0
20171,-100,4,2,0,70,0,0
20358,-100,4,1,0,70,0,0
20548,-100,4,2,0,70,0,0
20735,-100,4,1,0,70,0,0
20922,-100,4,2,0,70,0,0
21109,-100,4,1,0,70,0,0
21296,-100,4,2,0,70,0,0
21486,-100,4,1,0,70,0,0
22048,-100,4,2,0,70,0,0
22235,-100,4,1,0,70,0,0
22422,-100,4,2,0,70,0,0
22609,-100,4,1,0,70,0,0
22796,-100,4,2,0,70,0,0
22983,-100,4,1,0,70,0,0
23171,-100,4,2,0,70,0,0
23358,-100,4,1,0,70,0,0
23545,-100,4,2,0,70,0,0
23732,-100,4,1,0,70,0,0
23919,-100,4,2,0,70,0,0
24106,-100,4,1,0,70,0,0
24293,-100,4,2,0,70,0,0
24480,-100,4,1,0,70,0,0
27207,374.906273431642,4,1,0,68,1,0
39155,-200,4,1,0,68,0,0
43048,-200,4,2,0,68,0,0
43235,-200,4,1,0,68,0,0
43422,-200,4,2,0,68,0,0
43609,-200,4,1,0,68,0,0
43796,-200,4,2,0,68,0,0
43983,-200,4,1,0,68,0,0
44170,-100,4,2,0,68,0,0
44361,-200,4,1,0,68,0,0
45202,-100,4,1,0,68,0,0
51486,-100,4,2,0,0,0,0
51673,-100,4,1,0,68,0,0
52700,-100,4,1,0,70,0,1
52751,-100,4,1,0,70,0,0
73695,-100,4,1,0,70,0,0
73986,-100,4,2,0,70,0,0
74923,-100,4,1,0,70,0,0
75298,-100,4,2,0,70,0,0
76423,-100,4,1,0,70,0,0
78298,-100,4,2,0,70,0,0
78485,-100,4,1,0,70,0,0
78672,-100,4,2,0,70,0,0
78859,-100,4,1,0,70,0,0
79693,-100,4,1,0,56,0,0

[Colours]
Combo1 : 213,170,255
Combo2 : 128,0,255
Combo3 : 128,128,255
Combo4 : 64,0,128

[HitObjects]
136,112,215,6,0,B|80:192|144:296,1,180,4|2
232,248,777,1,0
320,288,964,1,0
312,192,1152,1,0
408,200,1339,1,2
360,104,1527,5,0
456,104,1714,1,4
464,104,2089,1,4
464,104,2651,2,0,B|480:152|456:200,1,90,0|2
360,192,3026,1,0
459,191,3214,6,0,B|432:232|464:288,1,90,4|0
458,277,3589,1,2
360,280,3776,1,0
264,280,3964,1,0
168,280,4151,2,0,B|144:232|176:184,1,90,0|2
344,104,4526,6,0,B|368:152|336:200,1,90,0|4
341,190,5088,1,4
341,190,5651,1,0
208,160,5838,1,0
176,288,6026,1,0
304,328,6213,1,4
256,240,6400,6,0,B|208:256|160:216,1,90,0|2
256,144,6775,2,0,B|304:128|352:168,1,90
168,148,7150,2,0,B|152:101|184:64,1,90,0|2
343,235,7525,2,0,B|359:282|328:320,1,90,0|4
328,319,8088,1,4
328,319,8462,1,0
224,296,8650,1,0
200,192,8837,1,2
280,120,9025,1,0
384,144,9212,5,4
280,120,9400,1,0
208,40,9587,1,2
128,112,9775,1,0
200,192,9962,1,0
120,264,10150,1,0
48,184,10337,1,2
128,184,10524,5,0
272,199,10712,1,4
280,200,11086,1,4
287,200,11461,1,4
256,192,11649,12,0,12586
160,232,12961,6,0,B|112:256|56:224,1,90,4|2
216,168,13335,2,0,B|264:144|320:176,1,90,8|2
336,280,13710,2,0,B|312:176|400:112,1,180,0|8
432,224,14273,1,2
432,224,14460,6,0,B|456:328|368:392,1,180,0|8
312,288,15022,2,0,B|336:240|320:192,1,90,2|0
200,96,15397,2,0,B|176:144|192:192,1,90,2|8
288,120,15772,1,0
376,192,15960,6,0,B|352:232|376:280,1,90,0|2
288,352,16335,2,0,B|288:256,1,90,8|2
232,160,16710,2,0,B|232:256,1,90,0|2
136,192,17084,2,0,B|160:232|136:280,1,90,8|2
136,278,17366,1,0
136,278,17459,6,0,B|224:272|200:352|304:336,2,180,0|8|0
64,192,18397,1,0
48,168,18490,1,0
32,144,18584,2,8,B|136:144,1,90
208,72,18959,6,0,B|272:96|272:200|192:216,1,180,4|8
184,144,19521,2,0,B|304:144,1,90,2|0
376,208,19896,2,0,B|352:248|384:304,2,90,2|8|2
256,224,20459,5,0
320,48,20646,1,2
160,152,20834,1,8
344,152,21021,1,2
200,48,21208,1,0
256,128,21396,5,2
160,248,21583,1,8
352,248,21771,1,0
256,224,21958,6,0,B|232:264|256:312,1,90,0|2
256,128,22333,2,0,B|280:88|256:40,1,90,8|2
176,176,22708,2,0,B|136:152|88:176,1,90,0|2
336,176,23083,2,0,B|376:200|424:176,1,90,8|2
456,32,23458,5,0
336,32,23645,1,2
264,120,23833,5,8
384,120,24020,1,2
216,32,24208,5,0
96,32,24395,1,2
24,120,24583,5,8
144,120,24770,1,0
160,32,24958,5,4
256,288,25239,1,0
352,32,25520,1,0
144,280,25895,5,0
256,208,26082,1,4
368,280,26270,1,0
280,328,27207,6,0,B|352:248|288:152,1,180,0|8
232,64,27769,2,0,B|160:144|224:240,1,180
217,229,28331,1,8
304,152,28519,2,2,B|384:160|400:104|512:120,1,180
478,117,29081,2,2,B|501:161|474:216,1,90,10|0
304,312,29456,2,2,B|281:268|308:213,1,90,2|0
374,37,29831,2,2,B|396:80|369:135,1,90,10|2
256,144,30206,6,0,B|168:144|184:216|72:216,1,180,0|8
256,240,30768,2,0,B|344:240|328:168|440:168,1,180
416,169,31330,1,8
496,80,31518,2,2,B|552:168|480:272,1,180
384,288,32080,2,2,B|280:288,1,90,10|0
224,152,32455,2,0,B|344:152,1,90,2|0
176,240,32830,2,2,B|72:240,1,90,10|2
86,240,33205,6,0,B|32:144|112:56,1,180,4|8
176,160,33767,2,0,B|360:160,1,180
356,160,34330,1,8
413,71,34517,2,2,B|480:144|426:240,1,180
312,240,35080,2,2,B|336:288|312:336,1,90,10|0
200,144,35454,2,0,B|176:96|200:48,1,90,2|0
256,192,35829,1,10
256,192,36017,1,2
256,192,36204,5,0
240,304,36392,1,0
128,280,36579,1,8
144,168,36767,1,0
192,240,36954,5,0
176,352,37142,1,0
288,376,37329,1,8
304,264,37516,1,0
240,304,37704,6,0,B|320:320|336:256|432:280,1,180,4|0
414,276,38266,1,0
414,276,38454,2,0,B|448:232|432:192,1,90
440,168,38735,1,0
456,144,38829,1,0
456,120,38922,1,0
440,96,39016,1,0
416,88,39110,1,0
392,88,39204,6,0,B|336:88|336:144|264:144,1,135
272,143,39953,2,0,B|304:216|264:280,1,135
267,273,40703,2,0,B|224:296|176:264,1,90
112,168,41265,1,0
120,152,41359,1,0
128,136,41453,2,0,B|184:136,1,45
48,72,42015,1,0
48,72,42203,6,0,B|112:72|112:32|176:32,1,135
174,32,42953,2,0,B|160:80,1,45
344,120,43327,2,0,B|358:167,1,45
144,176,43702,2,0,B|129:223,1,45
376,264,44077,2,0,B|390:311,1,45
388,307,44358,1,0
388,307,44452,1,4
256,152,44827,1,4
256,152,45202,5,6
160,104,45389,1,0
64,152,45577,1,10
64,256,45764,1,0
160,312,45952,1,2
256,256,46139,1,0
160,208,46327,1,10
256,152,46514,1,2
256,152,46608,1,0
256,152,46702,5,0
352,104,46889,1,2
448,152,47077,1,8
448,256,47264,1,2
352,312,47451,1,2
256,256,47639,1,0
352,208,47826,1,10
352,208,48014,1,0
352,104,48201,6,0,B|448:80,1,90,4|0
256,152,48576,2,0,B|256:248,1,90,8|0
160,104,48951,2,0,B|64:80,1,90
256,56,49326,1,8
256,56,49513,1,0
256,56,49607,1,0
256,56,49701,6,0,B|224:88|240:144,1,90
256,328,50076,2,0,B|288:296|272:240,1,90,8|0
209,64,50451,2,0,B|190:105|224:152,1,90
315,214,50826,1,8
338,223,50919,1,0
360,232,51013,1,0
382,240,51107,1,8
405,249,51201,6,0,B|475:199|424:153|504:81,2,180,4|0|4
312,296,52138,1,0
312,296,52231,1,0
312,296,52325,1,8
256,200,52513,1,8
376,208,52700,6,0,B|416:168|392:112,1,90,4|0
272,72,53075,2,0,B|232:32|176:56,1,90,8|0
136,176,53450,2,0,B|96:216|120:272,1,90
256,200,53825,1,8
256,200,54012,1,0
136,272,54200,6,0,B|40:272,1,90
192,352,54575,2,0,B|256:288,1,90,8|0
256,288,54950,2,0,B|320:352,1,90
376,272,55324,2,0,B|472:272,1,90,8|0
256,104,55699,6,0,B|160:152|56:80,1,180,0|8
256,104,56262,2,0,B|352:56|456:128,1,180
428,110,56824,1,8
428,110,57012,1,0
320,152,57199,6,0,B|376:240|288:328,1,180,0|8
192,232,57761,2,0,B|136:144|224:56,1,180
212,67,58324,1,8
256,192,58511,1,0
299,67,58699,5,4
336,192,58886,2,0,B|320:240|336:280,1,90,0|8
256,192,59261,2,0,B|256:88,1,90
176,192,59636,2,0,B|192:240|176:280,1,90,0|8
56,272,60011,1,0
80,160,60198,6,0,B|80:104|48:80,2,90,0|0|8
160,72,60761,2,0,B|240:40|264:120|344:72,1,180
360,64,61229,1,0
384,48,61323,1,8
408,40,61417,1,0
432,40,61510,1,0
456,48,61604,1,0
480,64,61698,6,0,B|528:152|464:264,1,180,4|8
368,240,62260,1,0
256,240,62448,2,0,B|216:320,1,90
144,240,62823,1,8
32,240,63010,2,0,B|16:152,1,90
88,72,63385,6,0,B|128:48|184:64,1,90,0|8
432,96,63760,2,0,B|392:120|336:104,1,90
256,168,64135,1,0
208,256,64322,1,8
232,272,64416,1,0
256,288,64510,1,0
280,272,64603,1,0
304,256,64697,1,4
80,328,65072,6,0,B|56:272|88:232,1,90,8|0
160,184,65447,1,0
256,80,65634,2,0,B|280:136|248:176,1,90,0|8
352,184,66009,1,0
432,328,66197,6,0,B|456:272|424:232,1,90
272,216,66572,2,0,B|312:170|362:182,1,90,8|0
456,80,66947,2,0,B|472:136|424:176,1,90
436,163,67228,1,0
436,163,67321,1,8
352,272,67509,5,0
436,163,67696,2,0,B|400:248|464:352,1,180,0|8
347,189,68259,2,0,B|264:153|176:208,1,180
328,352,68821,2,0,B|312:296|360:264,1,90,8|0
350,270,69196,5,4
16,104,69571,1,4
280,32,69946,1,4
328,128,70133,1,0
232,176,70321,1,8
184,80,70508,1,0
256,104,70696,6,0,B|312:176|280:296,1,180,0|8
384,176,71258,1,0
448,320,71445,2,0,B|474:265|434:225,1,90
320,40,71820,2,0,B|293:94|333:134,1,90,8|0
328,216,72195,6,0,B|216:208|184:312,1,180,0|8
184,216,72758,2,0,B|296:208|328:312,1,180
184,216,73320,1,8
120,128,73507,1,0
16,104,73695,6,0,B|216:104,1,180,4|2
136,192,74257,2,2,B|264:184|336:248,1,180
309,227,74820,1,2
496,280,75007,1,0
496,280,75195,6,0,B|296:280,1,180,0|2
376,192,75757,2,2,B|248:200|176:136,1,180
202,156,76319,1,2
136,72,76507,1,0
232,32,76694,1,4
232,32,77444,1,4
232,32,78194,5,4
296,120,78381,1,2
184,120,78569,1,4
272,80,78756,5,2
336,168,78944,1,0
224,168,79131,1,0
128,192,79318,1,0
32,272,79693,5,4
56,272,79787,1,0
80,264,79881,1,0
104,248,79975,1,0
120,224,80068,1,8
128,200,80162,1,0
128,176,80256,1,0
128,152,80349,1,0
128,128,80443,6,0,B|128:64,3,45
168,128,80818,2,0,B|168:64,3,45,8|0|0|0
192,96,81193,5,0
216,96,81287,1,0
240,96,81380,1,0
264,96,81474,1,0
288,104,81568,1,8
312,120,81662,1,0
328,144,81755,1,0
336,168,81849,1,0
336,192,81943,6,0,B|296:224,3,45
336,208,82318,2,0,B|368:248,3,45,8|0|0|0
336,240,82693,5,0
336,264,82786,1,0
320,288,82880,1,0
296,304,82974,1,0
272,304,83068,1,8
248,304,83161,1,0
224,304,83255,1,0
200,304,83349,1,0
184,288,83442,1,0
176,264,83536,1,0
176,240,83630,1,0
176,216,83724,1,0
176,192,83817,2,0,B|176:128,3,45,8|0|0|0
216,192,84192,6,0,B|216:136,3,45
256,216,84567,2,0,B|256:272,3,45,8|0|0|0
296,192,84942,2,0,B|296:136,3,45
256,112,85317,5,8
256,8,85504,1,0
160,64,85692,5,0
136,80,85786,1,0
120,104,85879,1,0
120,136,85973,1,0
136,168,86067,1,8
160,184,86161,1,0
192,192,86254,1,0
224,176,86348,1,0
248,160,86442,6,0,B|256:136|288:136,3,45
312,136,86817,2,0,B|344:136|360:168,3,45,8|0|0|0
376,176,87192,5,0
392,200,87285,1,0
392,232,87379,1,0
376,264,87473,1,0
344,280,87566,1,8
312,280,87660,1,0
280,272,87754,1,0
256,248,87848,1,0
232,224,87941,1,0
200,216,88035,1,0
168,224,88129,1,0
144,240,88222,1,0
128,264,88316,1,8
128,296,88410,1,0
144,320,88504,1,0
168,336,88597,1,0
200,344,88691,6,0,B|264:352,3,45
280,328,89066,2,0,B|344:336,3,45,8|0|0|0
368,312,89441,2,0,B|432:320,3,45
448,296,89816,2,0,B|512:304,3,45,8|0|0|0
496,264,90191,5,0
480,232,90284,1,0
448,216,90378,1,0
408,216,90472,1,0
376,232,90566,1,8
352,256,90659,1,0
320,272,90753,1,0
280,272,90847,1,0
248,256,90941,1,0
232,224,91034,1,0
232,184,91128,1,0
248,152,91222,1,0
280,136,91315,1,8
312,136,91409,1,0
344,152,91503,1,0
368,184,91597,1,0
376,232,91690,5,4
256,360,91972,1,4
136,232,92253,1,4
136,232,92628,5,4
256,288,92815,1,4
376,232,93003,1,4
256,192,93190,1,4
