osu file format v9

[General]
AudioFilename: SenpuuAC.mp3
AudioLeadIn: 2000
PreviewTime: 27017
Countdown: 0
SampleSet: Soft
StackLeniency: 0.5
Mode: 0
LetterboxInBreaks: 1

[Editor]
DistanceSpacing: 0.9
BeatDivisor: 4
GridSize: 8

[Metadata]
Title:Senpuu no Mai (AC ver.)
Artist:Zeami feat. Ayane
Creator:lepidopodus
Version:Hard
Source:Taiko no Tatsujin
Tags:Tatsh Natteke

[Difficulty]
HPDrainRate:6
CircleSize:4
OverallDifficulty:6
ApproachRate:7
SliderMultiplier:1.6
SliderTickRate:1

[Events]
//Background and Video events
0,0,"senpuuACtaikOsu%20copy1.png"
//Break Periods
//Storyboard Layer 0 (Background)
//Storyboard Layer 1 (Fail)
//Storyboard Layer 2 (Pass)
//Storyboard Layer 3 (Foreground)
//Storyboard Sound Samples
//Background Colour Transformations
3,100,163,162,255

[TimingPoints]
215,374.906273431642,4,2,0,50,1,0
402,-100,4,2,0,100,0,0
3121,-100,4,2,0,50,0,0
3261,-100,4,2,0,100,0,0
6121,-100,4,2,0,50,0,0
6402,-100,4,2,0,100,0,0
9121,-100,4,2,0,50,0,0
9261,-100,4,2,0,100,0,0
10712,374.906273431642,6,2,0,50,1,0
10902,-100,6,2,0,60,0,0
11277,-100,6,2,0,70,0,0
12027,-100,6,2,0,80,0,0
12961,374.906273431642,4,2,0,100,1,0
27207,374.906273431642,4,2,0,100,1,0
52700,-100,4,2,0,100,0,1
79693,-100,4,2,0,100,0,0
93190,-100,4,2,0,100,0,1
93191,-100,4,2,0,100,0,0

[Colours]
Combo1 : 213,170,255
Combo2 : 128,0,255
Combo3 : 128,128,255
Combo4 : 64,0,128

[HitObjects]
256,72,215,1,4
256,72,1152,1,2
136,176,1527,1,0
216,176,1714,1,0
376,176,2089,1,0
176,312,2651,1,2
256,312,2839,1,2
112,248,3214,6,0,B|72:112|184:32,1,240,4|0
256,72,3964,1,0
256,312,4526,1,0
256,232,4713,1,0
256,72,5088,1,0
456,200,5651,1,2
403,259,5838,1,2
335,300,6026,1,2
256,312,6213,1,4
256,312,7150,5,2
136,208,7525,1,0
216,208,7713,1,0
376,208,8088,1,0
176,72,8650,1,2
256,72,8837,1,2
112,136,9212,6,0,B|112:224|192:272,1,160,4|0
256,312,9775,1,0
336,176,10150,1,0
176,176,10524,1,0
136,288,10712,5,4
376,288,11086,1,4
256,80,11461,1,4
256,192,12399,6,0,B|256:224,3,26.6666666666667,0|0|0|4
160,64,12961,6,0,B|80:104|72:208,1,160,0|2
136,240,13523,1,0
152,320,13710,2,0,B|232:352|328:296,1,160,0|2
384,304,14273,1,0
416,224,14460,2,0,B|480:160,1,80
392,160,14835,2,0,B|440:88,1,80,2|0
360,96,15210,2,0,B|392:16,1,80
312,40,15585,2,0,B|272:128,1,80,2|0
216,64,15960,6,0,B|184:144|88:192,1,160,0|2
64,248,16522,1,0
168,304,16710,1,0
256,224,16897,1,0
344,304,17084,1,2
448,248,17272,1,0
400,184,17459,6,0,B|336:160|392:80|296:48,1,160,0|2
256,104,18022,1,0
192,56,18209,1,0
192,56,18397,1,0
176,136,18584,1,4
328,320,18959,6,0,B|416:320,1,80
448,248,19334,2,0,B|368:248,1,80,2|0
288,248,19709,2,0,B|208:224|176:136,1,160,0|2
136,72,20271,1,0
256,48,20459,5,0
368,88,20646,1,0
432,192,20834,1,2
304,192,21021,2,0,B|264:192,2,40
368,296,21396,1,0
256,336,21583,1,2
256,336,21771,1,0
144,296,21958,6,0,B|192:216|136:144,1,160,0|2
72,192,22521,1,0
64,112,22708,2,0,B|43:74|63:34,2,80,0|0|2
136,72,23270,1,0
136,152,23458,2,0,B|136:312,1,160,0|2
208,344,24020,2,0,B|240:256|336:224,1,160
392,256,24583,1,2
448,200,24770,1,0
344,136,24958,5,4
256,296,25239,1,4
168,136,25520,1,4
376,256,25895,5,4
256,256,26082,1,4
136,256,26270,1,4
408,112,27207,6,0,B|440:200|392:288,1,160,4|8
344,216,27769,2,0,B|320:304|240:344,1,160
208,272,28331,1,8
128,256,28519,2,0,B|144:160|240:112,1,160
264,64,29081,1,8
192,32,29268,1,0
136,88,29456,2,0,B|56:112,1,80
120,168,29831,2,0,B|48:216,1,80,8|0
120,256,30206,6,0,B|256:160,1,160,0|8
272,240,30768,2,0,B|408:144,1,160,0|0
464,200,31330,1,8
440,280,31518,2,0,B|432:320|392:344,1,80
360,272,31893,2,0,B|320:296|304:344,1,80,0|8
240,296,32268,1,0
168,328,32455,2,0,B|88:328,3,80,0|0|8|0
64,248,33205,6,0,B|144:216|184:136,1,160,0|8
232,208,33767,2,0,B|272:120|376:96,1,160
392,168,34330,1,8
472,184,34517,1,0
456,264,34705,2,0,B|456:344,1,80
387,302,35080,2,0,B|387:358|355:382,1,80,8|0
311,314,35454,2,0,B|223:306|175:226,1,160,0|8
56,128,36204,6,0,B|96:48|200:32,1,160,0|8
256,64,36767,1,0
256,304,37329,1,0
256,304,37516,1,0
256,304,37704,1,4
200,56,38454,5,4
312,80,38641,1,4
200,104,38829,1,4
312,128,39016,1,4
200,152,39204,6,0,B|176:280|40:336,1,240
8,264,39953,1,0
64,112,40328,1,8
208,48,40703,2,0,B|272:104|376:96,1,160
384,176,41265,1,0
464,192,41453,1,8
448,272,41640,2,0,B|408:344|312:368,1,160
256,320,42203,1,0
432,56,42953,5,8
432,56,43327,1,0
280,16,43702,2,0,B|232:80|128:96,1,160,0|8
112,168,44265,2,0,B|360:168,1,240,0|0
304,320,45202,6,0,B|384:320,1,80,0|0
432,256,45577,2,0,B|344:256,1,80,8|0
304,192,45952,2,0,B|384:192,1,80
432,128,46327,2,0,B|352:128,1,80,8|0
304,64,46702,2,0,B|240:136|144:152,1,160,0|8
144,72,47264,1,0
88,129,47451,2,0,B|88:217|8:280,1,160,0|8
168,328,48201,6,0,B|176:280|240:248,1,80
256,328,48576,2,0,B|296:304|304:240,1,80,8|0
272,192,48951,1,0
344,160,49139,1,0
312,88,49326,1,8
256,192,49701,8,4,51201
256,192,51950,5,4
448,144,52700,6,0,B|416:48|320:32,1,160,4|8
288,97,53262,1,0
222,50,53450,2,0,B|198:90|142:106,1,80
127,26,53825,2,0,B|79:42|55:98,1,80,8|0
98,149,54200,2,0,B|138:229|234:253,1,160,0|8
242,324,54762,1,0
319,304,54950,2,0,B|479:304,1,160,0|8
408,160,55699,6,0,B|312:176|248:80,1,160,0|8
196,64,56262,2,0,B|164:32|116:40,2,80
200,144,56824,1,8
127,178,57012,1,0
104,256,57199,2,0,B|256:352|408:256,1,320
256,72,58324,1,4
256,312,58699,5,4
200,256,58886,1,0
240,184,59074,2,0,B|312:232|400:184,1,160,8|0
432,120,59636,1,0
376,64,59823,2,0,B|296:24|216:64,1,160,8|0
144,88,60386,1,0
80,136,60573,1,8
128,200,60761,1,0
64,248,60948,1,0
288,328,61323,1,4
456,152,61698,5,4
424,80,61885,1,0
344,104,62073,2,0,B|264:152|192:104,1,160,8|0
144,168,62635,2,0,B|216:224|200:320,2,160
128,88,63572,1,8
208,112,63760,2,0,B|400:112,1,160
368,112,64322,1,8
184,264,64697,5,4
256,304,64885,1,0
328,264,65072,2,0,B|368:184|464:144,1,160,8|0
424,80,65634,2,0,B|248:80,1,160
192,48,66197,2,0,B|112:72,1,80
160,136,66572,1,8
112,200,66759,2,0,B|192:224|232:328,1,160
288,352,67321,1,8
360,312,67509,1,0
336,232,67696,6,0,B|424:184|440:72,1,160,0|8
376,48,68259,2,0,B|304:104|224:48,1,160
152,80,68821,1,8
256,296,69196,5,4
336,64,69571,1,4
128,208,69946,1,4
384,208,70321,1,4
176,64,70696,1,4
96,96,70883,5,0
136,168,71071,1,8
72,216,71258,1,0
120,280,71445,2,0,B|192:240|280:280,1,160,0|8
352,256,72008,1,0
352,176,72195,2,0,B|414:116|407:28,1,160,0|8
332,65,72758,2,0,B|399:126|503:116,1,160
472,200,73320,1,8
256,104,73695,5,4
136,312,74070,1,8
136,312,74257,1,0
376,312,74632,1,0
376,312,74820,1,8
256,104,75195,5,4
376,312,75569,1,8
376,312,75757,1,0
136,312,76132,1,0
136,312,76319,1,8
256,192,76694,8,4,79318
416,80,79693,6,0,B|240:80,1,160,0|2
184,56,80256,1,0
197,135,80443,2,0,B|280:160|320:256,1,160,0|2
256,296,81006,1,0
136,328,81193,2,0,B|144:288|192:256,1,80
63,229,81568,2,0,B|87:197|63:149,1,80,2|0
136,56,81943,2,0,B|144:96|192:128,1,80
256,88,82318,1,2
328,120,82505,1,0
382,61,82693,6,0,B|454:109|470:213,1,160,0|2
466,192,83255,1,0
352,232,83442,1,0
256,304,83630,1,0
160,232,83817,1,2
48,192,84005,1,0
96,128,84192,6,0,B|192:128|240:56,1,160,0|2
304,112,84755,1,0
352,48,84942,1,0
352,48,85130,1,0
424,88,85317,1,4
184,128,85692,6,0,B|168:88|128:72,1,80
104,152,86067,2,0,B|128:192|168:208,1,80,2|0
240,184,86442,2,0,B|264:264|352:304,1,160,0|2
416,264,87004,1,0
456,152,87192,5,0
384,56,87379,1,0
360,176,87566,1,2
288,80,87754,2,0,B|256:32,2,40
264,200,88129,1,0
192,104,88316,2,0,B|168:72|120:72,1,80,2|0
72,184,88691,6,0,B|96:280|200:288,1,160,0|2
216,358,89253,1,0
290,328,89441,2,0,B|335:332|370:288,3,80,0|0|2|0
360,217,90191,1,0
440,208,90378,2,0,B|480:184|480:128,1,80,0|2
448,72,90753,1,0
368,48,90941,2,0,B|256:128|144:48,1,240
112,168,91690,5,4
256,280,91972,1,4
400,168,92253,1,4
168,112,92628,5,4
256,32,92815,1,4
344,112,93003,1,4
256,192,93190,1,4
