osu file format v9

[General]
AudioFilename: SenpuuAC.mp3
AudioLeadIn: 2000
PreviewTime: 27017
Countdown: 0
SampleSet: Soft
StackLeniency: 0.5
Mode: 0
LetterboxInBreaks: 1

[Editor]
DistanceSpacing: 0.8
BeatDivisor: 4
GridSize: 8

[Metadata]
Title:Senpuu no Mai (AC ver.)
Artist:Zeami feat. Ayane
Creator:lepidopodus
Version:Easy
Source:Taiko no Tatsujin
Tags:Tatsh Natteke

[Difficulty]
HPDrainRate:2
CircleSize:3
OverallDifficulty:2
ApproachRate:3
SliderMultiplier:0.8
SliderTickRate:1

[Events]
//Background and Video events
0,0,"senpuuACtaikOsu%20copy1.png"
//Break Periods
//Storyboard Layer 0 (Background)
//Storyboard Layer 1 (Fail)
//Storyboard Layer 2 (Pass)
//Storyboard Layer 3 (Foreground)
//Storyboard Sound Samples
//Background Colour Transformations
3,100,163,162,255

[TimingPoints]
215,374.906273431642,4,2,0,50,1,0
590,-100,4,2,0,100,0,0
3121,-100,4,2,0,50,0,0
3308,-100,4,2,0,100,0,0
6027,-100,4,2,0,50,0,0
6402,-100,4,2,0,100,0,0
9121,-100,4,2,0,50,0,0
9308,-100,4,2,0,100,0,0
10712,374.906273431642,6,2,0,50,1,0
10902,-100,6,2,0,60,0,0
11277,-100,6,2,0,70,0,0
11840,-100,6,2,0,80,0,0
12961,374.906273431642,4,2,0,100,1,0
27207,374.906273431642,4,2,0,100,1,0
52700,-100,4,2,0,100,0,1
79693,-100,4,2,0,100,0,0
93190,-100,4,2,0,100,0,1
93191,-100,4,2,0,100,0,0

[Colours]
Combo1 : 213,170,255
Combo2 : 128,0,255
Combo3 : 128,128,255
Combo4 : 64,0,128

[HitObjects]
256,64,215,1,4
256,320,1714,1,0
256,256,2089,1,0
256,320,3214,5,4
256,64,4713,1,0
256,128,5088,1,0
440,192,6213,5,4
184,192,7713,1,0
120,192,8088,1,0
120,192,9212,5,4
368,208,10712,1,4
312,232,11086,1,4
256,256,11461,1,4
256,64,12586,5,4
192,72,12961,6,0,B|112:104|80:192,1,160,0|2
136,288,14460,2,0,B|224:288,2,80,0|0|2
224,200,15960,6,0,B|320:192|368:112,1,160,0|2
360,256,17459,2,0,B|432:200|440:112,1,160,0|2
399,71,18584,1,4
336,64,18959,6,0,B|248:80|200:160,1,160,0|2
200,280,20459,1,0
256,312,20834,1,0
320,312,21208,1,2
424,240,21958,6,0,B|424:72,1,160,0|2
312,24,23458,2,0,B|312:120|216:152,1,160,0|2
136,232,24958,6,4,B|272:232,1,120
320,232,25895,2,4,B|416:232,1,80
376,72,27207,5,4
256,40,27956,1,8
176,144,28706,2,0,B|176:240|96:280,1,160,0|8
216,344,30206,5,0
328,288,30956,1,8
232,200,31705,2,0,B|264:120|352:104,1,160,0|8
448,192,33205,5,0
384,304,33955,1,8
328,192,34705,2,0,B|256:232|168:192,1,160,0|8
88,96,36204,2,0,B|168:56|248:96,1,160,0|8
368,96,37704,1,4
128,192,39204,5,4
72,312,39953,1,8
200,296,40703,2,0,B|280:328|360:296,1,160,0|8
432,192,42203,5,0
368,80,42953,1,8
248,48,43702,2,0,B|152:48,3,80,0|0|8|0
144,112,45202,2,0,B|88:192|136:280,2,160,0|8|0
256,176,47451,5,8
368,112,48201,1,0
432,224,48951,1,8
320,288,49701,2,0,B|128:272|88:96,1,320,0|4
200,40,51950,1,4
328,72,52700,6,0,B|328:328,1,240,4|8
264,312,54200,2,0,B|168:304|120:224,1,160,0|0
88,184,55324,1,8
88,120,55699,6,0,B|264:120,1,160,0|0
312,120,56824,1,8
360,72,57199,2,0,B|456:160|432:304,1,240,0|4
376,320,58699,5,4
288,232,59448,1,8
184,304,60198,2,0,B|80:224|88:88,1,240,0|4
152,80,61698,5,4
256,160,62448,1,8
360,80,63198,2,0,B|424:144|392:232,1,160,0|8
288,312,64697,6,0,B|128:312,1,160,4|0
80,264,65822,1,8
96,200,66197,2,0,B|168:160|192:72,1,160,0|0
248,40,67321,1,8
312,48,67696,6,0,B|232:152|288:280,1,240,0|8
336,312,69196,2,4,B|424:312,4,80
232,240,71445,5,8
128,320,72195,2,0,B|80:240|120:160,1,160,0|8
168,48,73695,5,4
344,128,74820,1,8
344,192,75195,1,4
168,272,76319,1,8
256,192,76694,8,4,78194
264,288,79693,6,0,B|200:288|160:248|160:192,1,160,0|2
248,96,81193,2,0,B|312:96|352:136|352:192,1,160,0|2
304,312,82693,5,0
368,312,83068,1,0
432,312,83442,1,2
464,192,84192,2,0,B|336:184|264:72,1,240,0|4
200,56,85692,6,0,B|128:104|40:80,1,160,0|2
48,208,87192,2,0,B|64:296|152:336,1,160,0|2
256,272,88691,5,0
320,272,89066,1,0
384,272,89441,1,2
384,144,90191,1,0
320,144,90566,1,0
256,144,90941,1,2
144,80,91690,6,4,B|144:208,1,120
200,232,92628,2,4,B|256:272|312:232,1,120,4|4
