osu file format v13

[General]
AudioFilename: Red Rose Evangel.mp3
AudioLeadIn: 0
PreviewTime: 48166
Countdown: 0
SampleSet: Normal
StackLeniency: 0.7
Mode: 1
LetterboxInBreaks: 0
WidescreenStoryboard: 0

[Editor]
DistanceSpacing: 2
BeatDivisor: 4
GridSize: 8
TimelineZoom: 1.3

[Metadata]
Title:Red Rose Evangel
TitleUnicode:Red Rose Evangel
Artist:Zeami feat. Ayane
ArtistUnicode:世阿弥 feat. 彩音
Creator:TaMul
Version:Oni
Source:太鼓の達人
Tags:
BeatmapID:457094
BeatmapSetID:192150

[Difficulty]
HPDrainRate:5
CircleSize:5
OverallDifficulty:5
ApproachRate:5
SliderMultiplier:1.4
SliderTickRate:1

[Events]
//Background and Video events
0,0,"308962-1366x768.jpg",0,60
//Break Periods
//Storyboard Layer 0 (Background)
//Storyboard Layer 1 (Fail)
//Storyboard Layer 2 (Pass)
//Storyboard Layer 3 (Foreground)
//Storyboard Sound Samples
//Background Colour Transformations
3,100,163,162,255

[TimingPoints]
638,337.078651685393,4,1,0,100,1,0
3334,-100,4,1,0,100,0,1
14121,-100,4,1,0,100,0,0
49177,-100,4,1,0,100,0,1
77491,-100,4,1,0,100,0,0
81536,-100,4,1,0,100,0,1
111199,-100,4,1,0,100,0,0

[HitObjects]
256,192,638,12,0,1649,0:0:0:0:
168,56,1986,5,0,0:0:0:0:
168,56,2323,1,8,0:0:0:0:
168,56,2491,1,8,0:0:0:0:
168,56,2660,1,8,0:0:0:0:
168,56,2744,1,8,0:0:0:0:
168,56,2829,1,0,0:0:0:0:
168,56,2913,1,0,0:0:0:0:
168,56,2997,1,8,0:0:0:0:
168,56,3081,1,8,0:0:0:0:
168,56,3166,1,0,0:0:0:0:
168,56,3250,1,0,0:0:0:0:
168,56,3334,1,0,0:0:0:0:
168,56,3503,1,0,0:0:0:0:
168,56,3587,1,0,0:0:0:0:
168,56,3671,1,8,0:0:0:0:
168,56,3840,1,0,0:0:0:0:
168,56,3924,1,0,0:0:0:0:
168,56,4008,1,0,0:0:0:0:
168,56,4177,1,0,0:0:0:0:
168,56,4345,1,8,0:0:0:0:
168,56,4514,1,0,0:0:0:0:
168,56,4682,1,0,0:0:0:0:
168,56,4851,1,0,0:0:0:0:
168,56,4935,1,0,0:0:0:0:
168,56,5020,1,8,0:0:0:0:
168,56,5188,1,0,0:0:0:0:
168,56,5272,1,0,0:0:0:0:
168,56,5357,1,0,0:0:0:0:
168,56,5441,1,0,0:0:0:0:
168,56,5525,1,0,0:0:0:0:
168,56,5694,1,8,0:0:0:0:
168,56,5862,1,0,0:0:0:0:
168,56,6031,1,0,0:0:0:0:
168,56,6199,1,0,0:0:0:0:
168,56,6284,1,0,0:0:0:0:
168,56,6368,1,8,0:0:0:0:
168,56,6536,1,0,0:0:0:0:
168,56,6621,1,0,0:0:0:0:
168,56,6705,1,0,0:0:0:0:
168,56,6873,1,0,0:0:0:0:
168,56,7042,1,8,0:0:0:0:
168,56,7211,1,0,0:0:0:0:
168,56,7379,1,8,0:0:0:0:
168,56,7548,1,0,0:0:0:0:
168,56,7632,1,0,0:0:0:0:
168,56,7716,1,0,0:0:0:0:
168,56,7885,1,8,0:0:0:0:
168,56,8053,1,0,0:0:0:0:
168,56,8137,1,0,0:0:0:0:
168,56,8222,1,0,0:0:0:0:
168,56,8390,1,8,0:0:0:0:
168,56,8475,1,8,0:0:0:0:
168,56,8559,1,0,0:0:0:0:
168,56,8643,1,0,0:0:0:0:
168,56,8727,1,0,0:0:0:0:
168,56,8896,1,0,0:0:0:0:
168,56,8980,1,0,0:0:0:0:
168,56,9064,1,8,0:0:0:0:
168,56,9233,1,0,0:0:0:0:
168,56,9317,1,0,0:0:0:0:
168,56,9402,1,0,0:0:0:0:
168,56,9570,1,0,0:0:0:0:
168,56,9739,1,8,0:0:0:0:
168,56,9907,1,0,0:0:0:0:
168,56,10076,1,0,0:0:0:0:
168,56,10244,1,0,0:0:0:0:
168,56,10329,1,0,0:0:0:0:
168,56,10413,1,8,0:0:0:0:
168,56,10581,1,0,0:0:0:0:
168,56,10666,1,0,0:0:0:0:
168,56,10750,1,0,0:0:0:0:
168,56,10834,1,0,0:0:0:0:
168,56,10918,1,0,0:0:0:0:
168,56,11087,1,8,0:0:0:0:
168,56,11255,1,0,0:0:0:0:
168,56,11424,1,0,0:0:0:0:
168,56,11593,1,0,0:0:0:0:
168,56,11677,1,0,0:0:0:0:
168,56,11761,1,8,0:0:0:0:
168,56,11930,1,0,0:0:0:0:
168,56,12014,1,0,0:0:0:0:
168,56,12098,1,0,0:0:0:0:
168,56,12267,1,0,0:0:0:0:
168,56,12435,1,8,0:0:0:0:
168,56,12604,1,0,0:0:0:0:
168,56,12772,1,8,0:0:0:0:
168,56,12941,1,0,0:0:0:0:
168,56,13025,1,0,0:0:0:0:
168,56,13109,1,0,0:0:0:0:
168,56,13278,1,8,0:0:0:0:
168,56,13446,1,0,0:0:0:0:
168,56,13531,1,0,0:0:0:0:
168,56,13615,1,0,0:0:0:0:
168,56,13784,1,8,0:0:0:0:
168,56,13868,1,8,0:0:0:0:
168,56,13952,1,0,0:0:0:0:
168,56,14036,1,0,0:0:0:0:
168,56,14121,1,0,0:0:0:0:
168,56,16312,1,0,0:0:0:0:
168,56,16480,1,8,0:0:0:0:
168,56,16817,1,0,0:0:0:0:
168,56,16986,1,0,0:0:0:0:
168,56,17154,1,8,0:0:0:0:
168,56,17323,1,0,0:0:0:0:
168,56,17407,1,0,0:0:0:0:
168,56,17491,1,0,0:0:0:0:
168,56,17660,1,0,0:0:0:0:
168,56,17829,1,8,0:0:0:0:
168,56,17997,1,0,0:0:0:0:
168,56,18166,1,0,0:0:0:0:
168,56,18334,1,0,0:0:0:0:
168,56,18503,1,8,0:0:0:0:
168,56,18672,1,0,0:0:0:0:
168,56,18756,1,0,0:0:0:0:
168,56,18840,1,0,0:0:0:0:
168,56,19009,1,8,0:0:0:0:
168,56,19177,1,8,0:0:0:0:
168,56,19346,1,0,0:0:0:0:
168,56,19514,1,0,0:0:0:0:
168,56,19682,1,0,0:0:0:0:
168,56,19851,1,8,0:0:0:0:
168,56,20020,1,0,0:0:0:0:
168,56,20104,1,0,0:0:0:0:
168,56,20188,1,0,0:0:0:0:
168,56,20357,1,0,0:0:0:0:
168,56,20525,1,8,0:0:0:0:
168,56,20694,1,0,0:0:0:0:
168,56,20862,1,0,0:0:0:0:
168,56,21031,1,0,0:0:0:0:
168,56,21199,1,8,0:0:0:0:
168,56,21368,1,0,0:0:0:0:
168,56,21452,1,0,0:0:0:0:
168,56,21536,1,0,0:0:0:0:
168,56,21705,1,8,0:0:0:0:
168,56,21873,1,8,0:0:0:0:
168,56,22042,1,0,0:0:0:0:
168,56,22211,1,0,0:0:0:0:
168,56,22379,1,0,0:0:0:0:
168,56,22548,1,8,0:0:0:0:
168,56,22716,1,0,0:0:0:0:
168,56,22800,1,0,0:0:0:0:
168,56,22885,1,0,0:0:0:0:
168,56,23053,1,0,0:0:0:0:
168,56,23222,1,8,0:0:0:0:
168,56,23390,1,0,0:0:0:0:
168,56,23559,1,0,0:0:0:0:
168,56,23896,1,8,0:0:0:0:
168,56,24064,1,0,0:0:0:0:
168,56,24149,1,0,0:0:0:0:
168,56,24233,1,0,0:0:0:0:
168,56,24402,1,8,0:0:0:0:
168,56,24486,1,8,0:0:0:0:
168,56,24570,1,0,0:0:0:0:
168,56,24654,1,0,0:0:0:0:
168,56,24739,1,0,0:0:0:0:
168,56,24907,1,0,0:0:0:0:
168,56,25076,1,0,0:0:0:0:
168,56,25244,1,8,0:0:0:0:
168,56,25413,1,0,0:0:0:0:
168,56,25581,1,8,0:0:0:0:
168,56,25666,1,8,0:0:0:0:
168,56,25750,1,0,0:0:0:0:
168,56,25918,1,8,0:0:0:0:
168,56,26087,1,0,0:0:0:0:
168,56,26424,1,8,0:0:0:0:
168,56,26593,1,0,0:0:0:0:
168,56,26677,1,0,0:0:0:0:
168,56,26761,1,0,0:0:0:0:
168,56,26930,1,8,0:0:0:0:
168,56,27098,1,0,0:0:0:0:
168,56,27182,1,0,0:0:0:0:
168,56,27267,1,0,0:0:0:0:
168,56,27604,1,0,0:0:0:0:
168,56,27772,1,0,0:0:0:0:
168,56,27941,1,8,0:0:0:0:
168,56,28194,1,8,0:0:0:0:
168,56,28278,1,0,0:0:0:0:
168,56,28446,1,8,0:0:0:0:
168,56,28615,1,0,0:0:0:0:
168,56,28699,1,0,0:0:0:0:
168,56,28784,1,0,0:0:0:0:
168,56,28952,1,0,0:0:0:0:
168,56,29121,1,0,0:0:0:0:
168,56,29289,1,8,0:0:0:0:
168,56,29542,1,8,0:0:0:0:
168,56,29626,1,0,0:0:0:0:
168,56,29795,1,8,0:0:0:0:
168,56,29879,1,8,0:0:0:0:
168,56,29963,1,0,0:0:0:0:
168,56,30048,1,0,0:0:0:0:
168,56,30132,1,0,0:0:0:0:
168,56,30300,1,0,0:0:0:0:
168,56,30469,1,0,0:0:0:0:
168,56,30637,1,8,0:0:0:0:
168,56,30806,1,0,0:0:0:0:
168,56,30975,1,8,0:0:0:0:
168,56,31059,1,8,0:0:0:0:
168,56,31143,1,0,0:0:0:0:
168,56,31312,1,8,0:0:0:0:
168,56,31480,1,0,0:0:0:0:
168,56,31817,1,8,0:0:0:0:
168,56,31986,1,0,0:0:0:0:
168,56,32070,1,0,0:0:0:0:
168,56,32154,1,0,0:0:0:0:
168,56,32323,1,8,0:0:0:0:
168,56,32491,1,0,0:0:0:0:
168,56,32576,1,0,0:0:0:0:
168,56,32660,1,0,0:0:0:0:
168,56,32997,1,4,0:0:0:0:
168,56,33503,1,4,0:0:0:0:
136,128,34008,2,4,P|176:208|152:72,1,560
176,72,35694,1,0,0:0:0:0:
176,72,35862,1,0,0:0:0:0:
176,72,36031,1,8,0:0:0:0:
176,72,36199,1,8,0:0:0:0:
176,72,36368,1,0,0:0:0:0:
176,72,36536,1,8,0:0:0:0:
176,72,36705,1,8,0:0:0:0:
176,72,36873,1,0,0:0:0:0:
176,72,37042,1,0,0:0:0:0:
176,72,37211,1,0,0:0:0:0:
176,72,37379,1,8,0:0:0:0:
176,72,37548,1,8,0:0:0:0:
176,72,37716,1,0,0:0:0:0:
176,72,37885,1,8,0:0:0:0:
176,72,38053,1,8,0:0:0:0:
176,72,38222,1,0,0:0:0:0:
176,72,38390,1,0,0:0:0:0:
176,72,38475,1,0,0:0:0:0:
176,72,38559,1,0,0:0:0:0:
176,72,38727,1,8,0:0:0:0:
176,72,38896,1,0,0:0:0:0:
176,72,39064,1,8,0:0:0:0:
176,72,39233,1,0,0:0:0:0:
176,72,39402,1,8,0:0:0:0:
176,72,39486,1,8,0:0:0:0:
176,72,39570,1,0,0:0:0:0:
176,72,39739,1,0,0:0:0:0:
176,72,39823,1,0,0:0:0:0:
176,72,39907,1,0,0:0:0:0:
176,72,40076,1,8,0:0:0:0:
176,72,40244,1,0,0:0:0:0:
176,72,40413,1,8,0:0:0:0:
176,72,40581,1,0,0:0:0:0:
176,72,40750,1,8,0:0:0:0:
176,72,40834,1,8,0:0:0:0:
176,72,40918,1,0,0:0:0:0:
176,72,41087,2,0,P|248:56|424:144,1,280
176,72,42267,1,4,0:0:0:0:
176,72,42435,1,12,0:0:0:0:
176,72,42604,1,4,0:0:0:0:
176,72,42941,1,12,0:0:0:0:
176,72,43278,1,12,0:0:0:0:
176,72,43615,2,12,P|248:64|432:128,2,245,12|12|12,0:0|0:0|0:0,0:0:0:0:
168,64,45132,1,12,0:0:0:0:
168,64,45637,1,12,0:0:0:0:
168,64,46143,1,12,0:0:0:0:
168,64,46480,1,4,0:0:0:0:
168,64,46986,1,4,0:0:0:0:
168,64,47491,1,4,0:0:0:0:
168,64,47829,1,4,0:0:0:0:
160,112,49177,1,0,0:0:0:0:
160,112,49345,1,0,0:0:0:0:
160,112,49430,1,0,0:0:0:0:
160,112,49514,1,8,0:0:0:0:
160,112,49682,1,0,0:0:0:0:
160,112,49851,1,8,0:0:0:0:
160,112,50020,1,0,0:0:0:0:
160,112,50104,1,0,0:0:0:0:
160,112,50188,1,8,0:0:0:0:
160,112,50357,1,0,0:0:0:0:
160,112,50525,1,0,0:0:0:0:
160,112,50694,1,0,0:0:0:0:
160,112,50778,1,0,0:0:0:0:
160,112,50862,1,8,0:0:0:0:
160,112,51031,1,0,0:0:0:0:
160,112,51199,1,8,0:0:0:0:
160,112,51368,1,0,0:0:0:0:
160,112,51452,1,0,0:0:0:0:
160,112,51536,1,8,0:0:0:0:
160,112,51705,1,0,0:0:0:0:
160,112,51873,1,0,0:0:0:0:
160,112,52042,1,0,0:0:0:0:
160,112,52126,1,0,0:0:0:0:
160,112,52211,1,8,0:0:0:0:
160,112,52379,1,0,0:0:0:0:
160,112,52548,1,8,0:0:0:0:
160,112,52716,1,0,0:0:0:0:
160,112,52800,1,0,0:0:0:0:
160,112,52885,1,8,0:0:0:0:
160,112,53053,1,0,0:0:0:0:
160,112,53222,1,0,0:0:0:0:
160,112,53390,1,0,0:0:0:0:
160,112,53475,1,0,0:0:0:0:
160,112,53559,1,8,0:0:0:0:
160,112,53643,1,0,0:0:0:0:
160,112,53727,1,0,0:0:0:0:
160,112,53896,1,8,0:0:0:0:
160,112,54064,1,0,0:0:0:0:
160,112,54149,1,0,0:0:0:0:
160,112,54233,1,8,0:0:0:0:
160,112,54317,1,0,0:0:0:0:
160,112,54402,1,0,0:0:0:0:
160,112,54570,1,0,0:0:0:0:
160,112,54654,1,0,0:0:0:0:
160,112,54739,1,0,0:0:0:0:
160,112,54907,1,8,0:0:0:0:
160,112,55076,1,0,0:0:0:0:
160,112,55244,1,8,0:0:0:0:
160,112,55329,1,8,0:0:0:0:
160,112,55413,1,0,0:0:0:0:
160,112,55581,1,8,0:0:0:0:
160,112,55750,1,0,0:0:0:0:
160,112,56087,1,0,0:0:0:0:
160,112,56255,1,8,0:0:0:0:
160,112,56424,1,0,0:0:0:0:
160,112,56508,1,0,0:0:0:0:
160,112,56593,1,8,0:0:0:0:
160,112,56761,1,0,0:0:0:0:
160,112,56845,1,8,0:0:0:0:
160,112,56930,1,0,0:0:0:0:
160,112,57098,1,8,0:0:0:0:
160,112,57267,1,0,0:0:0:0:
160,112,57351,1,0,0:0:0:0:
160,112,57435,1,0,0:0:0:0:
160,112,57604,1,8,0:0:0:0:
160,112,57772,1,0,0:0:0:0:
160,112,57941,1,8,0:0:0:0:
160,112,58025,1,8,0:0:0:0:
160,112,58109,1,0,0:0:0:0:
160,112,58278,1,8,0:0:0:0:
160,112,58446,1,0,0:0:0:0:
160,112,58784,1,0,0:0:0:0:
160,112,58952,1,8,0:0:0:0:
160,112,59121,1,0,0:0:0:0:
160,112,59205,1,0,0:0:0:0:
160,112,59289,1,8,0:0:0:0:
160,112,59458,1,0,0:0:0:0:
160,112,59542,1,8,0:0:0:0:
160,112,59626,1,0,0:0:0:0:
160,112,59795,1,8,0:0:0:0:
160,112,59963,1,0,0:0:0:0:
160,112,60132,1,0,0:0:0:0:
160,112,60300,1,8,0:0:0:0:
160,112,60469,1,0,0:0:0:0:
160,112,60553,1,0,0:0:0:0:
160,112,60637,1,0,0:0:0:0:
160,112,60806,1,0,0:0:0:0:
160,112,60975,1,8,0:0:0:0:
160,112,61143,1,0,0:0:0:0:
160,112,61227,1,8,0:0:0:0:
160,112,61312,1,0,0:0:0:0:
160,112,61480,1,0,0:0:0:0:
160,112,61649,1,8,0:0:0:0:
160,112,61817,1,0,0:0:0:0:
160,112,61902,1,0,0:0:0:0:
160,112,61986,1,0,0:0:0:0:
160,112,62154,1,8,0:0:0:0:
160,112,62323,1,0,0:0:0:0:
160,112,62407,1,0,0:0:0:0:
160,112,62491,1,8,0:0:0:0:
160,112,62660,1,0,0:0:0:0:
160,112,62829,1,0,0:0:0:0:
160,112,62997,1,8,0:0:0:0:
160,112,63166,1,0,0:0:0:0:
160,112,63250,1,0,0:0:0:0:
160,112,63334,1,0,0:0:0:0:
160,112,63503,1,0,0:0:0:0:
160,112,63671,1,8,0:0:0:0:
160,112,63840,1,0,0:0:0:0:
160,112,63924,1,8,0:0:0:0:
160,112,64008,1,0,0:0:0:0:
160,112,64177,1,0,0:0:0:0:
160,104,64345,1,8,0:0:0:0:
160,104,64514,1,0,0:0:0:0:
160,104,64598,1,0,0:0:0:0:
160,104,64682,1,0,0:0:0:0:
160,104,64851,1,8,0:0:0:0:
160,112,65020,1,0,0:0:0:0:
160,112,65104,1,0,0:0:0:0:
160,112,65188,1,8,0:0:0:0:
160,112,65357,1,0,0:0:0:0:
160,112,65525,1,0,0:0:0:0:
160,112,65694,1,8,0:0:0:0:
160,104,65862,1,0,0:0:0:0:
160,104,66031,1,8,0:0:0:0:
160,104,66115,1,0,0:0:0:0:
160,104,66199,1,0,0:0:0:0:
160,104,66368,1,8,0:0:0:0:
160,104,66536,1,0,0:0:0:0:
160,104,66621,1,8,0:0:0:0:
160,104,66705,1,0,0:0:0:0:
160,104,66873,1,0,0:0:0:0:
160,104,67042,1,8,0:0:0:0:
160,104,67211,1,0,0:0:0:0:
160,104,67379,1,8,0:0:0:0:
160,104,67463,1,0,0:0:0:0:
160,104,67548,1,0,0:0:0:0:
160,104,67716,1,8,0:0:0:0:
160,104,67885,1,0,0:0:0:0:
160,104,67969,1,8,0:0:0:0:
160,104,68053,1,0,0:0:0:0:
160,104,68222,1,8,0:0:0:0:
160,104,68306,1,8,0:0:0:0:
160,104,68390,1,0,0:0:0:0:
160,104,68559,1,0,0:0:0:0:
160,104,68727,1,8,0:0:0:0:
160,104,68812,1,8,0:0:0:0:
160,104,68896,1,0,0:0:0:0:
160,104,69064,1,8,0:0:0:0:
160,104,69149,1,8,0:0:0:0:
160,104,69233,1,0,0:0:0:0:
160,104,69317,1,0,0:0:0:0:
256,192,69402,12,0,70413,0:0:0:0:
160,104,70750,5,0,0:0:0:0:
160,112,70834,1,0,0:0:0:0:
160,112,70918,1,0,0:0:0:0:
160,112,71087,1,8,0:0:0:0:
160,112,71255,1,0,0:0:0:0:
160,112,71340,1,0,0:0:0:0:
160,112,71424,1,0,0:0:0:0:
160,112,71593,1,8,0:0:0:0:
160,112,71761,1,8,0:0:0:0:
160,112,71930,1,0,0:0:0:0:
160,112,72098,1,0,0:0:0:0:
160,112,72182,1,0,0:0:0:0:
160,112,72267,1,0,0:0:0:0:
160,112,72435,1,8,0:0:0:0:
160,112,72604,1,0,0:0:0:0:
160,112,72688,1,0,0:0:0:0:
160,112,72772,1,8,0:0:0:0:
160,112,72941,1,0,0:0:0:0:
160,112,73109,1,8,0:0:0:0:
160,112,73278,1,0,0:0:0:0:
160,112,73446,1,0,0:0:0:0:
160,112,73531,1,0,0:0:0:0:
160,112,73615,1,0,0:0:0:0:
160,112,73784,1,8,0:0:0:0:
160,112,73952,1,0,0:0:0:0:
160,112,74036,1,0,0:0:0:0:
160,112,74121,1,0,0:0:0:0:
160,112,74289,1,8,0:0:0:0:
160,112,74458,1,8,0:0:0:0:
160,112,74626,1,0,0:0:0:0:
160,112,74795,1,8,0:0:0:0:
160,112,74963,1,0,0:0:0:0:
160,112,75048,1,0,0:0:0:0:
160,112,75132,1,8,0:0:0:0:
160,112,75300,1,0,0:0:0:0:
160,112,75469,1,8,0:0:0:0:
160,112,75637,1,0,0:0:0:0:
160,112,75722,1,0,0:0:0:0:
160,112,75806,1,8,0:0:0:0:
160,112,75975,1,0,0:0:0:0:
160,112,76143,1,8,0:0:0:0:
160,112,76312,1,0,0:0:0:0:
160,112,76480,1,8,0:0:0:0:
160,112,76564,1,8,0:0:0:0:
160,112,76649,1,0,0:0:0:0:
160,112,76817,1,8,0:0:0:0:
160,112,76902,1,0,0:0:0:0:
160,112,76986,1,0,0:0:0:0:
160,112,77154,1,8,0:0:0:0:
160,112,77239,1,8,0:0:0:0:
160,112,77323,1,0,0:0:0:0:
160,112,77407,1,0,0:0:0:0:
160,112,77491,1,0,0:0:0:0:
160,112,78840,1,0,0:0:0:0:
160,112,79008,1,0,0:0:0:0:
160,112,79093,1,8,0:0:0:0:
160,112,79177,1,0,0:0:0:0:
160,112,79345,1,0,0:0:0:0:
160,112,79598,1,0,0:0:0:0:
160,112,79682,1,0,0:0:0:0:
160,112,79767,1,0,0:0:0:0:
160,112,79851,1,8,0:0:0:0:
160,104,80020,1,0,0:0:0:0:
160,104,80188,1,0,0:0:0:0:
144,112,80357,1,8,0:0:0:0:
144,112,80441,1,0,0:0:0:0:
144,112,80525,1,8,0:0:0:0:
144,112,80694,1,0,0:0:0:0:
144,112,80946,1,0,0:0:0:0:
144,112,81031,1,0,0:0:0:0:
144,112,81115,1,0,0:0:0:0:
144,112,81199,1,8,0:0:0:0:
144,112,81368,1,0,0:0:0:0:
144,112,81536,1,0,0:0:0:0:
144,112,81621,1,0,0:0:0:0:
144,112,81789,1,0,0:0:0:0:
144,112,81873,1,8,0:0:0:0:
144,112,82042,1,0,0:0:0:0:
144,112,82211,1,0,0:0:0:0:
144,112,82295,1,0,0:0:0:0:
144,112,82379,1,0,0:0:0:0:
144,112,82463,1,0,0:0:0:0:
144,112,82548,1,8,0:0:0:0:
144,112,82716,1,0,0:0:0:0:
144,112,82800,1,0,0:0:0:0:
144,112,82885,1,0,0:0:0:0:
144,112,82969,1,0,0:0:0:0:
144,112,83137,1,0,0:0:0:0:
144,112,83222,1,8,0:0:0:0:
144,112,83390,1,0,0:0:0:0:
144,112,83475,1,0,0:0:0:0:
144,112,83559,1,0,0:0:0:0:
144,112,83643,1,0,0:0:0:0:
144,112,83727,1,0,0:0:0:0:
144,112,83896,1,8,0:0:0:0:
144,112,84064,1,0,0:0:0:0:
144,112,84233,1,0,0:0:0:0:
144,112,84317,1,0,0:0:0:0:
144,112,84486,1,0,0:0:0:0:
144,112,84570,1,8,0:0:0:0:
144,112,84739,1,0,0:0:0:0:
144,112,84907,1,0,0:0:0:0:
144,112,84991,1,0,0:0:0:0:
144,112,85076,1,0,0:0:0:0:
144,112,85160,1,0,0:0:0:0:
144,112,85244,1,8,0:0:0:0:
144,112,85413,1,0,0:0:0:0:
144,112,85497,1,0,0:0:0:0:
144,112,85581,1,0,0:0:0:0:
144,112,85666,1,0,0:0:0:0:
144,112,85834,1,0,0:0:0:0:
144,112,85918,1,8,0:0:0:0:
144,112,86087,1,0,0:0:0:0:
144,112,86171,1,0,0:0:0:0:
144,112,86255,1,0,0:0:0:0:
144,112,86340,1,0,0:0:0:0:
144,112,86424,1,0,0:0:0:0:
144,112,86593,1,8,0:0:0:0:
144,112,86761,1,0,0:0:0:0:
144,112,86930,1,0,0:0:0:0:
144,112,87014,1,0,0:0:0:0:
144,112,87182,1,0,0:0:0:0:
144,112,87267,1,8,0:0:0:0:
144,112,87435,1,0,0:0:0:0:
144,112,87604,1,0,0:0:0:0:
144,112,87688,1,0,0:0:0:0:
144,112,87772,1,0,0:0:0:0:
144,112,87857,1,0,0:0:0:0:
144,112,87941,1,8,0:0:0:0:
144,112,88109,1,0,0:0:0:0:
144,112,88194,1,0,0:0:0:0:
144,112,88278,1,0,0:0:0:0:
144,112,88362,1,0,0:0:0:0:
144,112,88531,1,0,0:0:0:0:
144,112,88615,1,8,0:0:0:0:
144,112,88784,1,0,0:0:0:0:
144,112,88868,1,0,0:0:0:0:
144,112,88952,1,0,0:0:0:0:
144,112,89036,1,0,0:0:0:0:
144,112,89121,1,0,0:0:0:0:
144,112,89289,1,8,0:0:0:0:
144,112,89458,1,0,0:0:0:0:
144,112,89626,1,0,0:0:0:0:
144,112,89711,1,8,0:0:0:0:
144,112,89879,1,8,0:0:0:0:
144,112,89963,1,0,0:0:0:0:
144,112,90132,1,0,0:0:0:0:
144,112,90300,1,0,0:0:0:0:
144,112,90385,1,8,0:0:0:0:
144,112,90553,1,8,0:0:0:0:
144,112,90637,1,0,0:0:0:0:
256,192,90806,12,0,91986,0:0:0:0:
168,104,92323,5,0,0:0:0:0:
168,104,92407,1,0,0:0:0:0:
168,104,92576,1,0,0:0:0:0:
168,104,92660,1,8,0:0:0:0:
168,104,92829,1,0,0:0:0:0:
168,104,92997,1,0,0:0:0:0:
168,104,93081,1,0,0:0:0:0:
168,104,93166,1,0,0:0:0:0:
168,104,93250,1,0,0:0:0:0:
168,104,93334,1,8,0:0:0:0:
168,104,93503,1,0,0:0:0:0:
168,104,93587,1,0,0:0:0:0:
168,104,93671,1,0,0:0:0:0:
168,104,93755,1,0,0:0:0:0:
168,104,93924,1,0,0:0:0:0:
168,104,94008,1,8,0:0:0:0:
168,104,94177,1,0,0:0:0:0:
168,104,94261,1,0,0:0:0:0:
168,104,94345,1,0,0:0:0:0:
168,104,94430,1,0,0:0:0:0:
168,104,94514,1,0,0:0:0:0:
168,104,94682,1,8,0:0:0:0:
168,104,94851,1,0,0:0:0:0:
168,104,95020,1,0,0:0:0:0:
168,104,95104,1,0,0:0:0:0:
168,104,95272,1,0,0:0:0:0:
168,104,95357,1,8,0:0:0:0:
168,104,95525,1,0,0:0:0:0:
168,104,95694,1,0,0:0:0:0:
168,104,95778,1,0,0:0:0:0:
176,104,95862,1,0,0:0:0:0:
176,96,95946,1,0,0:0:0:0:
176,96,96031,1,8,0:0:0:0:
176,96,96199,1,0,0:0:0:0:
176,96,96284,1,0,0:0:0:0:
176,96,96368,1,0,0:0:0:0:
176,96,96452,1,0,0:0:0:0:
176,96,96621,1,0,0:0:0:0:
176,96,96705,1,8,0:0:0:0:
176,96,96873,1,0,0:0:0:0:
176,96,96958,1,0,0:0:0:0:
176,96,97042,1,0,0:0:0:0:
176,96,97126,1,0,0:0:0:0:
176,96,97211,1,0,0:0:0:0:
176,96,97379,1,8,0:0:0:0:
176,96,97548,1,0,0:0:0:0:
176,96,97716,1,8,0:0:0:0:
176,96,97885,1,0,0:0:0:0:
176,96,97969,1,0,0:0:0:0:
176,96,98053,1,8,0:0:0:0:
176,96,98222,1,0,0:0:0:0:
176,96,98390,1,8,0:0:0:0:
176,96,98559,1,0,0:0:0:0:
176,96,98643,1,0,0:0:0:0:
176,96,98727,1,8,0:0:0:0:
176,96,98896,1,0,0:0:0:0:
176,96,99064,1,8,0:0:0:0:
176,96,99233,1,0,0:0:0:0:
176,96,99402,1,8,0:0:0:0:
176,96,99486,1,8,0:0:0:0:
176,96,99570,1,0,0:0:0:0:
176,96,99739,1,8,0:0:0:0:
176,96,99907,1,0,0:0:0:0:
176,96,100076,1,8,0:0:0:0:
176,96,100160,1,8,0:0:0:0:
176,96,100244,1,0,0:0:0:0:
176,96,100413,1,8,0:0:0:0:
176,96,100581,1,0,0:0:0:0:
176,96,100666,1,0,0:0:0:0:
176,96,100750,1,0,0:0:0:0:
176,96,100918,1,8,0:0:0:0:
176,96,101087,1,0,0:0:0:0:
176,96,101171,1,0,0:0:0:0:
176,96,101255,1,0,0:0:0:0:
176,96,101424,1,8,0:0:0:0:
176,96,101508,1,0,0:0:0:0:
176,96,101593,1,0,0:0:0:0:
176,96,101761,1,8,0:0:0:0:
176,96,101930,5,0,0:0:0:0:
176,96,102014,1,0,0:0:0:0:
176,96,102098,1,0,0:0:0:0:
176,96,102267,1,8,0:0:0:0:
176,96,102351,1,8,0:0:0:0:
176,96,102435,1,0,0:0:0:0:
176,96,102604,1,0,0:0:0:0:
176,96,102772,1,8,0:0:0:0:
176,96,102857,1,8,0:0:0:0:
176,96,102941,1,0,0:0:0:0:
176,96,103025,1,0,0:0:0:0:
176,96,103109,1,0,0:0:0:0:
176,96,103278,1,0,0:0:0:0:
176,96,103362,1,0,0:0:0:0:
176,96,103446,1,8,0:0:0:0:
176,96,103615,1,0,0:0:0:0:
176,96,103784,1,8,0:0:0:0:
176,96,103952,1,0,0:0:0:0:
176,96,104036,1,0,0:0:0:0:
176,96,104121,1,8,0:0:0:0:
176,96,104289,1,0,0:0:0:0:
176,96,104458,1,8,0:0:0:0:
176,96,104626,1,0,0:0:0:0:
176,96,104711,1,0,0:0:0:0:
176,96,104795,1,0,0:0:0:0:
176,96,104963,1,8,0:0:0:0:
176,96,105048,1,8,0:0:0:0:
176,96,105132,1,0,0:0:0:0:
176,96,105300,1,0,0:0:0:0:
176,96,105469,1,8,0:0:0:0:
176,96,105553,1,8,0:0:0:0:
176,96,105637,1,0,0:0:0:0:
176,96,105722,1,0,0:0:0:0:
256,192,105806,12,0,108166,0:0:0:0:
160,64,108503,5,4,0:0:0:0:
160,64,109008,1,8,0:0:0:0:
160,64,109093,1,8,0:0:0:0:
160,64,109177,1,0,0:0:0:0:
160,64,109345,1,8,0:0:0:0:
160,64,109430,1,8,0:0:0:0:
160,64,109514,1,0,0:0:0:0:
160,64,109598,1,8,0:0:0:0:
160,64,109682,1,8,0:0:0:0:
160,64,109851,1,0,0:0:0:0:
160,64,109935,1,8,0:0:0:0:
160,64,110020,1,8,0:0:0:0:
160,64,110104,1,8,0:0:0:0:
160,64,110188,1,0,0:0:0:0:
160,64,110272,1,8,0:0:0:0:
160,64,110357,1,0,0:0:0:0:
160,64,110441,1,8,0:0:0:0:
160,64,110525,1,0,0:0:0:0:
160,64,110609,1,8,0:0:0:0:
160,64,110694,1,8,0:0:0:0:
160,64,110778,1,8,0:0:0:0:
160,64,110862,1,0,0:0:0:0:
160,64,110946,1,8,0:0:0:0:
160,64,111031,1,0,0:0:0:0:
160,64,111115,1,8,0:0:0:0:
160,64,111199,1,0,0:0:0:0:
160,64,111368,1,8,0:0:0:0:
160,64,111536,1,8,0:0:0:0:
160,64,111705,1,0,0:0:0:0:
160,64,111789,1,0,0:0:0:0:
160,64,111873,1,0,0:0:0:0:
160,64,112042,1,8,0:0:0:0:
160,64,112211,1,0,0:0:0:0:
160,64,112295,1,0,0:0:0:0:
160,64,112379,1,8,0:0:0:0:
160,64,112548,1,0,0:0:0:0:
160,64,112716,1,8,0:0:0:0:
160,64,112885,1,8,0:0:0:0:
160,64,113053,1,0,0:0:0:0:
160,64,113137,1,0,0:0:0:0:
160,64,113222,1,0,0:0:0:0:
160,64,113306,1,0,0:0:0:0:
160,64,113390,1,8,0:0:0:0:
160,64,113559,1,0,0:0:0:0:
160,64,113643,1,0,0:0:0:0:
160,64,113727,1,8,0:0:0:0:
160,64,113812,1,0,0:0:0:0:
160,64,113896,1,0,0:0:0:0:
160,64,114064,1,8,0:0:0:0:
160,64,114233,1,8,0:0:0:0:
160,64,114402,1,0,0:0:0:0:
160,64,114486,1,0,0:0:0:0:
160,64,114570,1,0,0:0:0:0:
160,64,114739,1,8,0:0:0:0:
160,64,114907,1,0,0:0:0:0:
160,64,114991,1,0,0:0:0:0:
160,64,115076,1,8,0:0:0:0:
160,64,115244,1,0,0:0:0:0:
160,64,115413,1,8,0:0:0:0:
160,64,115581,1,8,0:0:0:0:
160,64,115750,1,0,0:0:0:0:
160,64,115834,1,0,0:0:0:0:
160,64,115918,1,0,0:0:0:0:
160,64,116003,1,0,0:0:0:0:
160,64,116087,1,8,0:0:0:0:
160,64,116255,1,0,0:0:0:0:
160,64,116340,1,0,0:0:0:0:
160,64,116424,1,8,0:0:0:0:
160,64,116508,1,0,0:0:0:0:
160,64,116593,1,0,0:0:0:0:
160,64,116761,1,8,0:0:0:0:
160,64,116930,1,8,0:0:0:0:
160,64,117098,1,0,0:0:0:0:
160,64,117182,1,0,0:0:0:0:
160,64,117267,1,0,0:0:0:0:
160,64,117435,1,8,0:0:0:0:
160,64,117604,1,0,0:0:0:0:
160,64,117688,1,0,0:0:0:0:
160,64,117772,1,8,0:0:0:0:
160,64,118109,1,8,0:0:0:0:
160,64,118194,1,0,0:0:0:0:
160,64,118278,1,8,0:0:0:0:
160,64,118362,1,0,0:0:0:0:
160,64,118446,1,8,0:0:0:0:
160,64,118615,1,0,0:0:0:0:
160,64,118699,1,0,0:0:0:0:
160,64,118784,1,8,0:0:0:0:
160,64,118868,1,8,0:0:0:0:
160,64,118952,1,0,0:0:0:0:
160,64,119036,1,8,0:0:0:0:
160,64,119121,1,0,0:0:0:0:
160,64,119205,1,8,0:0:0:0:
160,64,119289,1,0,0:0:0:0:
