osu file format v13

[General]
AudioFilename: Red Rose Evangel.mp3
AudioLeadIn: 0
PreviewTime: 48166
Countdown: 0
SampleSet: Normal
StackLeniency: 0.7
Mode: 1
LetterboxInBreaks: 0
WidescreenStoryboard: 1

[Editor]
DistanceSpacing: 2
BeatDivisor: 4
GridSize: 8
TimelineZoom: 1.3

[Metadata]
Title:Red Rose Evangel
TitleUnicode:Red Rose Evangel
Artist:Zeami feat. Ayane
ArtistUnicode:世阿弥 feat. 彩音
Creator:TaMul
Version:Muzukashii
Source:太鼓の達人
Tags:
BeatmapID:457093
BeatmapSetID:192150

[Difficulty]
HPDrainRate:4
CircleSize:5
OverallDifficulty:4
ApproachRate:4
SliderMultiplier:1.4
SliderTickRate:1

[Events]
//Background and Video events
0,0,"308962-1366x768.jpg",0,60
//Break Periods
//Storyboard Layer 0 (Background)
//Storyboard Layer 1 (Fail)
//Storyboard Layer 2 (Pass)
//Storyboard Layer 3 (Foreground)
//Storyboard Sound Samples
//Background Colour Transformations
3,100,163,162,255

[TimingPoints]
638,337.078651685393,4,1,0,100,1,0
3334,-100,4,1,0,100,0,1
14121,-100,4,1,0,100,0,0
49177,-100,4,1,0,100,0,1
77491,-100,4,1,0,100,0,0
81536,-100,4,1,0,100,0,1
111199,-100,4,1,0,100,0,0

[HitObjects]
256,192,638,12,0,1986,0:0:0:0:
128,112,3334,5,0,0:0:0:0:
128,112,3671,1,0,0:0:0:0:
128,112,3840,1,0,0:0:0:0:
128,112,4177,1,0,0:0:0:0:
128,112,4261,1,0,0:0:0:0:
128,112,4345,1,0,0:0:0:0:
128,112,4514,1,0,0:0:0:0:
128,112,4682,1,0,0:0:0:0:
128,112,5020,1,0,0:0:0:0:
128,112,5188,1,0,0:0:0:0:
128,112,5525,1,0,0:0:0:0:
128,112,5609,1,0,0:0:0:0:
128,112,5694,1,0,0:0:0:0:
128,112,5862,1,0,0:0:0:0:
128,112,6031,1,0,0:0:0:0:
128,112,6368,1,0,0:0:0:0:
128,112,6536,1,0,0:0:0:0:
128,112,6873,1,0,0:0:0:0:
128,112,6958,1,0,0:0:0:0:
128,112,7042,1,0,0:0:0:0:
128,112,7211,1,0,0:0:0:0:
128,112,7379,1,0,0:0:0:0:
128,112,7716,1,8,0:0:0:0:
128,112,7885,1,0,0:0:0:0:
128,112,8053,1,0,0:0:0:0:
128,112,8222,1,0,0:0:0:0:
128,112,8390,1,8,0:0:0:0:
128,112,8727,5,0,0:0:0:0:
128,112,9064,1,0,0:0:0:0:
128,112,9233,1,0,0:0:0:0:
128,112,9570,1,0,0:0:0:0:
128,112,9654,1,0,0:0:0:0:
128,112,9738,1,0,0:0:0:0:
128,112,9907,1,0,0:0:0:0:
128,112,10075,1,0,0:0:0:0:
128,112,10413,1,0,0:0:0:0:
128,112,10581,1,0,0:0:0:0:
128,112,10918,1,0,0:0:0:0:
128,112,11002,1,0,0:0:0:0:
128,112,11087,1,0,0:0:0:0:
128,112,11255,1,0,0:0:0:0:
128,112,11424,1,0,0:0:0:0:
128,112,11761,1,0,0:0:0:0:
128,112,11929,1,0,0:0:0:0:
128,112,12266,1,0,0:0:0:0:
128,112,12351,1,0,0:0:0:0:
128,112,12435,1,0,0:0:0:0:
128,112,12604,1,0,0:0:0:0:
128,112,12772,1,0,0:0:0:0:
128,112,13109,1,8,0:0:0:0:
128,112,13278,1,0,0:0:0:0:
128,112,13446,1,0,0:0:0:0:
128,112,13615,1,0,0:0:0:0:
128,112,13783,1,8,0:0:0:0:
128,112,14121,1,4,0:0:0:0:
128,112,16312,1,0,0:0:0:0:
128,112,16480,1,8,0:0:0:0:
128,112,16817,1,0,0:0:0:0:
128,112,16986,1,0,0:0:0:0:
128,112,17154,1,8,0:0:0:0:
128,112,17323,1,0,0:0:0:0:
128,112,17491,1,0,0:0:0:0:
128,112,17660,1,0,0:0:0:0:
128,112,17829,1,8,0:0:0:0:
128,112,18166,1,0,0:0:0:0:
128,112,18335,1,0,0:0:0:0:
128,112,18503,1,8,0:0:0:0:
128,112,18672,1,0,0:0:0:0:
128,112,18840,1,0,0:0:0:0:
128,112,19009,1,8,0:0:0:0:
128,112,19178,1,8,0:0:0:0:
128,112,19514,1,0,0:0:0:0:
128,112,19683,1,0,0:0:0:0:
128,112,19851,1,8,0:0:0:0:
128,112,20020,1,0,0:0:0:0:
128,112,20188,1,0,0:0:0:0:
128,112,20357,1,0,0:0:0:0:
128,112,20526,1,8,0:0:0:0:
128,112,20862,1,0,0:0:0:0:
128,112,21031,1,0,0:0:0:0:
128,112,21199,1,8,0:0:0:0:
128,112,21368,1,0,0:0:0:0:
128,112,21536,1,0,0:0:0:0:
128,112,21705,1,8,0:0:0:0:
128,112,21874,1,8,0:0:0:0:
128,112,22211,1,0,0:0:0:0:
128,112,22380,1,0,0:0:0:0:
128,112,22548,1,8,0:0:0:0:
128,112,22717,1,0,0:0:0:0:
128,112,22885,1,0,0:0:0:0:
128,112,23054,1,0,0:0:0:0:
128,112,23223,1,8,0:0:0:0:
128,112,23559,1,0,0:0:0:0:
128,112,23896,1,8,0:0:0:0:
128,112,24064,1,0,0:0:0:0:
128,112,24233,1,0,0:0:0:0:
128,112,24402,1,0,0:0:0:0:
128,112,24570,1,8,0:0:0:0:
128,112,24907,1,0,0:0:0:0:
128,112,25076,1,0,0:0:0:0:
128,112,25244,1,8,0:0:0:0:
128,112,25581,1,8,0:0:0:0:
128,112,25666,1,8,0:0:0:0:
128,112,25750,1,8,0:0:0:0:
128,112,25918,1,8,0:0:0:0:
128,112,26087,1,0,0:0:0:0:
128,112,26424,1,0,0:0:0:0:
128,112,26593,1,8,0:0:0:0:
128,112,26930,1,0,0:0:0:0:
128,112,27098,1,8,0:0:0:0:
128,112,27267,1,8,0:0:0:0:
128,112,27604,1,0,0:0:0:0:
128,112,27772,1,0,0:0:0:0:
128,112,27941,1,8,0:0:0:0:
128,112,28278,1,0,0:0:0:0:
128,112,28615,1,8,0:0:0:0:
128,112,28784,1,0,0:0:0:0:
128,112,29121,1,0,0:0:0:0:
128,112,29289,1,8,0:0:0:0:
128,112,29626,1,0,0:0:0:0:
128,112,29795,1,8,0:0:0:0:
128,112,29963,1,8,0:0:0:0:
128,112,30300,1,0,0:0:0:0:
128,112,30469,1,0,0:0:0:0:
128,112,30637,1,8,0:0:0:0:
128,112,30975,1,8,0:0:0:0:
128,112,31059,1,8,0:0:0:0:
128,112,31143,1,8,0:0:0:0:
128,112,31312,1,8,0:0:0:0:
128,112,31480,1,0,0:0:0:0:
128,112,31817,1,0,0:0:0:0:
128,112,31986,1,8,0:0:0:0:
128,112,32323,1,0,0:0:0:0:
128,112,32491,1,8,0:0:0:0:
128,112,32660,1,8,0:0:0:0:
128,112,32997,1,4,0:0:0:0:
128,112,33503,1,4,0:0:0:0:
80,56,34008,2,4,P|128:48|24:112,1,560
128,120,35694,1,0,0:0:0:0:
128,120,36031,1,8,0:0:0:0:
128,120,36368,1,8,0:0:0:0:
128,120,36705,1,8,0:0:0:0:
128,120,36873,1,0,0:0:0:0:
128,120,37042,1,0,0:0:0:0:
128,120,37379,1,8,0:0:0:0:
128,120,37548,1,8,0:0:0:0:
128,120,37716,1,0,0:0:0:0:
128,120,37885,1,8,0:0:0:0:
128,120,38053,1,8,0:0:0:0:
128,120,38390,1,0,0:0:0:0:
128,120,38727,1,8,0:0:0:0:
128,120,39064,1,8,0:0:0:0:
128,120,39402,1,8,0:0:0:0:
128,120,39570,1,0,0:0:0:0:
128,120,39739,1,0,0:0:0:0:
128,120,40076,1,8,0:0:0:0:
128,120,40244,1,8,0:0:0:0:
128,120,40413,1,0,0:0:0:0:
128,120,40581,1,8,0:0:0:0:
128,120,40750,1,8,0:0:0:0:
96,56,41087,2,8,P|168:56|112:192,1,280
112,128,42267,1,4,0:0:0:0:
112,128,42435,1,4,0:0:0:0:
112,128,42604,1,4,0:0:0:0:
112,128,42941,1,4,0:0:0:0:
112,128,43278,1,4,0:0:0:0:
96,56,43615,2,0,P|168:64|24:144,1,490
112,136,45132,1,12,0:0:0:0:
112,136,45637,1,12,0:0:0:0:
112,136,46143,1,12,0:0:0:0:
112,136,46480,1,4,0:0:0:0:
112,136,46986,1,4,0:0:0:0:
112,136,47491,1,4,0:0:0:0:
112,128,47829,1,4,0:0:0:0:
112,128,49177,1,0,0:0:0:0:
112,128,49514,1,8,0:0:0:0:
112,128,49682,1,0,0:0:0:0:
112,128,50020,1,0,0:0:0:0:
112,128,50104,1,0,0:0:0:0:
112,128,50188,1,0,0:0:0:0:
112,128,50357,1,0,0:0:0:0:
112,128,50525,1,0,0:0:0:0:
112,128,50862,1,8,0:0:0:0:
112,128,51031,1,0,0:0:0:0:
112,128,51368,1,0,0:0:0:0:
112,128,51452,1,0,0:0:0:0:
112,128,51536,1,0,0:0:0:0:
112,128,51705,1,0,0:0:0:0:
112,128,51873,1,0,0:0:0:0:
112,128,52211,1,8,0:0:0:0:
112,128,52379,1,0,0:0:0:0:
112,128,52716,1,0,0:0:0:0:
112,128,52800,1,0,0:0:0:0:
112,128,52885,1,0,0:0:0:0:
112,128,53053,1,0,0:0:0:0:
112,128,53222,1,0,0:0:0:0:
112,128,53559,1,8,0:0:0:0:
112,128,53727,1,0,0:0:0:0:
112,128,53896,1,0,0:0:0:0:
112,128,54064,1,0,0:0:0:0:
112,128,54233,1,8,0:0:0:0:
112,128,54570,1,0,0:0:0:0:
112,128,54654,1,0,0:0:0:0:
112,128,54739,1,0,0:0:0:0:
112,128,54907,1,8,0:0:0:0:
112,128,55244,1,0,0:0:0:0:
112,128,55413,1,0,0:0:0:0:
112,128,55581,1,8,0:0:0:0:
112,128,55750,1,0,0:0:0:0:
112,128,56087,1,0,0:0:0:0:
112,128,56255,1,8,0:0:0:0:
112,128,56593,1,0,0:0:0:0:
112,128,56761,1,0,0:0:0:0:
112,128,56930,1,8,0:0:0:0:
112,128,57267,1,0,0:0:0:0:
112,128,57351,1,0,0:0:0:0:
112,128,57435,1,0,0:0:0:0:
112,128,57604,1,8,0:0:0:0:
112,128,57941,1,0,0:0:0:0:
112,128,58109,1,0,0:0:0:0:
112,128,58278,1,8,0:0:0:0:
112,128,58446,1,0,0:0:0:0:
112,128,58784,1,0,0:0:0:0:
112,128,58952,1,8,0:0:0:0:
112,128,59289,1,0,0:0:0:0:
112,128,59458,1,0,0:0:0:0:
112,128,59626,1,8,0:0:0:0:
112,128,59963,1,0,0:0:0:0:
112,128,60132,1,0,0:0:0:0:
112,128,60300,1,8,0:0:0:0:
112,128,60637,1,0,0:0:0:0:
112,128,60806,1,8,0:0:0:0:
112,128,60975,1,8,0:0:0:0:
112,128,61312,1,0,0:0:0:0:
112,128,61480,1,0,0:0:0:0:
112,128,61649,1,8,0:0:0:0:
112,128,61817,1,0,0:0:0:0:
112,128,62154,1,8,0:0:0:0:
112,128,62323,1,8,0:0:0:0:
112,128,62660,1,0,0:0:0:0:
112,128,62829,1,0,0:0:0:0:
112,128,62997,1,8,0:0:0:0:
112,128,63334,1,0,0:0:0:0:
112,128,63503,1,8,0:0:0:0:
112,128,63671,1,8,0:0:0:0:
112,128,64008,1,0,0:0:0:0:
112,128,64177,1,0,0:0:0:0:
112,128,64345,1,8,0:0:0:0:
112,128,64514,1,0,0:0:0:0:
112,128,64851,1,8,0:0:0:0:
112,128,65020,1,8,0:0:0:0:
112,128,65357,1,0,0:0:0:0:
112,128,65525,1,0,0:0:0:0:
112,128,65694,1,8,0:0:0:0:
112,128,65862,1,0,0:0:0:0:
112,128,66031,1,8,0:0:0:0:
112,128,66199,1,0,0:0:0:0:
112,128,66368,1,8,0:0:0:0:
112,128,66705,1,0,0:0:0:0:
112,128,66873,1,0,0:0:0:0:
112,128,67042,1,8,0:0:0:0:
112,128,67211,1,0,0:0:0:0:
112,128,67379,1,8,0:0:0:0:
112,128,67548,1,0,0:0:0:0:
112,128,67716,1,8,0:0:0:0:
112,128,68053,1,4,0:0:0:0:
112,128,68559,1,4,0:0:0:0:
112,128,69064,1,4,0:0:0:0:
256,192,69402,12,0,70413,0:0:0:0:
120,104,70750,5,0,0:0:0:0:
120,104,70918,1,0,0:0:0:0:
120,104,71087,1,8,0:0:0:0:
120,104,71424,1,0,0:0:0:0:
120,104,71508,1,0,0:0:0:0:
120,104,71593,1,0,0:0:0:0:
120,104,71761,1,8,0:0:0:0:
120,104,72098,1,0,0:0:0:0:
120,104,72267,1,0,0:0:0:0:
120,104,72435,1,8,0:0:0:0:
120,104,72604,1,0,0:0:0:0:
120,104,72941,1,8,0:0:0:0:
120,104,73109,1,8,0:0:0:0:
120,104,73446,1,0,0:0:0:0:
120,104,73615,1,0,0:0:0:0:
120,104,73784,1,8,0:0:0:0:
120,104,74121,1,0,0:0:0:0:
120,104,74205,1,0,0:0:0:0:
120,104,74289,1,0,0:0:0:0:
120,104,74458,1,8,0:0:0:0:
120,104,74795,1,4,0:0:0:0:
120,104,75132,1,4,0:0:0:0:
120,104,75469,1,12,0:0:0:0:
120,104,75806,1,12,0:0:0:0:
168,48,76143,2,4,P|200:128|48:128,2,280,4|4|4,0:0|0:0|0:0,0:0:0:0:
128,104,78840,1,0,0:0:0:0:
128,104,79177,1,8,0:0:0:0:
128,104,79345,1,0,0:0:0:0:
128,104,79682,1,0,0:0:0:0:
128,104,79851,1,8,0:0:0:0:
128,104,80188,1,0,0:0:0:0:
128,104,80357,1,8,0:0:0:0:
128,104,80525,1,8,0:0:0:0:
128,104,80694,1,0,0:0:0:0:
128,104,81031,1,0,0:0:0:0:
128,104,81115,1,0,0:0:0:0:
128,104,81199,1,8,0:0:0:0:
128,104,81536,1,0,0:0:0:0:
128,104,81705,1,0,0:0:0:0:
128,104,81873,1,8,0:0:0:0:
128,104,82211,1,0,0:0:0:0:
128,104,82295,1,0,0:0:0:0:
128,104,82379,1,0,0:0:0:0:
128,104,82548,1,8,0:0:0:0:
128,104,82716,1,0,0:0:0:0:
128,104,83053,1,0,0:0:0:0:
128,104,83222,1,8,0:0:0:0:
128,104,83390,1,0,0:0:0:0:
128,104,83559,1,0,0:0:0:0:
128,104,83727,1,0,0:0:0:0:
128,104,83896,1,8,0:0:0:0:
128,104,84233,1,0,0:0:0:0:
128,104,84402,1,0,0:0:0:0:
128,104,84570,1,8,0:0:0:0:
128,104,84907,1,0,0:0:0:0:
128,104,84991,1,0,0:0:0:0:
128,104,85076,1,0,0:0:0:0:
128,104,85244,1,8,0:0:0:0:
128,104,85413,1,0,0:0:0:0:
128,104,85750,1,0,0:0:0:0:
128,104,85918,1,8,0:0:0:0:
128,104,86087,1,0,0:0:0:0:
128,104,86255,1,0,0:0:0:0:
128,104,86424,1,8,0:0:0:0:
128,104,86593,1,8,0:0:0:0:
128,104,86930,1,0,0:0:0:0:
128,104,87098,1,0,0:0:0:0:
128,104,87267,1,8,0:0:0:0:
128,104,87604,1,0,0:0:0:0:
128,104,87688,1,0,0:0:0:0:
128,104,87772,1,0,0:0:0:0:
128,104,87941,1,8,0:0:0:0:
128,104,88109,1,0,0:0:0:0:
128,104,88446,1,0,0:0:0:0:
128,104,88615,1,8,0:0:0:0:
128,104,88784,1,0,0:0:0:0:
128,104,88952,1,0,0:0:0:0:
128,104,89121,1,0,0:0:0:0:
128,104,89289,1,8,0:0:0:0:
128,104,89626,1,4,0:0:0:0:
128,104,89963,1,4,0:0:0:0:
128,104,90132,1,4,0:0:0:0:
128,104,90469,1,4,0:0:0:0:
56,64,90806,2,4,P|112:24|48:160,1,490
120,112,92323,1,0,0:0:0:0:
120,112,92491,1,0,0:0:0:0:
120,112,92660,1,8,0:0:0:0:
120,112,92997,1,0,0:0:0:0:
120,112,93081,1,0,0:0:0:0:
120,112,93166,1,0,0:0:0:0:
120,112,93334,1,8,0:0:0:0:
120,112,93503,1,0,0:0:0:0:
120,112,93840,1,0,0:0:0:0:
120,112,94008,1,8,0:0:0:0:
120,112,94177,1,0,0:0:0:0:
120,112,94345,1,0,0:0:0:0:
128,112,94514,1,0,0:0:0:0:
128,112,94682,1,8,0:0:0:0:
128,112,95020,1,0,0:0:0:0:
128,112,95188,1,0,0:0:0:0:
128,112,95357,1,8,0:0:0:0:
128,112,95694,1,0,0:0:0:0:
128,112,95778,1,0,0:0:0:0:
128,112,95862,1,0,0:0:0:0:
128,112,96031,1,8,0:0:0:0:
128,112,96199,1,0,0:0:0:0:
128,112,96536,1,0,0:0:0:0:
128,112,96705,1,8,0:0:0:0:
128,112,96873,1,0,0:0:0:0:
128,112,97042,1,0,0:0:0:0:
128,112,97211,1,8,0:0:0:0:
128,112,97379,1,8,0:0:0:0:
128,112,97716,1,0,0:0:0:0:
128,112,97885,1,0,0:0:0:0:
128,112,98053,1,8,0:0:0:0:
128,112,98222,1,0,0:0:0:0:
128,112,98390,1,8,0:0:0:0:
128,112,98559,1,0,0:0:0:0:
128,112,98727,1,8,0:0:0:0:
128,112,98896,1,0,0:0:0:0:
128,112,99064,1,0,0:0:0:0:
128,112,99233,1,0,0:0:0:0:
128,112,99402,1,8,0:0:0:0:
128,112,99570,1,0,0:0:0:0:
128,112,99739,1,8,0:0:0:0:
128,112,99907,1,0,0:0:0:0:
128,112,100076,1,8,0:0:0:0:
128,112,100413,1,0,0:0:0:0:
128,112,100750,1,8,0:0:0:0:
128,112,100918,1,0,0:0:0:0:
128,112,101255,1,0,0:0:0:0:
128,112,101424,1,8,0:0:0:0:
72,64,101761,2,8,P|144:48|40:136,1,420
176,112,103109,1,0,0:0:0:0:
176,112,103278,1,0,0:0:0:0:
176,112,103446,1,8,0:0:0:0:
176,112,103615,1,0,0:0:0:0:
176,112,103784,1,8,0:0:0:0:
176,112,103952,1,0,0:0:0:0:
176,112,104121,1,8,0:0:0:0:
176,112,104289,1,0,0:0:0:0:
176,112,104458,1,0,0:0:0:0:
176,112,104626,1,0,0:0:0:0:
176,112,104795,1,8,0:0:0:0:
176,112,104963,1,0,0:0:0:0:
176,112,105132,1,8,0:0:0:0:
176,112,105300,1,0,0:0:0:0:
176,112,105469,1,8,0:0:0:0:
256,192,105806,12,8,108166,0:0:0:0:
176,112,108503,5,4,0:0:0:0:
176,112,109008,1,4,0:0:0:0:
176,112,109514,1,4,0:0:0:0:
176,112,109851,1,0,0:0:0:0:
176,112,110020,1,8,0:0:0:0:
176,112,110188,1,8,0:0:0:0:
176,112,110357,1,0,0:0:0:0:
176,112,110694,1,0,0:0:0:0:
176,112,110778,1,0,0:0:0:0:
176,112,110862,1,8,0:0:0:0:
176,112,111199,1,0,0:0:0:0:
176,112,111368,1,8,0:0:0:0:
176,112,111536,1,8,0:0:0:0:
176,112,111705,1,0,0:0:0:0:
176,112,111873,1,8,0:0:0:0:
176,112,112042,1,8,0:0:0:0:
176,112,112211,1,0,0:0:0:0:
176,112,112379,1,8,0:0:0:0:
176,112,112548,1,0,0:0:0:0:
176,112,112716,1,8,0:0:0:0:
176,112,112885,1,8,0:0:0:0:
176,112,113053,1,0,0:0:0:0:
176,112,113222,1,8,0:0:0:0:
176,112,113390,1,0,0:0:0:0:
176,112,113559,1,8,0:0:0:0:
176,112,113896,1,0,0:0:0:0:
176,112,114064,1,8,0:0:0:0:
176,112,114233,1,8,0:0:0:0:
176,112,114402,1,0,0:0:0:0:
176,112,114570,1,8,0:0:0:0:
176,112,114739,1,8,0:0:0:0:
176,112,114907,1,0,0:0:0:0:
176,112,115076,1,8,0:0:0:0:
176,112,115244,1,0,0:0:0:0:
176,112,115413,1,8,0:0:0:0:
176,112,115581,1,8,0:0:0:0:
176,112,115750,1,0,0:0:0:0:
176,112,116087,1,0,0:0:0:0:
176,112,116255,1,8,0:0:0:0:
176,112,116593,1,0,0:0:0:0:
176,112,116761,1,8,0:0:0:0:
176,112,116930,1,8,0:0:0:0:
176,112,117098,1,0,0:0:0:0:
176,112,117267,1,8,0:0:0:0:
176,112,117435,1,8,0:0:0:0:
176,112,117604,1,0,0:0:0:0:
176,112,117772,1,8,0:0:0:0:
176,112,118109,1,8,0:0:0:0:
176,112,118278,1,0,0:0:0:0:
176,112,118615,1,0,0:0:0:0:
176,112,118699,1,0,0:0:0:0:
176,112,118784,1,0,0:0:0:0:
176,112,118868,1,0,0:0:0:0:
176,112,118952,1,0,0:0:0:0:
176,112,119289,1,4,0:0:0:0:
