osu file format v13

[General]
AudioFilename: Red Rose Evangel.mp3
AudioLeadIn: 0
PreviewTime: 48166
Countdown: 0
SampleSet: Normal
StackLeniency: 0.7
Mode: 1
LetterboxInBreaks: 0
WidescreenStoryboard: 1

[Editor]
DistanceSpacing: 2
BeatDivisor: 4
GridSize: 8
TimelineZoom: 1.3

[Metadata]
Title:Red Rose Evangel
TitleUnicode:Red Rose Evangel
Artist:Zeami feat. Ayane
ArtistUnicode:世阿弥 feat. 彩音
Creator:TaMul
Version:Kantan
Source:太鼓の達人
Tags:
BeatmapID:457092
BeatmapSetID:192150

[Difficulty]
HPDrainRate:2
CircleSize:5
OverallDifficulty:2
ApproachRate:2
SliderMultiplier:1.4
SliderTickRate:1

[Events]
//Background and Video events
0,0,"308962-1366x768.jpg",0,60
//Break Periods
//Storyboard Layer 0 (Background)
//Storyboard Layer 1 (Fail)
//Storyboard Layer 2 (Pass)
//Storyboard Layer 3 (Foreground)
//Storyboard Sound Samples
//Background Colour Transformations
3,100,163,162,255

[TimingPoints]
638,337.078651685393,4,1,0,100,1,0
3334,-100,4,1,0,100,0,1
14121,-100,4,1,0,100,0,0
49177,-100,4,1,0,100,0,1
77491,-100,4,1,0,100,0,0
81536,-100,4,1,0,100,0,1
111199,-100,4,1,0,100,0,0

[HitObjects]
256,192,638,12,0,1986,0:0:0:0:
160,232,3334,5,0,0:0:0:0:
160,232,3671,1,0,0:0:0:0:
160,232,3840,1,0,0:0:0:0:
160,232,4345,1,0,0:0:0:0:
160,232,4682,5,0,0:0:0:0:
160,232,5019,1,0,0:0:0:0:
160,232,5188,1,0,0:0:0:0:
160,232,5693,1,0,0:0:0:0:
160,232,6031,5,0,0:0:0:0:
160,232,6368,1,0,0:0:0:0:
160,232,6537,1,0,0:0:0:0:
160,232,7042,1,0,0:0:0:0:
160,232,7379,1,0,0:0:0:0:
160,232,7716,1,8,0:0:0:0:
160,232,8053,1,8,0:0:0:0:
160,232,8727,5,0,0:0:0:0:
160,232,9064,1,0,0:0:0:0:
160,232,9233,1,0,0:0:0:0:
160,232,9738,1,0,0:0:0:0:
160,232,10075,5,0,0:0:0:0:
160,232,10412,1,0,0:0:0:0:
160,232,10581,1,0,0:0:0:0:
160,232,11086,1,0,0:0:0:0:
160,232,11424,5,0,0:0:0:0:
160,232,11761,1,0,0:0:0:0:
160,232,11930,1,0,0:0:0:0:
160,232,12435,1,0,0:0:0:0:
160,232,12772,1,0,0:0:0:0:
160,232,13109,1,8,0:0:0:0:
160,232,13446,1,8,0:0:0:0:
160,232,14121,1,4,0:0:0:0:
192,200,16817,1,0,0:0:0:0:
192,200,17154,1,0,0:0:0:0:
192,200,17491,1,0,0:0:0:0:
192,200,18166,1,0,0:0:0:0:
192,200,18503,1,0,0:0:0:0:
192,200,18671,1,0,0:0:0:0:
192,200,18840,1,0,0:0:0:0:
192,200,19514,1,0,0:0:0:0:
192,200,19851,1,0,0:0:0:0:
192,200,20188,1,0,0:0:0:0:
192,200,20863,1,0,0:0:0:0:
192,200,21200,1,0,0:0:0:0:
192,200,21368,1,0,0:0:0:0:
192,200,21537,1,0,0:0:0:0:
192,200,22211,1,0,0:0:0:0:
192,200,22548,1,0,0:0:0:0:
192,200,22885,1,0,0:0:0:0:
192,200,23560,1,0,0:0:0:0:
192,200,23897,1,0,0:0:0:0:
192,200,24065,1,0,0:0:0:0:
192,200,24234,1,0,0:0:0:0:
192,200,24907,1,0,0:0:0:0:
192,200,25581,1,8,0:0:0:0:
192,200,26255,1,0,0:0:0:0:
192,200,26593,1,0,0:0:0:0:
192,200,26930,1,8,0:0:0:0:
192,200,27604,1,0,0:0:0:0:
192,200,28278,1,8,0:0:0:0:
192,200,28952,1,0,0:0:0:0:
192,200,29290,1,0,0:0:0:0:
192,200,29627,1,8,0:0:0:0:
192,200,30300,1,0,0:0:0:0:
192,200,30974,1,8,0:0:0:0:
192,200,31648,1,0,0:0:0:0:
192,200,31986,1,0,0:0:0:0:
192,200,32323,1,8,0:0:0:0:
280,64,32997,2,0,P|352:176|144:48,1,840
192,224,35694,1,0,0:0:0:0:
192,224,36031,1,8,0:0:0:0:
192,224,36368,1,8,0:0:0:0:
192,224,36705,1,8,0:0:0:0:
192,224,37042,1,0,0:0:0:0:
192,224,37379,1,0,0:0:0:0:
192,224,37548,1,0,0:0:0:0:
192,224,37716,1,0,0:0:0:0:
192,224,38390,1,0,0:0:0:0:
192,224,38727,1,8,0:0:0:0:
192,224,39064,1,8,0:0:0:0:
192,224,39401,1,8,0:0:0:0:
192,224,39738,1,0,0:0:0:0:
192,224,40075,1,0,0:0:0:0:
192,224,40244,1,0,0:0:0:0:
192,224,40412,1,0,0:0:0:0:
168,112,41087,2,0,P|272:176|248:320,1,280
256,192,42435,12,0,44795,0:0:0:0:
208,232,46480,5,4,0:0:0:0:
208,232,47491,1,4,0:0:0:0:
208,232,47829,1,4,0:0:0:0:
208,216,49177,1,0,0:0:0:0:
208,216,49514,1,0,0:0:0:0:
208,216,49682,1,0,0:0:0:0:
208,216,50188,1,8,0:0:0:0:
208,216,50525,1,0,0:0:0:0:
208,216,50862,1,0,0:0:0:0:
208,216,51030,1,0,0:0:0:0:
208,216,51536,1,8,0:0:0:0:
208,216,51873,1,0,0:0:0:0:
208,216,52210,1,0,0:0:0:0:
208,216,52378,1,0,0:0:0:0:
208,216,52884,1,8,0:0:0:0:
208,216,53222,1,0,0:0:0:0:
216,216,53559,1,8,0:0:0:0:
216,216,53896,1,8,0:0:0:0:
216,216,54570,1,0,0:0:0:0:
216,216,54907,1,0,0:0:0:0:
216,216,55244,1,0,0:0:0:0:
216,216,55918,1,0,0:0:0:0:
216,216,56087,1,0,0:0:0:0:
216,216,56255,1,0,0:0:0:0:
216,216,56593,1,8,0:0:0:0:
216,216,57267,1,0,0:0:0:0:
216,216,57604,1,0,0:0:0:0:
216,216,57941,1,0,0:0:0:0:
216,216,58615,1,0,0:0:0:0:
216,216,58784,1,0,0:0:0:0:
216,216,58952,1,0,0:0:0:0:
216,216,59290,1,8,0:0:0:0:
216,216,59963,1,0,0:0:0:0:
216,216,60300,1,0,0:0:0:0:
216,216,60975,1,8,0:0:0:0:
216,216,61312,1,0,0:0:0:0:
216,216,61649,1,0,0:0:0:0:
224,216,62323,1,8,0:0:0:0:
216,216,62660,1,0,0:0:0:0:
216,216,62997,1,0,0:0:0:0:
224,216,63671,1,8,0:0:0:0:
216,216,64008,1,0,0:0:0:0:
216,216,64345,1,0,0:0:0:0:
224,216,65019,1,8,0:0:0:0:
224,216,65357,1,0,0:0:0:0:
224,216,65694,1,0,0:0:0:0:
224,216,66031,1,8,0:0:0:0:
224,216,66705,1,0,0:0:0:0:
224,216,67042,1,0,0:0:0:0:
224,216,67379,1,8,0:0:0:0:
224,216,68053,1,4,0:0:0:0:
224,208,68727,1,4,0:0:0:0:
224,208,69402,1,4,0:0:0:0:
224,208,70750,1,0,0:0:0:0:
224,208,70918,1,0,0:0:0:0:
224,208,71087,1,4,0:0:0:0:
224,208,71424,1,0,0:0:0:0:
224,208,72098,1,0,0:0:0:0:
224,208,72435,1,0,0:0:0:0:
224,208,72772,1,0,0:0:0:0:
224,208,73446,1,0,0:0:0:0:
224,208,73614,1,0,0:0:0:0:
224,208,73783,1,4,0:0:0:0:
224,208,74120,1,0,0:0:0:0:
224,208,74795,1,4,0:0:0:0:
224,208,75132,1,4,0:0:0:0:
224,208,75469,1,4,0:0:0:0:
208,96,76143,2,4,P|296:120|112:192,1,560
232,216,78840,1,0,0:0:0:0:
232,216,79514,1,0,0:0:0:0:
232,216,80188,1,0,0:0:0:0:
232,216,80525,1,0,0:0:0:0:
232,216,80862,1,0,0:0:0:0:
232,216,81536,1,0,0:0:0:0:
232,216,81873,1,0,0:0:0:0:
232,216,82211,1,0,0:0:0:0:
232,216,82379,1,0,0:0:0:0:
232,216,82548,1,0,0:0:0:0:
232,216,82885,1,0,0:0:0:0:
232,216,83222,1,0,0:0:0:0:
232,216,83559,1,0,0:0:0:0:
232,216,84233,1,0,0:0:0:0:
232,216,84570,1,0,0:0:0:0:
232,216,84908,1,0,0:0:0:0:
232,216,85076,1,0,0:0:0:0:
232,216,85245,1,0,0:0:0:0:
232,216,85582,1,0,0:0:0:0:
232,216,85919,1,0,0:0:0:0:
232,216,86256,1,0,0:0:0:0:
232,216,86930,1,0,0:0:0:0:
232,216,87267,1,0,0:0:0:0:
232,216,87605,1,0,0:0:0:0:
232,216,87773,1,0,0:0:0:0:
232,216,87942,1,0,0:0:0:0:
232,216,88279,1,0,0:0:0:0:
232,216,88615,1,0,0:0:0:0:
232,216,88953,1,0,0:0:0:0:
232,216,89121,1,0,0:0:0:0:
232,216,89290,1,0,0:0:0:0:
160,88,89626,2,0,P|272:72|80:200,1,840
144,240,92323,1,0,0:0:0:0:
144,240,92660,1,0,0:0:0:0:
144,240,92997,1,0,0:0:0:0:
144,240,93165,1,0,0:0:0:0:
144,240,93334,1,0,0:0:0:0:
144,240,93671,1,8,0:0:0:0:
144,240,94008,1,8,0:0:0:0:
144,240,94345,1,8,0:0:0:0:
144,240,95019,1,0,0:0:0:0:
144,240,95356,1,0,0:0:0:0:
144,240,95693,1,0,0:0:0:0:
144,240,95861,1,0,0:0:0:0:
144,240,96030,1,0,0:0:0:0:
144,240,96367,1,8,0:0:0:0:
144,240,96704,1,8,0:0:0:0:
144,240,97041,1,8,0:0:0:0:
144,240,97716,1,0,0:0:0:0:
144,240,98053,1,0,0:0:0:0:
144,240,98390,1,0,0:0:0:0:
144,240,98727,1,0,0:0:0:0:
144,240,98896,1,0,0:0:0:0:
144,240,99064,1,0,0:0:0:0:
144,240,99401,1,0,0:0:0:0:
144,240,99738,1,0,0:0:0:0:
144,240,100413,1,8,0:0:0:0:
144,240,100750,1,8,0:0:0:0:
144,240,101087,1,0,0:0:0:0:
144,240,101255,1,0,0:0:0:0:
144,240,101424,1,0,0:0:0:0:
152,128,101761,2,0,P|232:232|32:296,1,420
152,256,103109,1,0,0:0:0:0:
152,256,103446,1,0,0:0:0:0:
152,256,103783,1,0,0:0:0:0:
152,256,104121,1,0,0:0:0:0:
152,256,104289,1,0,0:0:0:0:
152,256,104457,1,0,0:0:0:0:
152,256,104795,1,0,0:0:0:0:
152,256,105132,1,0,0:0:0:0:
256,192,105806,12,0,107828,0:0:0:0:
216,192,108502,5,4,0:0:0:0:
216,192,109177,1,4,0:0:0:0:
216,192,109851,1,4,0:0:0:0:
216,192,110188,1,4,0:0:0:0:
216,200,110525,1,4,0:0:0:0:
216,200,111199,1,0,0:0:0:0:
216,200,111536,1,0,0:0:0:0:
216,200,111873,1,0,0:0:0:0:
216,200,112210,1,0,0:0:0:0:
216,200,112379,1,0,0:0:0:0:
216,200,112547,1,0,0:0:0:0:
216,200,112884,1,0,0:0:0:0:
216,200,113222,1,8,0:0:0:0:
216,200,113559,1,8,0:0:0:0:
216,200,113896,1,0,0:0:0:0:
216,200,114233,1,0,0:0:0:0:
216,200,114570,1,0,0:0:0:0:
216,200,114907,1,0,0:0:0:0:
216,200,115075,1,0,0:0:0:0:
216,200,115244,1,0,0:0:0:0:
216,200,115581,1,0,0:0:0:0:
216,200,115918,1,8,0:0:0:0:
216,200,116255,1,8,0:0:0:0:
216,200,116592,1,0,0:0:0:0:
216,200,116929,1,0,0:0:0:0:
216,200,117266,1,0,0:0:0:0:
216,200,117604,1,0,0:0:0:0:
216,200,117772,1,0,0:0:0:0:
216,200,118109,1,0,0:0:0:0:
216,200,118278,1,4,0:0:0:0:
216,200,118615,1,12,0:0:0:0:
216,200,119289,1,4,0:0:0:0:
