osu file format v13

[General]
AudioFilename: ddd.mp3
AudioLeadIn: 0
PreviewTime: 150
Countdown: 0
SampleSet: Normal
StackLeniency: 0.7
Mode: 1
LetterboxInBreaks: 0
WidescreenStoryboard: 0

[Editor]
Bookmarks: 122280
DistanceSpacing: 0.8
BeatDivisor: 4
GridSize: 32
TimelineZoom: 2.3

[Metadata]
Title:Yuugen no Ran
TitleUnicode:幽玄ノ乱
Artist:Zeami
ArtistUnicode:世阿弥
Creator:Firce777
Version:Oni
Source:Taiko no Tatsujin
Tags:Tatsh, Tatsuya Shimizu,
BeatmapID:440979
BeatmapSetID:184169

[Difficulty]
HPDrainRate:5
CircleSize:5
OverallDifficulty:5
ApproachRate:5
SliderMultiplier:1.4
SliderTickRate:1

[Events]
//Background and Video events
0,0,"BG.png",0,0
//Break Periods
//Storyboard Layer 0 (Background)
//Storyboard Layer 1 (Fail)
//Storyboard Layer 2 (Pass)
//Storyboard Layer 3 (Foreground)
//Storyboard Sound Samples
//Background Colour Transformations
3,100,163,162,255

[TimingPoints]
150,375,4,1,0,60,1,0
16650,200,4,1,0,60,1,0
51850,-100,4,1,0,60,0,1
64650,-100,4,1,0,60,0,0
69450,-100,4,1,0,60,0,1
81450,200,6,1,0,60,1,1
82650,200,4,1,0,60,1,1
89050,200,4,1,0,60,1,0
89050,-100,4,1,0,60,0,0
104250,-100,4,1,0,60,0,1
121850,-100,4,1,0,60,0,0

[HitObjects]
256,192,150,5,0,0:0:0:0:
256,192,275,1,0,0:0:0:0:
256,192,400,1,0,0:0:0:0:
256,192,525,1,0,0:0:0:0:
256,192,900,1,0,0:0:0:0:
256,192,1025,1,0,0:0:0:0:
256,192,1150,1,0,0:0:0:0:
256,192,1275,1,0,0:0:0:0:
256,192,1650,1,0,0:0:0:0:
256,192,1775,1,0,0:0:0:0:
256,192,1900,1,0,0:0:0:0:
256,192,2025,1,0,0:0:0:0:
256,192,2400,1,0,0:0:0:0:
256,192,2525,1,0,0:0:0:0:
256,192,2650,1,0,0:0:0:0:
256,192,2775,1,2,0:0:0:0:
256,192,2900,1,2,0:0:0:0:
256,192,3025,1,2,0:0:0:0:
256,192,3150,1,0,0:0:0:0:
256,192,3275,1,0,0:0:0:0:
256,192,3400,1,0,0:0:0:0:
256,192,3524,1,0,0:0:0:0:
256,192,3900,1,0,0:0:0:0:
256,192,4025,1,0,0:0:0:0:
256,192,4150,1,0,0:0:0:0:
256,192,4275,1,0,0:0:0:0:
256,192,4650,1,0,0:0:0:0:
256,192,4775,1,0,0:0:0:0:
256,192,4900,1,0,0:0:0:0:
256,192,5025,1,0,0:0:0:0:
256,192,5400,1,2,0:0:0:0:
256,192,5525,1,2,0:0:0:0:
256,192,5650,1,0,0:0:0:0:
256,192,5775,1,2,0:0:0:0:
256,192,5900,1,2,0:0:0:0:
256,192,6025,1,0,0:0:0:0:
256,192,6150,1,0,0:0:0:0:
256,192,6275,1,0,0:0:0:0:
256,192,6400,1,0,0:0:0:0:
256,192,6525,1,0,0:0:0:0:
256,192,6900,1,0,0:0:0:0:
256,192,7025,1,0,0:0:0:0:
256,192,7150,1,0,0:0:0:0:
256,192,7275,1,0,0:0:0:0:
256,192,7650,1,0,0:0:0:0:
256,192,7775,1,0,0:0:0:0:
256,192,7900,1,0,0:0:0:0:
256,192,8025,1,0,0:0:0:0:
256,192,8400,1,0,0:0:0:0:
256,192,8525,1,0,0:0:0:0:
256,192,8650,1,0,0:0:0:0:
256,192,8775,1,2,0:0:0:0:
256,192,8900,1,2,0:0:0:0:
256,192,9025,1,2,0:0:0:0:
256,192,9150,1,0,0:0:0:0:
256,192,9275,1,0,0:0:0:0:
256,192,9400,1,0,0:0:0:0:
256,192,9524,1,0,0:0:0:0:
256,192,9900,1,0,0:0:0:0:
256,192,10025,1,0,0:0:0:0:
256,192,10150,1,0,0:0:0:0:
256,192,10275,1,0,0:0:0:0:
256,192,10650,1,0,0:0:0:0:
256,192,10775,1,0,0:0:0:0:
256,192,10900,1,0,0:0:0:0:
256,192,11025,1,0,0:0:0:0:
256,192,11400,1,2,0:0:0:0:
256,192,11525,1,2,0:0:0:0:
256,192,11650,1,0,0:0:0:0:
256,192,11775,1,2,0:0:0:0:
256,192,11900,1,0,0:0:0:0:
256,192,12025,1,2,0:0:0:0:
256,192,12150,1,2,0:0:0:0:
256,192,12275,1,0,0:0:0:0:
256,192,12400,1,0,0:0:0:0:
256,192,12525,1,0,0:0:0:0:
256,192,12650,1,2,0:0:0:0:
256,192,12775,1,0,0:0:0:0:
256,192,12900,1,2,0:0:0:0:
256,192,13025,1,0,0:0:0:0:
256,192,13150,1,2,0:0:0:0:
256,192,13275,1,0,0:0:0:0:
256,192,13400,1,2,0:0:0:0:
256,192,13525,1,0,0:0:0:0:
256,192,13650,1,2,0:0:0:0:
256,192,13775,1,0,0:0:0:0:
256,192,13900,1,2,0:0:0:0:
256,192,14025,1,2,0:0:0:0:
256,192,14150,1,0,0:0:0:0:
256,192,14275,1,2,0:0:0:0:
256,192,14400,1,2,0:0:0:0:
256,192,14525,1,0,0:0:0:0:
256,192,14650,1,2,0:0:0:0:
256,192,14775,1,0,0:0:0:0:
256,192,14900,1,2,0:0:0:0:
256,192,15025,1,0,0:0:0:0:
256,192,16650,1,2,0:0:0:0:
256,192,16750,1,0,0:0:0:0:
256,192,16850,1,2,0:0:0:0:
256,192,16950,1,0,0:0:0:0:
256,192,17050,1,2,0:0:0:0:
256,192,17150,1,0,0:0:0:0:
256,192,17200,1,0,0:0:0:0:
256,192,17350,1,2,0:0:0:0:
256,192,17450,1,2,0:0:0:0:
256,192,17550,1,2,0:0:0:0:
256,192,17650,1,2,0:0:0:0:
256,192,17750,1,0,0:0:0:0:
256,192,17850,1,2,0:0:0:0:
256,192,17950,1,2,0:0:0:0:
256,192,18050,1,0,0:0:0:0:
256,192,18100,1,0,0:0:0:0:
256,192,18150,1,2,0:0:0:0:
256,192,18250,1,2,0:0:0:0:
256,192,18350,1,0,0:0:0:0:
256,192,18450,1,2,0:0:0:0:
256,192,18550,1,0,0:0:0:0:
256,192,18650,1,2,0:0:0:0:
256,192,18750,1,0,0:0:0:0:
256,192,18800,1,0,0:0:0:0:
256,192,18950,1,2,0:0:0:0:
256,192,19050,1,2,0:0:0:0:
256,192,19150,1,2,0:0:0:0:
256,192,19250,1,0,0:0:0:0:
256,192,19350,1,2,0:0:0:0:
256,192,19450,1,2,0:0:0:0:
256,192,19550,1,0,0:0:0:0:
256,192,19650,1,0,0:0:0:0:
256,192,19700,1,0,0:0:0:0:
256,192,19750,1,2,0:0:0:0:
256,192,19850,1,2,0:0:0:0:
256,192,19950,1,0,0:0:0:0:
256,192,20050,1,2,0:0:0:0:
256,192,20150,1,0,0:0:0:0:
256,192,20250,1,2,0:0:0:0:
256,192,20350,1,0,0:0:0:0:
256,192,20450,1,0,0:0:0:0:
256,192,20550,1,2,0:0:0:0:
256,192,20650,1,2,0:0:0:0:
256,192,20750,1,0,0:0:0:0:
256,192,20850,1,0,0:0:0:0:
256,192,20950,1,2,0:0:0:0:
256,192,21050,1,0,0:0:0:0:
256,192,21150,1,0,0:0:0:0:
256,192,21200,1,2,0:0:0:0:
256,192,21250,1,0,0:0:0:0:
256,192,21300,1,2,0:0:0:0:
256,192,21350,1,2,0:0:0:0:
256,192,21400,1,2,0:0:0:0:
256,192,21450,1,0,0:0:0:0:
256,192,21550,1,2,0:0:0:0:
256,192,21650,1,0,0:0:0:0:
256,192,21750,1,2,0:0:0:0:
256,192,21850,1,0,0:0:0:0:
256,192,21950,1,2,0:0:0:0:
256,192,22000,1,2,0:0:0:0:
256,192,22050,1,2,0:0:0:0:
256,192,22150,1,2,0:0:0:0:
256,192,22250,1,0,0:0:0:0:
256,192,22350,1,2,0:0:0:0:
256,192,22450,1,0,0:0:0:0:
256,192,22500,1,0,0:0:0:0:
256,192,22550,1,2,0:0:0:0:
256,192,22600,1,0,0:0:0:0:
256,192,22650,1,2,0:0:0:0:
256,192,22700,1,0,0:0:0:0:
256,192,22750,1,2,0:0:0:0:
256,192,22850,1,0,0:0:0:0:
256,192,22900,1,0,0:0:0:0:
256,192,22950,1,2,0:0:0:0:
256,192,23000,1,2,0:0:0:0:
256,192,23050,1,0,0:0:0:0:
256,192,23150,1,2,0:0:0:0:
256,192,23250,1,0,0:0:0:0:
256,192,23350,1,2,0:0:0:0:
256,192,23450,1,0,0:0:0:0:
256,192,23550,1,2,0:0:0:0:
256,192,23600,1,2,0:0:0:0:
256,192,23650,1,0,0:0:0:0:
256,192,23700,1,0,0:0:0:0:
256,192,23750,1,2,0:0:0:0:
256,192,23850,1,0,0:0:0:0:
256,192,23950,1,2,0:0:0:0:
256,192,24050,1,0,0:0:0:0:
256,192,24150,1,2,0:0:0:0:
256,192,24250,1,0,0:0:0:0:
256,192,24350,1,2,0:0:0:0:
256,192,24400,1,2,0:0:0:0:
256,192,24450,1,0,0:0:0:0:
256,192,24500,1,2,0:0:0:0:
256,192,24550,1,2,0:0:0:0:
256,192,24650,1,0,0:0:0:0:
256,192,24750,1,2,0:0:0:0:
256,192,24850,1,0,0:0:0:0:
256,192,24950,1,2,0:0:0:0:
256,192,25050,1,0,0:0:0:0:
256,192,25100,1,0,0:0:0:0:
256,192,25150,1,2,0:0:0:0:
256,192,25200,1,2,0:0:0:0:
256,192,25250,1,0,0:0:0:0:
256,192,25300,1,0,0:0:0:0:
256,192,25350,1,2,0:0:0:0:
256,192,25400,1,2,0:0:0:0:
256,192,25450,1,0,0:0:0:0:
256,192,25550,1,2,0:0:0:0:
256,192,25650,1,0,0:0:0:0:
256,192,25750,1,2,0:0:0:0:
256,192,25850,1,0,0:0:0:0:
256,192,25950,1,2,0:0:0:0:
256,192,26000,1,2,0:0:0:0:
256,192,26050,1,2,0:0:0:0:
256,192,26100,1,2,0:0:0:0:
256,192,26150,1,2,0:0:0:0:
256,192,26200,1,2,0:0:0:0:
256,192,26250,1,0,0:0:0:0:
256,192,26350,1,2,0:0:0:0:
256,192,26450,1,0,0:0:0:0:
256,192,26550,1,2,0:0:0:0:
256,192,26650,1,0,0:0:0:0:
256,192,26750,1,2,0:0:0:0:
256,192,26800,1,2,0:0:0:0:
256,192,26850,1,0,0:0:0:0:
256,192,26900,1,0,0:0:0:0:
256,192,26950,1,2,0:0:0:0:
256,192,27050,1,0,0:0:0:0:
256,192,27150,1,2,0:0:0:0:
256,192,27250,1,0,0:0:0:0:
256,192,27350,1,2,0:0:0:0:
256,192,27450,1,0,0:0:0:0:
256,192,27550,1,2,0:0:0:0:
256,192,27600,1,2,0:0:0:0:
256,192,27650,1,0,0:0:0:0:
256,192,27700,1,2,0:0:0:0:
256,192,27750,1,2,0:0:0:0:
256,192,27850,1,0,0:0:0:0:
256,192,27950,1,2,0:0:0:0:
256,192,28050,1,0,0:0:0:0:
256,192,28150,1,2,0:0:0:0:
256,192,28250,1,0,0:0:0:0:
256,192,28300,1,0,0:0:0:0:
256,192,28350,1,2,0:0:0:0:
256,192,28400,1,2,0:0:0:0:
256,192,28450,1,0,0:0:0:0:
256,192,28500,1,0,0:0:0:0:
256,192,28550,1,2,0:0:0:0:
256,192,28600,1,2,0:0:0:0:
256,192,28650,1,0,0:0:0:0:
256,192,28750,1,2,0:0:0:0:
256,192,28850,1,0,0:0:0:0:
256,192,28950,1,2,0:0:0:0:
256,192,29050,1,0,0:0:0:0:
256,192,29150,1,2,0:0:0:0:
256,192,29200,1,2,0:0:0:0:
256,192,29250,1,2,0:0:0:0:
256,192,29300,1,2,0:0:0:0:
256,192,29350,1,2,0:0:0:0:
256,192,29400,1,2,0:0:0:0:
256,192,29450,1,0,0:0:0:0:
256,192,29550,1,2,0:0:0:0:
256,192,29650,1,0,0:0:0:0:
256,192,29750,1,2,0:0:0:0:
256,192,29850,1,0,0:0:0:0:
256,192,29950,1,2,0:0:0:0:
256,192,30050,1,0,0:0:0:0:
256,192,30150,1,2,0:0:0:0:
256,192,30200,1,2,0:0:0:0:
256,192,30250,1,0,0:0:0:0:
256,192,30300,1,0,0:0:0:0:
256,192,30350,1,0,0:0:0:0:
256,192,30400,1,0,0:0:0:0:
256,192,30450,1,2,0:0:0:0:
256,192,30500,1,2,0:0:0:0:
256,192,30550,1,2,0:0:0:0:
256,192,30600,1,2,0:0:0:0:
256,192,30650,1,0,0:0:0:0:
256,192,30700,1,0,0:0:0:0:
256,192,30750,1,0,0:0:0:0:
256,192,30800,1,0,0:0:0:0:
256,192,30850,1,2,0:0:0:0:
256,192,30900,1,2,0:0:0:0:
256,192,30950,1,2,0:0:0:0:
256,192,31000,1,2,0:0:0:0:
256,192,31050,1,0,0:0:0:0:
256,192,31100,1,0,0:0:0:0:
256,192,31150,1,2,0:0:0:0:
256,192,31200,1,2,0:0:0:0:
256,192,31250,1,0,0:0:0:0:
256,192,31300,1,0,0:0:0:0:
256,192,31350,1,2,0:0:0:0:
256,192,31400,1,2,0:0:0:0:
256,192,31450,1,0,0:0:0:0:
256,192,31500,1,2,0:0:0:0:
256,192,31550,1,2,0:0:0:0:
256,192,31600,1,2,0:0:0:0:
256,192,31650,1,2,0:0:0:0:
256,192,31700,1,2,0:0:0:0:
256,192,31750,1,2,0:0:0:0:
256,192,31800,1,2,0:0:0:0:
256,192,31850,1,0,0:0:0:0:
256,192,32050,1,0,0:0:0:0:
256,192,32350,1,0,0:0:0:0:
256,192,32450,1,0,0:0:0:0:
256,192,32500,1,2,0:0:0:0:
256,192,32550,1,2,0:0:0:0:
256,192,32600,1,2,0:0:0:0:
256,192,32650,1,0,0:0:0:0:
256,192,32750,1,0,0:0:0:0:
256,192,32850,1,0,0:0:0:0:
256,192,33050,1,2,0:0:0:0:
256,192,33150,1,2,0:0:0:0:
256,192,33250,1,2,0:0:0:0:
256,192,33450,1,0,0:0:0:0:
256,192,33550,1,0,0:0:0:0:
256,192,33650,1,0,0:0:0:0:
256,192,33850,1,2,0:0:0:0:
256,192,33950,1,0,0:0:0:0:
256,192,34050,1,2,0:0:0:0:
256,192,34150,1,0,0:0:0:0:
256,192,34200,1,2,0:0:0:0:
256,192,34250,1,0,0:0:0:0:
256,192,34350,1,0,0:0:0:0:
256,192,34450,1,0,0:0:0:0:
256,192,34650,1,2,0:0:0:0:
256,192,34750,1,2,0:0:0:0:
256,192,34850,1,2,0:0:0:0:
256,192,35050,1,0,0:0:0:0:
256,192,35150,1,0,0:0:0:0:
256,192,35250,1,0,0:0:0:0:
256,192,35450,1,0,0:0:0:0:
256,192,35500,1,2,0:0:0:0:
256,192,35550,1,2,0:0:0:0:
256,192,35600,1,2,0:0:0:0:
256,192,35650,1,0,0:0:0:0:
256,192,35700,1,2,0:0:0:0:
256,192,35750,1,2,0:0:0:0:
256,192,35800,1,2,0:0:0:0:
256,192,35850,1,0,0:0:0:0:
256,192,35950,1,0,0:0:0:0:
256,192,36050,1,0,0:0:0:0:
256,192,36250,1,2,0:0:0:0:
256,192,36350,1,2,0:0:0:0:
256,192,36450,1,2,0:0:0:0:
256,192,36650,1,0,0:0:0:0:
256,192,36750,1,0,0:0:0:0:
256,192,36850,1,0,0:0:0:0:
256,192,37050,1,2,0:0:0:0:
256,192,37100,1,0,0:0:0:0:
256,192,37150,1,2,0:0:0:0:
256,192,37200,1,0,0:0:0:0:
256,192,37250,1,2,0:0:0:0:
256,192,37300,1,0,0:0:0:0:
256,192,37350,1,2,0:0:0:0:
256,192,37400,1,2,0:0:0:0:
256,192,37450,1,0,0:0:0:0:
256,192,37550,1,0,0:0:0:0:
256,192,37650,1,0,0:0:0:0:
256,192,37850,1,2,0:0:0:0:
256,192,37950,1,2,0:0:0:0:
256,192,38050,1,2,0:0:0:0:
256,192,38250,1,0,0:0:0:0:
256,192,38350,1,0,0:0:0:0:
256,192,38450,1,0,0:0:0:0:
256,192,38650,1,0,0:0:0:0:
256,192,38700,1,2,0:0:0:0:
256,192,38750,1,2,0:0:0:0:
256,192,38800,1,2,0:0:0:0:
256,192,38850,1,0,0:0:0:0:
256,192,38900,1,0,0:0:0:0:
256,192,38950,1,2,0:0:0:0:
256,192,39000,1,2,0:0:0:0:
256,192,39050,1,2,0:0:0:0:
256,192,39150,1,2,0:0:0:0:
256,192,39250,1,0,0:0:0:0:
256,192,39350,1,0,0:0:0:0:
256,192,39450,1,2,0:0:0:0:
256,192,39550,1,2,0:0:0:0:
256,192,39650,1,0,0:0:0:0:
256,192,39750,1,0,0:0:0:0:
256,192,39850,1,2,0:0:0:0:
256,192,39900,1,2,0:0:0:0:
256,192,39950,1,2,0:0:0:0:
256,192,40000,1,2,0:0:0:0:
256,192,40050,1,0,0:0:0:0:
256,192,40100,1,0,0:0:0:0:
256,192,40150,1,0,0:0:0:0:
256,192,40200,1,0,0:0:0:0:
256,192,40250,1,2,0:0:0:0:
256,192,40300,1,2,0:0:0:0:
256,192,40350,1,2,0:0:0:0:
256,192,40400,1,2,0:0:0:0:
256,192,40450,1,0,0:0:0:0:
256,192,40500,1,0,0:0:0:0:
256,192,40550,1,0,0:0:0:0:
256,192,40600,1,0,0:0:0:0:
256,192,40650,1,2,0:0:0:0:
256,192,40700,1,2,0:0:0:0:
256,192,40750,1,0,0:0:0:0:
256,192,40800,1,0,0:0:0:0:
256,192,40850,1,2,0:0:0:0:
256,192,40900,1,2,0:0:0:0:
256,192,40950,1,0,0:0:0:0:
256,192,41000,1,0,0:0:0:0:
256,192,41050,1,2,0:0:0:0:
256,192,41100,1,2,0:0:0:0:
256,192,41150,1,2,0:0:0:0:
256,192,41200,1,2,0:0:0:0:
256,192,41250,1,0,0:0:0:0:
256,192,41300,1,0,0:0:0:0:
256,192,41350,1,0,0:0:0:0:
256,192,41400,1,0,0:0:0:0:
256,192,41450,1,0,0:0:0:0:
256,192,41850,1,2,0:0:0:0:
256,192,42250,1,0,0:0:0:0:
256,192,42450,1,2,0:0:0:0:
256,192,42550,1,2,0:0:0:0:
256,192,42650,1,2,0:0:0:0:
256,192,42850,1,2,0:0:0:0:
256,192,43050,1,0,0:0:0:0:
256,192,43250,5,0,0:0:0:0:
256,192,43450,1,2,0:0:0:0:
256,192,43650,1,0,0:0:0:0:
256,192,43850,1,0,0:0:0:0:
256,192,44050,1,2,0:0:0:0:
256,192,44150,1,2,0:0:0:0:
256,192,44250,1,2,0:0:0:0:
256,192,44450,1,2,0:0:0:0:
256,192,44650,1,0,0:0:0:0:
256,192,45050,1,2,0:0:0:0:
256,192,45450,1,0,0:0:0:0:
256,192,45650,1,2,0:0:0:0:
256,192,45750,1,2,0:0:0:0:
256,192,45850,1,2,0:0:0:0:
256,192,46050,1,2,0:0:0:0:
256,192,46250,1,0,0:0:0:0:
256,192,46450,1,0,0:0:0:0:
256,192,46650,1,2,0:0:0:0:
256,192,46850,1,0,0:0:0:0:
256,192,47050,1,2,0:0:0:0:
256,192,47150,1,2,0:0:0:0:
256,192,47250,1,0,0:0:0:0:
256,192,47350,1,2,0:0:0:0:
256,192,47450,1,2,0:0:0:0:
256,192,47650,1,2,0:0:0:0:
256,192,47850,1,0,0:0:0:0:
256,192,48050,1,0,0:0:0:0:
256,192,48250,1,2,0:0:0:0:
256,192,48450,1,0,0:0:0:0:
256,192,48650,1,0,0:0:0:0:
256,192,48850,1,2,0:0:0:0:
256,192,48950,1,2,0:0:0:0:
256,192,49050,1,2,0:0:0:0:
256,192,49250,1,2,0:0:0:0:
256,192,49450,1,2,0:0:0:0:
256,192,49550,1,0,0:0:0:0:
256,192,49650,1,0,0:0:0:0:
256,192,49750,1,0,0:0:0:0:
256,192,49850,1,2,0:0:0:0:
256,192,49950,1,2,0:0:0:0:
256,192,50050,1,2,0:0:0:0:
256,192,50150,1,2,0:0:0:0:
256,192,50250,1,2,0:0:0:0:
256,192,50350,1,0,0:0:0:0:
256,192,50450,1,0,0:0:0:0:
256,192,50550,1,0,0:0:0:0:
256,192,50650,1,2,0:0:0:0:
256,192,50750,1,2,0:0:0:0:
256,192,50850,1,0,0:0:0:0:
256,192,50950,1,0,0:0:0:0:
256,192,51050,1,2,0:0:0:0:
256,192,51150,1,2,0:0:0:0:
256,192,51250,1,2,0:0:0:0:
256,192,51350,1,2,0:0:0:0:
256,192,51450,1,2,0:0:0:0:
256,192,51550,1,2,0:0:0:0:
256,192,51650,1,2,0:0:0:0:
256,192,51750,1,2,0:0:0:0:
256,192,51850,1,0,0:0:0:0:
256,192,51950,1,0,0:0:0:0:
256,192,52050,1,2,0:0:0:0:
256,192,52150,1,2,0:0:0:0:
256,192,52250,1,0,0:0:0:0:
256,192,52350,1,0,0:0:0:0:
256,192,52450,1,2,0:0:0:0:
256,192,52550,1,2,0:0:0:0:
256,192,52650,1,0,0:0:0:0:
256,192,52750,1,0,0:0:0:0:
256,192,52850,1,2,0:0:0:0:
256,192,52950,1,2,0:0:0:0:
256,192,53050,1,0,0:0:0:0:
256,192,53150,1,2,0:0:0:0:
256,192,53250,1,2,0:0:0:0:
256,192,53350,1,2,0:0:0:0:
256,192,53450,1,0,0:0:0:0:
256,192,53550,1,0,0:0:0:0:
256,192,53650,1,2,0:0:0:0:
256,192,53750,1,2,0:0:0:0:
256,192,53850,1,0,0:0:0:0:
256,192,53950,1,0,0:0:0:0:
256,192,54050,1,2,0:0:0:0:
256,192,54150,1,2,0:0:0:0:
256,192,54250,1,0,0:0:0:0:
256,192,54300,1,2,0:0:0:0:
256,192,54350,1,0,0:0:0:0:
256,192,54400,1,2,0:0:0:0:
256,192,54450,1,0,0:0:0:0:
256,192,54500,1,2,0:0:0:0:
256,192,54550,1,0,0:0:0:0:
256,192,54600,1,2,0:0:0:0:
256,192,54650,1,0,0:0:0:0:
256,192,54750,1,2,0:0:0:0:
256,192,54850,1,2,0:0:0:0:
256,192,54950,1,2,0:0:0:0:
256,192,55050,1,0,0:0:0:0:
256,192,55150,1,0,0:0:0:0:
256,192,55250,1,2,0:0:0:0:
256,192,55350,1,2,0:0:0:0:
256,192,55450,1,0,0:0:0:0:
256,192,55550,1,0,0:0:0:0:
256,192,55650,1,2,0:0:0:0:
256,192,55750,1,2,0:0:0:0:
256,192,55850,1,0,0:0:0:0:
256,192,55950,1,0,0:0:0:0:
256,192,56050,1,2,0:0:0:0:
256,192,56150,1,2,0:0:0:0:
256,192,56250,1,0,0:0:0:0:
256,192,56350,1,2,0:0:0:0:
256,192,56450,1,2,0:0:0:0:
256,192,56550,1,2,0:0:0:0:
256,192,56650,1,0,0:0:0:0:
256,192,56750,1,2,0:0:0:0:
256,192,56850,1,2,0:0:0:0:
256,192,56950,1,0,0:0:0:0:
256,192,57050,1,2,0:0:0:0:
256,192,57150,1,0,0:0:0:0:
256,192,57250,1,0,0:0:0:0:
256,192,57350,1,2,0:0:0:0:
256,192,57450,1,0,0:0:0:0:
256,192,57550,1,2,0:0:0:0:
256,192,57650,1,0,0:0:0:0:
256,192,57750,1,2,0:0:0:0:
256,192,57850,1,2,0:0:0:0:
256,192,57900,1,0,0:0:0:0:
256,192,58000,1,2,0:0:0:0:
256,192,58050,1,2,0:0:0:0:
256,192,58100,1,0,0:0:0:0:
256,192,58150,1,2,0:0:0:0:
256,192,58200,1,2,0:0:0:0:
256,192,58250,1,0,0:0:0:0:
256,192,58350,1,0,0:0:0:0:
256,192,58450,1,2,0:0:0:0:
256,192,58550,1,2,0:0:0:0:
256,192,58650,1,0,0:0:0:0:
256,192,58750,1,0,0:0:0:0:
256,192,58850,1,2,0:0:0:0:
256,192,58950,1,2,0:0:0:0:
256,192,59050,1,0,0:0:0:0:
256,192,59150,1,0,0:0:0:0:
256,192,59250,1,2,0:0:0:0:
256,192,59350,1,2,0:0:0:0:
256,192,59450,1,0,0:0:0:0:
256,192,59550,1,2,0:0:0:0:
256,192,59650,1,2,0:0:0:0:
256,192,59750,1,2,0:0:0:0:
256,192,59850,1,0,0:0:0:0:
256,192,59950,1,0,0:0:0:0:
256,192,60050,1,2,0:0:0:0:
256,192,60150,1,2,0:0:0:0:
256,192,60250,1,0,0:0:0:0:
256,192,60350,1,0,0:0:0:0:
256,192,60450,1,2,0:0:0:0:
256,192,60550,1,2,0:0:0:0:
256,192,60650,1,0,0:0:0:0:
256,192,60700,1,2,0:0:0:0:
256,192,60750,1,0,0:0:0:0:
256,192,60800,1,2,0:0:0:0:
256,192,60850,1,0,0:0:0:0:
256,192,60900,1,2,0:0:0:0:
256,192,60950,1,0,0:0:0:0:
256,192,61000,1,2,0:0:0:0:
256,192,61050,1,0,0:0:0:0:
256,192,61150,1,2,0:0:0:0:
256,192,61250,1,2,0:0:0:0:
256,192,61350,1,2,0:0:0:0:
256,192,61450,1,0,0:0:0:0:
256,192,61550,1,0,0:0:0:0:
256,192,61650,1,2,0:0:0:0:
256,192,61750,1,2,0:0:0:0:
256,192,61850,1,0,0:0:0:0:
256,192,61950,1,0,0:0:0:0:
256,192,62050,1,2,0:0:0:0:
256,192,62150,1,2,0:0:0:0:
256,192,62250,1,0,0:0:0:0:
256,192,62350,1,0,0:0:0:0:
256,192,62450,1,2,0:0:0:0:
256,192,62550,1,2,0:0:0:0:
256,192,62650,1,0,0:0:0:0:
256,192,62750,1,2,0:0:0:0:
256,192,62850,1,2,0:0:0:0:
256,192,62950,1,2,0:0:0:0:
256,192,63050,1,0,0:0:0:0:
256,192,63150,1,2,0:0:0:0:
256,192,63250,1,2,0:0:0:0:
256,192,63350,1,0,0:0:0:0:
256,192,63450,1,2,0:0:0:0:
256,192,63550,1,0,0:0:0:0:
256,192,63650,1,0,0:0:0:0:
256,192,63750,1,2,0:0:0:0:
256,192,63850,1,0,0:0:0:0:
256,192,63950,1,2,0:0:0:0:
256,192,64050,1,0,0:0:0:0:
256,192,64150,1,2,0:0:0:0:
256,192,64250,1,2,0:0:0:0:
256,192,64300,1,0,0:0:0:0:
256,192,64400,1,2,0:0:0:0:
256,192,64450,1,2,0:0:0:0:
256,192,64500,1,0,0:0:0:0:
256,192,64550,1,2,0:0:0:0:
256,192,64600,1,2,0:0:0:0:
256,192,64650,1,0,0:0:0:0:
256,192,64750,1,2,0:0:0:0:
256,192,64800,1,2,0:0:0:0:
256,192,64850,1,2,0:0:0:0:
256,192,64900,1,2,0:0:0:0:
256,192,64950,1,2,0:0:0:0:
256,192,65000,1,2,0:0:0:0:
256,192,65050,1,2,0:0:0:0:
256,192,65100,1,2,0:0:0:0:
256,192,65150,1,2,0:0:0:0:
256,192,65200,1,2,0:0:0:0:
256,192,65250,1,2,0:0:0:0:
256,192,65300,1,2,0:0:0:0:
256,192,65350,1,2,0:0:0:0:
256,192,65400,1,2,0:0:0:0:
256,192,65450,1,0,0:0:0:0:
256,192,65500,1,0,0:0:0:0:
256,192,65550,1,0,0:0:0:0:
256,192,65600,1,0,0:0:0:0:
256,192,65650,1,0,0:0:0:0:
256,192,65700,1,0,0:0:0:0:
256,192,65750,1,0,0:0:0:0:
256,192,65800,1,0,0:0:0:0:
256,192,65850,1,0,0:0:0:0:
256,192,65900,1,0,0:0:0:0:
256,192,65950,1,0,0:0:0:0:
256,192,66000,1,0,0:0:0:0:
256,192,66050,1,0,0:0:0:0:
256,192,66100,1,0,0:0:0:0:
256,192,66150,1,0,0:0:0:0:
256,192,66200,1,0,0:0:0:0:
256,192,66250,1,2,0:0:0:0:
256,192,66300,1,2,0:0:0:0:
256,192,66350,1,2,0:0:0:0:
256,192,66400,1,2,0:0:0:0:
256,192,66450,1,2,0:0:0:0:
256,192,66500,1,2,0:0:0:0:
256,192,66550,1,2,0:0:0:0:
256,192,66600,1,2,0:0:0:0:
256,192,66650,1,0,0:0:0:0:
256,192,66700,1,0,0:0:0:0:
256,192,66750,1,0,0:0:0:0:
256,192,66800,1,0,0:0:0:0:
256,192,66850,1,0,0:0:0:0:
256,192,66900,1,0,0:0:0:0:
256,192,66950,1,0,0:0:0:0:
256,192,67000,1,0,0:0:0:0:
256,192,67050,1,2,0:0:0:0:
256,192,67100,1,2,0:0:0:0:
256,192,67150,1,2,0:0:0:0:
256,192,67200,1,2,0:0:0:0:
256,192,67250,1,2,0:0:0:0:
256,192,67300,1,2,0:0:0:0:
256,192,67350,1,2,0:0:0:0:
256,192,67400,1,2,0:0:0:0:
256,192,67450,1,0,0:0:0:0:
256,192,67500,1,0,0:0:0:0:
256,192,67550,1,0,0:0:0:0:
256,192,67600,1,0,0:0:0:0:
256,192,67650,1,0,0:0:0:0:
256,192,67700,1,0,0:0:0:0:
256,192,67750,1,0,0:0:0:0:
256,192,67800,1,0,0:0:0:0:
256,192,67850,1,2,0:0:0:0:
256,192,67900,1,2,0:0:0:0:
256,192,67950,1,2,0:0:0:0:
256,192,68000,1,2,0:0:0:0:
256,192,68050,1,0,0:0:0:0:
256,192,68100,1,0,0:0:0:0:
256,192,68150,1,0,0:0:0:0:
256,192,68200,1,0,0:0:0:0:
256,192,68250,1,2,0:0:0:0:
256,192,68300,1,2,0:0:0:0:
256,192,68350,1,2,0:0:0:0:
256,192,68400,1,2,0:0:0:0:
256,192,68450,1,0,0:0:0:0:
256,192,68500,1,0,0:0:0:0:
256,192,68550,1,0,0:0:0:0:
256,192,68600,1,0,0:0:0:0:
256,192,68650,1,2,0:0:0:0:
256,192,68700,1,0,0:0:0:0:
256,192,68750,1,2,0:0:0:0:
256,192,68800,1,0,0:0:0:0:
256,192,68850,1,2,0:0:0:0:
256,192,68900,1,0,0:0:0:0:
256,192,68950,1,2,0:0:0:0:
256,192,69000,1,0,0:0:0:0:
256,192,69050,1,2,0:0:0:0:
256,192,69100,1,0,0:0:0:0:
256,192,69150,1,2,0:0:0:0:
256,192,69200,1,0,0:0:0:0:
256,192,69250,1,2,0:0:0:0:
256,192,69300,1,0,0:0:0:0:
256,192,69350,1,2,0:0:0:0:
256,192,69400,1,0,0:0:0:0:
256,192,69450,1,2,0:0:0:0:
256,192,69550,1,0,0:0:0:0:
256,192,69650,1,2,0:0:0:0:
256,192,69750,1,0,0:0:0:0:
256,192,69850,1,2,0:0:0:0:
256,192,69950,1,2,0:0:0:0:
256,192,70050,1,0,0:0:0:0:
256,192,70150,1,2,0:0:0:0:
256,192,70250,1,2,0:0:0:0:
256,192,70350,1,0,0:0:0:0:
256,192,70450,1,2,0:0:0:0:
256,192,70550,1,0,0:0:0:0:
256,192,70650,1,2,0:0:0:0:
256,192,70750,1,0,0:0:0:0:
256,192,70850,1,2,0:0:0:0:
256,192,70950,1,2,0:0:0:0:
256,192,71050,1,2,0:0:0:0:
256,192,71150,1,0,0:0:0:0:
256,192,71250,1,2,0:0:0:0:
256,192,71350,1,0,0:0:0:0:
256,192,71450,1,2,0:0:0:0:
256,192,71550,1,2,0:0:0:0:
256,192,71650,1,0,0:0:0:0:
256,192,71750,1,2,0:0:0:0:
256,192,71850,1,2,0:0:0:0:
256,192,71950,1,0,0:0:0:0:
256,192,72050,1,2,0:0:0:0:
256,192,72100,1,0,0:0:0:0:
256,192,72150,1,0,0:0:0:0:
256,192,72200,1,0,0:0:0:0:
256,192,72300,1,0,0:0:0:0:
256,192,72350,1,0,0:0:0:0:
256,192,72400,1,0,0:0:0:0:
256,192,72450,1,2,0:0:0:0:
256,192,72500,1,0,0:0:0:0:
256,192,72550,1,2,0:0:0:0:
256,192,72650,1,2,0:0:0:0:
256,192,72750,1,0,0:0:0:0:
256,192,72850,1,2,0:0:0:0:
256,192,72950,1,0,0:0:0:0:
256,192,73050,1,2,0:0:0:0:
256,192,73150,1,2,0:0:0:0:
256,192,73250,1,0,0:0:0:0:
256,192,73350,1,2,0:0:0:0:
256,192,73450,1,2,0:0:0:0:
256,192,73550,1,0,0:0:0:0:
256,192,73650,1,2,0:0:0:0:
256,192,73750,1,0,0:0:0:0:
256,192,73850,1,0,0:0:0:0:
256,192,73950,1,2,0:0:0:0:
256,192,74050,1,0,0:0:0:0:
256,192,74150,1,2,0:0:0:0:
256,192,74250,1,2,0:0:0:0:
256,192,74350,1,2,0:0:0:0:
256,192,74450,1,0,0:0:0:0:
256,192,74550,1,2,0:0:0:0:
256,192,74650,1,0,0:0:0:0:
256,192,74750,1,2,0:0:0:0:
256,192,74850,1,0,0:0:0:0:
256,192,74950,1,2,0:0:0:0:
256,192,75050,1,2,0:0:0:0:
256,192,75150,1,2,0:0:0:0:
256,192,75250,1,0,0:0:0:0:
256,192,75300,1,0,0:0:0:0:
256,192,75350,1,2,0:0:0:0:
256,192,75400,1,2,0:0:0:0:
256,192,75500,1,0,0:0:0:0:
256,192,75550,1,2,0:0:0:0:
256,192,75600,1,0,0:0:0:0:
256,192,75650,1,0,0:0:0:0:
256,192,75700,1,0,0:0:0:0:
256,192,75750,1,2,0:0:0:0:
256,192,75850,1,2,0:0:0:0:
256,192,75950,1,2,0:0:0:0:
256,192,76050,1,0,0:0:0:0:
256,192,76150,1,2,0:0:0:0:
256,192,76250,1,0,0:0:0:0:
256,192,76350,1,2,0:0:0:0:
256,192,76450,1,0,0:0:0:0:
256,192,76550,1,2,0:0:0:0:
256,192,76650,1,0,0:0:0:0:
256,192,76750,1,0,0:0:0:0:
256,192,76850,1,2,0:0:0:0:
256,192,76950,1,2,0:0:0:0:
256,192,77050,1,2,0:0:0:0:
256,192,77150,1,0,0:0:0:0:
256,192,77250,1,2,0:0:0:0:
256,192,77350,1,0,0:0:0:0:
256,192,77450,1,2,0:0:0:0:
256,192,77550,1,2,0:0:0:0:
256,192,77650,1,0,0:0:0:0:
256,192,77750,1,2,0:0:0:0:
256,192,77850,1,0,0:0:0:0:
256,192,77950,1,2,0:0:0:0:
256,192,78050,1,0,0:0:0:0:
256,192,78150,1,2,0:0:0:0:
256,192,78250,1,0,0:0:0:0:
256,192,78350,1,0,0:0:0:0:
256,192,78450,1,2,0:0:0:0:
256,192,78500,1,0,0:0:0:0:
256,192,78550,1,0,0:0:0:0:
256,192,78600,1,0,0:0:0:0:
256,192,78700,1,0,0:0:0:0:
256,192,78750,1,0,0:0:0:0:
256,192,78800,1,0,0:0:0:0:
256,192,78850,1,2,0:0:0:0:
256,192,78900,1,0,0:0:0:0:
256,192,78950,1,2,0:0:0:0:
256,192,79050,1,2,0:0:0:0:
256,192,79150,1,0,0:0:0:0:
256,192,79250,1,2,0:0:0:0:
256,192,79350,1,0,0:0:0:0:
256,192,79450,1,2,0:0:0:0:
256,192,79550,1,2,0:0:0:0:
256,192,79650,1,0,0:0:0:0:
256,192,79750,1,2,0:0:0:0:
256,192,79850,1,0,0:0:0:0:
256,192,79950,1,2,0:0:0:0:
256,192,80050,1,0,0:0:0:0:
256,192,80150,1,2,0:0:0:0:
256,192,80250,1,0,0:0:0:0:
256,192,80350,1,2,0:0:0:0:
256,192,80450,1,2,0:0:0:0:
256,192,80550,1,0,0:0:0:0:
256,192,80650,1,2,0:0:0:0:
256,192,80750,1,0,0:0:0:0:
256,192,80850,1,2,0:0:0:0:
256,192,80950,1,2,0:0:0:0:
256,192,81050,1,0,0:0:0:0:
256,192,81150,1,2,0:0:0:0:
256,192,81250,1,0,0:0:0:0:
256,192,81350,1,2,0:0:0:0:
256,192,81450,1,0,0:0:0:0:
256,192,81500,1,0,0:0:0:0:
256,192,81550,1,0,0:0:0:0:
256,192,81600,1,0,0:0:0:0:
256,192,81650,1,2,0:0:0:0:
256,192,81700,1,2,0:0:0:0:
256,192,81750,1,0,0:0:0:0:
256,192,81800,1,0,0:0:0:0:
256,192,81850,1,2,0:0:0:0:
256,192,81950,1,2,0:0:0:0:
256,192,82050,1,2,0:0:0:0:
256,192,82150,1,2,0:0:0:0:
256,192,82250,1,2,0:0:0:0:
256,192,82300,1,2,0:0:0:0:
256,192,82350,1,0,0:0:0:0:
256,192,82450,1,2,0:0:0:0:
256,192,82500,1,2,0:0:0:0:
256,192,82550,1,0,0:0:0:0:
256,192,82650,1,0,0:0:0:0:
256,192,82700,1,0,0:0:0:0:
256,192,82750,1,2,0:0:0:0:
256,192,82850,1,2,0:0:0:0:
256,192,82900,1,2,0:0:0:0:
256,192,82950,1,0,0:0:0:0:
256,192,83050,1,2,0:0:0:0:
256,192,83100,1,2,0:0:0:0:
256,192,83150,1,0,0:0:0:0:
256,192,83250,1,2,0:0:0:0:
256,192,83300,1,2,0:0:0:0:
256,192,83350,1,0,0:0:0:0:
256,192,83400,1,2,0:0:0:0:
256,192,83450,1,2,0:0:0:0:
256,192,83500,1,0,0:0:0:0:
256,192,83550,1,2,0:0:0:0:
256,192,83600,1,2,0:0:0:0:
256,192,83650,1,0,0:0:0:0:
256,192,83700,1,2,0:0:0:0:
256,192,83750,1,0,0:0:0:0:
256,192,83800,1,2,0:0:0:0:
256,192,83850,1,0,0:0:0:0:
256,192,84050,1,0,0:0:0:0:
256,192,84250,1,0,0:0:0:0:
256,192,84450,1,0,0:0:0:0:
256,192,84650,1,0,0:0:0:0:
256,192,84850,1,2,0:0:0:0:
256,192,84950,1,2,0:0:0:0:
256,192,85050,1,0,0:0:0:0:
256,192,85250,1,0,0:0:0:0:
256,192,85350,1,2,0:0:0:0:
256,192,85450,1,0,0:0:0:0:
256,192,85650,1,0,0:0:0:0:
256,192,85750,1,2,0:0:0:0:
256,192,85850,1,0,0:0:0:0:
256,192,85900,1,0,0:0:0:0:
256,192,85950,1,2,0:0:0:0:
256,192,86000,1,0,0:0:0:0:
256,192,86050,1,2,0:0:0:0:
256,192,86100,1,0,0:0:0:0:
256,192,86150,1,2,0:0:0:0:
256,192,86200,1,0,0:0:0:0:
256,192,86250,1,0,0:0:0:0:
256,192,86450,1,0,0:0:0:0:
256,192,86500,1,2,0:0:0:0:
256,192,86550,1,0,0:0:0:0:
256,192,86600,1,0,0:0:0:0:
256,192,86650,1,2,0:0:0:0:
256,192,86700,1,0,0:0:0:0:
256,192,86750,1,0,0:0:0:0:
256,192,86800,1,2,0:0:0:0:
256,192,86850,1,0,0:0:0:0:
256,192,87050,1,2,0:0:0:0:
256,192,87100,1,0,0:0:0:0:
256,192,87150,1,0,0:0:0:0:
256,192,87200,1,0,0:0:0:0:
256,192,87250,1,2,0:0:0:0:
256,192,87300,1,0,0:0:0:0:
256,192,87350,1,0,0:0:0:0:
256,192,87400,1,0,0:0:0:0:
256,192,87450,1,2,0:0:0:0:
256,192,87500,1,0,0:0:0:0:
256,192,87550,1,0,0:0:0:0:
256,192,87600,1,2,0:0:0:0:
256,192,87650,1,0,0:0:0:0:
256,192,87700,1,0,0:0:0:0:
256,192,87750,1,2,0:0:0:0:
256,192,87800,1,0,0:0:0:0:
256,192,87850,1,0,0:0:0:0:
256,192,87900,1,2,0:0:0:0:
256,192,87950,1,0,0:0:0:0:
256,192,88000,1,0,0:0:0:0:
256,192,88050,1,2,0:0:0:0:
256,192,88100,1,0,0:0:0:0:
256,192,88150,1,0,0:0:0:0:
256,192,88200,1,2,0:0:0:0:
256,192,88250,1,0,0:0:0:0:
256,192,88300,1,2,0:0:0:0:
256,192,88350,1,0,0:0:0:0:
256,192,88400,1,2,0:0:0:0:
256,192,88450,1,0,0:0:0:0:
256,192,88500,1,2,0:0:0:0:
256,192,88550,1,0,0:0:0:0:
256,192,88600,1,2,0:0:0:0:
256,192,88650,1,0,0:0:0:0:
256,192,88700,1,2,0:0:0:0:
256,192,88750,1,0,0:0:0:0:
256,192,88800,1,2,0:0:0:0:
256,192,88850,1,0,0:0:0:0:
256,192,88900,1,2,0:0:0:0:
256,192,88950,1,0,0:0:0:0:
256,192,89000,1,2,0:0:0:0:
256,192,89050,1,0,0:0:0:0:
256,192,89250,1,0,0:0:0:0:
256,192,89550,1,4,0:0:0:0:
256,192,89850,1,2,0:0:0:0:
256,192,90050,1,2,0:0:0:0:
256,192,90350,1,6,0:0:0:0:
256,192,90650,1,0,0:0:0:0:
256,192,90850,1,0,0:0:0:0:
256,192,91150,1,4,0:0:0:0:
256,192,91450,1,2,0:0:0:0:
256,192,91650,1,2,0:0:0:0:
256,192,91950,1,6,0:0:0:0:
256,192,92250,1,0,0:0:0:0:
256,192,92450,1,0,0:0:0:0:
256,192,92750,1,4,0:0:0:0:
256,192,93050,1,2,0:0:0:0:
256,192,93250,1,2,0:0:0:0:
256,192,93550,1,6,0:0:0:0:
256,192,93850,1,0,0:0:0:0:
256,192,94050,1,0,0:0:0:0:
256,192,94350,1,4,0:0:0:0:
256,192,94650,1,2,0:0:0:0:
256,192,94750,1,2,0:0:0:0:
256,192,94850,1,0,0:0:0:0:
256,192,94950,1,2,0:0:0:0:
256,192,95050,1,2,0:0:0:0:
256,192,95150,1,0,0:0:0:0:
256,192,95250,1,2,0:0:0:0:
256,192,95300,1,2,0:0:0:0:
256,192,95350,1,2,0:0:0:0:
256,192,95400,1,2,0:0:0:0:
256,192,95450,1,2,0:0:0:0:
256,192,95550,1,2,0:0:0:0:
256,192,95650,1,0,0:0:0:0:
256,192,95750,1,0,0:0:0:0:
256,192,95850,1,2,0:0:0:0:
256,192,95950,1,2,0:0:0:0:
256,192,96050,1,0,0:0:0:0:
256,192,96150,1,0,0:0:0:0:
256,192,96250,1,2,0:0:0:0:
256,192,96350,1,2,0:0:0:0:
256,192,96450,1,0,0:0:0:0:
256,192,96550,1,0,0:0:0:0:
256,192,96650,1,2,0:0:0:0:
256,192,96750,1,0,0:0:0:0:
256,192,96850,1,0,0:0:0:0:
256,192,96950,1,2,0:0:0:0:
256,192,97050,1,2,0:0:0:0:
256,192,97150,1,2,0:0:0:0:
256,192,97250,1,0,0:0:0:0:
256,192,97350,1,0,0:0:0:0:
256,192,97450,1,2,0:0:0:0:
256,192,97550,1,2,0:0:0:0:
256,192,97650,1,0,0:0:0:0:
256,192,97750,1,0,0:0:0:0:
256,192,97850,1,2,0:0:0:0:
256,192,97950,1,2,0:0:0:0:
256,192,98050,1,0,0:0:0:0:
256,192,98150,1,0,0:0:0:0:
256,192,98250,1,0,0:0:0:0:
256,192,98300,1,2,0:0:0:0:
256,192,98350,1,2,0:0:0:0:
256,192,98400,1,2,0:0:0:0:
256,192,98450,1,2,0:0:0:0:
256,192,98500,1,2,0:0:0:0:
256,192,98550,1,2,0:0:0:0:
256,192,98600,1,2,0:0:0:0:
256,192,98650,1,2,0:0:0:0:
256,192,98750,1,2,0:0:0:0:
256,192,98850,1,0,0:0:0:0:
256,192,98950,1,0,0:0:0:0:
256,192,99050,1,2,0:0:0:0:
256,192,99150,1,2,0:0:0:0:
256,192,99250,1,0,0:0:0:0:
256,192,99350,1,0,0:0:0:0:
256,192,99450,1,2,0:0:0:0:
256,192,99550,1,2,0:0:0:0:
256,192,99650,1,0,0:0:0:0:
256,192,99750,1,0,0:0:0:0:
256,192,99850,1,2,0:0:0:0:
256,192,99950,1,0,0:0:0:0:
256,192,100050,1,2,0:0:0:0:
256,192,100150,1,0,0:0:0:0:
256,192,100250,1,2,0:0:0:0:
256,192,100350,1,2,0:0:0:0:
256,192,100450,1,0,0:0:0:0:
256,192,100550,1,0,0:0:0:0:
256,192,100650,1,2,0:0:0:0:
256,192,100750,1,2,0:0:0:0:
256,192,100850,1,0,0:0:0:0:
256,192,100950,1,0,0:0:0:0:
256,192,101050,1,2,0:0:0:0:
256,192,101150,1,2,0:0:0:0:
256,192,101250,1,0,0:0:0:0:
256,192,101350,1,0,0:0:0:0:
256,192,101450,1,2,0:0:0:0:
256,192,101500,1,2,0:0:0:0:
256,192,101550,1,2,0:0:0:0:
256,192,101600,1,2,0:0:0:0:
256,192,101650,1,0,0:0:0:0:
256,192,101700,1,0,0:0:0:0:
256,192,101750,1,2,0:0:0:0:
256,192,101800,1,2,0:0:0:0:
256,192,101850,1,2,0:0:0:0:
256,192,101950,1,2,0:0:0:0:
256,192,102050,1,0,0:0:0:0:
256,192,102150,1,0,0:0:0:0:
256,192,102250,1,2,0:0:0:0:
256,192,102350,1,0,0:0:0:0:
256,192,102450,1,0,0:0:0:0:
256,192,102550,1,2,0:0:0:0:
256,192,102650,1,0,0:0:0:0:
256,192,102750,1,2,0:0:0:0:
256,192,102800,1,2,0:0:0:0:
256,192,102850,1,2,0:0:0:0:
256,192,102950,1,0,0:0:0:0:
256,192,103050,1,2,0:0:0:0:
256,192,103150,1,2,0:0:0:0:
256,192,103250,1,0,0:0:0:0:
256,192,103350,1,2,0:0:0:0:
256,192,103400,1,2,0:0:0:0:
256,192,103450,1,0,0:0:0:0:
256,192,103500,1,0,0:0:0:0:
256,192,103550,1,0,0:0:0:0:
256,192,103600,1,0,0:0:0:0:
256,192,103650,1,0,0:0:0:0:
256,192,103700,1,0,0:0:0:0:
256,192,103750,1,0,0:0:0:0:
256,192,103800,1,0,0:0:0:0:
256,192,103850,1,2,0:0:0:0:
256,192,103900,1,2,0:0:0:0:
256,192,103950,1,2,0:0:0:0:
256,192,104000,1,2,0:0:0:0:
256,192,104050,1,2,0:0:0:0:
256,192,104100,1,2,0:0:0:0:
256,192,104150,1,2,0:0:0:0:
256,192,104200,1,2,0:0:0:0:
256,192,104250,1,0,0:0:0:0:
256,192,104350,1,0,0:0:0:0:
256,192,104450,1,2,0:0:0:0:
256,192,104550,1,2,0:0:0:0:
256,192,104650,1,0,0:0:0:0:
256,192,104750,1,2,0:0:0:0:
256,192,104850,1,0,0:0:0:0:
256,192,104950,1,0,0:0:0:0:
256,192,105050,1,0,0:0:0:0:
256,192,105150,1,2,0:0:0:0:
256,192,105250,1,0,0:0:0:0:
256,192,105350,1,0,0:0:0:0:
256,192,105450,1,2,0:0:0:0:
256,192,105550,1,0,0:0:0:0:
256,192,105650,1,0,0:0:0:0:
256,192,105750,1,0,0:0:0:0:
256,192,105850,1,2,0:0:0:0:
256,192,105950,1,2,0:0:0:0:
256,192,106050,1,0,0:0:0:0:
256,192,106150,1,2,0:0:0:0:
256,192,106250,1,0,0:0:0:0:
256,192,106350,1,2,0:0:0:0:
256,192,106450,1,0,0:0:0:0:
256,192,106550,1,0,0:0:0:0:
256,192,106650,1,2,0:0:0:0:
256,192,106750,1,0,0:0:0:0:
256,192,106850,1,0,0:0:0:0:
256,192,106950,1,2,0:0:0:0:
256,192,107050,1,0,0:0:0:0:
256,192,107150,1,0,0:0:0:0:
256,192,107250,1,2,0:0:0:0:
256,192,107350,1,0,0:0:0:0:
256,192,107450,1,2,0:0:0:0:
256,192,107550,1,0,0:0:0:0:
256,192,107650,1,0,0:0:0:0:
256,192,107750,1,2,0:0:0:0:
256,192,107850,1,0,0:0:0:0:
256,192,107950,1,0,0:0:0:0:
256,192,108050,1,2,0:0:0:0:
256,192,108150,1,0,0:0:0:0:
256,192,108250,1,0,0:0:0:0:
256,192,108350,1,2,0:0:0:0:
256,192,108450,1,0,0:0:0:0:
256,192,108550,1,2,0:0:0:0:
256,192,108650,1,0,0:0:0:0:
256,192,108750,1,2,0:0:0:0:
256,192,108850,1,0,0:0:0:0:
256,192,108950,1,2,0:0:0:0:
256,192,109050,1,0,0:0:0:0:
256,192,109150,1,2,0:0:0:0:
256,192,109250,1,0,0:0:0:0:
256,192,109450,1,2,0:0:0:0:
256,192,109550,1,0,0:0:0:0:
256,192,109650,1,0,0:0:0:0:
256,192,109750,1,2,0:0:0:0:
256,192,109850,1,0,0:0:0:0:
256,192,110050,1,2,0:0:0:0:
256,192,110150,1,0,0:0:0:0:
256,192,110250,1,0,0:0:0:0:
256,192,110450,1,2,0:0:0:0:
256,192,110550,1,0,0:0:0:0:
256,192,110650,1,0,0:0:0:0:
256,192,110850,1,2,0:0:0:0:
256,192,110900,1,0,0:0:0:0:
256,192,110950,1,0,0:0:0:0:
256,192,111000,1,0,0:0:0:0:
256,192,111050,1,0,0:0:0:0:
256,192,111150,1,2,0:0:0:0:
256,192,111250,1,0,0:0:0:0:
256,192,111350,1,2,0:0:0:0:
256,192,111450,1,0,0:0:0:0:
256,192,111550,1,2,0:0:0:0:
256,192,111650,1,0,0:0:0:0:
256,192,111750,1,2,0:0:0:0:
256,192,111850,1,0,0:0:0:0:
256,192,111950,1,2,0:0:0:0:
256,192,112050,1,0,0:0:0:0:
256,192,112150,1,2,0:0:0:0:
256,192,112200,1,0,0:0:0:0:
256,192,112250,1,0,0:0:0:0:
256,192,112300,1,0,0:0:0:0:
256,192,112350,1,0,0:0:0:0:
256,192,112450,1,2,0:0:0:0:
256,192,112550,1,0,0:0:0:0:
256,192,112650,1,0,0:0:0:0:
256,192,112750,1,2,0:0:0:0:
256,192,112850,1,0,0:0:0:0:
256,192,112950,1,2,0:0:0:0:
256,192,113050,1,0,0:0:0:0:
256,192,113150,1,0,0:0:0:0:
256,192,113250,1,2,0:0:0:0:
256,192,113350,1,0,0:0:0:0:
256,192,113450,1,0,0:0:0:0:
256,192,113550,1,2,0:0:0:0:
256,192,113600,1,2,0:0:0:0:
256,192,113650,1,2,0:0:0:0:
256,192,113700,1,2,0:0:0:0:
256,192,113750,1,2,0:0:0:0:
256,192,113800,1,2,0:0:0:0:
256,192,113850,1,0,0:0:0:0:
256,192,113950,1,0,0:0:0:0:
256,192,114050,1,4,0:0:0:0:
256,192,114350,1,0,0:0:0:0:
256,192,114450,1,0,0:0:0:0:
256,192,114550,1,4,0:0:0:0:
256,192,114750,1,0,0:0:0:0:
256,192,114850,1,0,0:0:0:0:
256,192,114950,1,0,0:0:0:0:
256,192,115050,1,2,0:0:0:0:
256,192,115100,1,0,0:0:0:0:
256,192,115150,1,2,0:0:0:0:
256,192,115200,1,0,0:0:0:0:
256,192,115250,1,2,0:0:0:0:
256,192,115300,1,0,0:0:0:0:
256,192,115350,1,2,0:0:0:0:
256,192,115400,1,0,0:0:0:0:
256,192,115450,1,0,0:0:0:0:
256,192,115550,1,0,0:0:0:0:
256,192,115650,1,4,0:0:0:0:
256,192,115950,1,0,0:0:0:0:
256,192,116150,1,4,0:0:0:0:
256,192,116250,1,2,0:0:0:0:
256,192,116350,1,2,0:0:0:0:
256,192,116450,1,2,0:0:0:0:
256,192,116550,1,2,0:0:0:0:
256,192,116650,1,0,0:0:0:0:
256,192,116750,1,2,0:0:0:0:
256,192,116800,1,2,0:0:0:0:
256,192,116850,1,2,0:0:0:0:
256,192,116900,1,2,0:0:0:0:
256,192,116950,1,2,0:0:0:0:
256,192,117000,1,2,0:0:0:0:
256,192,117050,1,0,0:0:0:0:
256,192,117150,1,0,0:0:0:0:
256,192,117250,1,4,0:0:0:0:
256,192,117550,1,0,0:0:0:0:
256,192,117650,1,0,0:0:0:0:
256,192,117750,1,4,0:0:0:0:
256,192,117950,1,0,0:0:0:0:
256,192,118050,1,0,0:0:0:0:
256,192,118150,1,0,0:0:0:0:
256,192,118250,1,2,0:0:0:0:
256,192,118300,1,0,0:0:0:0:
256,192,118350,1,2,0:0:0:0:
256,192,118400,1,0,0:0:0:0:
256,192,118450,1,2,0:0:0:0:
256,192,118500,1,0,0:0:0:0:
256,192,118550,1,2,0:0:0:0:
256,192,118600,1,0,0:0:0:0:
256,192,118650,1,0,0:0:0:0:
256,192,118750,1,0,0:0:0:0:
256,192,118850,1,4,0:0:0:0:
256,192,119150,1,0,0:0:0:0:
256,192,119350,1,4,0:0:0:0:
256,192,119450,1,0,0:0:0:0:
256,192,119500,1,0,0:0:0:0:
256,192,119550,1,0,0:0:0:0:
256,192,119600,1,0,0:0:0:0:
256,192,119650,1,0,0:0:0:0:
256,192,119700,1,0,0:0:0:0:
256,192,119750,1,2,0:0:0:0:
256,192,119800,1,0,0:0:0:0:
256,192,119850,1,2,0:0:0:0:
256,192,119900,1,0,0:0:0:0:
256,192,119950,1,2,0:0:0:0:
256,192,120000,1,0,0:0:0:0:
256,192,120050,1,2,0:0:0:0:
256,192,120100,1,0,0:0:0:0:
256,192,120150,1,2,0:0:0:0:
256,192,120200,1,0,0:0:0:0:
256,192,120250,2,0,B|512:192|0:192|0:192|480:192|480:192|256:192,1,1120,0|0,0:0|0:0,0:0:0:0:
