osu file format v9

[General]
AudioFilename: ryogen no mai.mp3
AudioLeadIn: 0
PreviewTime: 92648
Countdown: 0
SampleSet: Normal
StackLeniency: 0.7
Mode: 0
LetterboxInBreaks: 1

[Editor]
Bookmarks: 25509,43970,62432,71662,83201
DistanceSpacing: 1.3
BeatDivisor: 4
GridSize: 4

[Metadata]
Title:Ryougen no Mai
Artist:Zeami
Creator:xierbaliti
Version:Oni
Source:Taiko no Tatsujin
Tags:Tatsh namco Firce777

[Difficulty]
HPDrainRate:7
CircleSize:5
OverallDifficulty:7
ApproachRate:9
SliderMultiplier:1.8
SliderTickRate:1

[Events]
//Background and Video events
0,0,"bg.jpg"
//Break Periods
//Storyboard Layer 0 (Background)
//Storyboard Layer 1 (Fail)
//Storyboard Layer 2 (Pass)
//Storyboard Layer 3 (Foreground)
//Storyboard Sound Samples
//Background Colour Transformations
3,100,163,162,255

[TimingPoints]
2712.30769230769,576.923076923077,4,1,1,65,1,0
21029,-100,4,1,2,5,0,0
25509,288.461538461538,4,1,2,40,1,0
25653,-100,4,1,1,30,0,0
26662,-100,4,1,2,30,0,0
27816,-100,4,1,1,45,0,0
28970,-100,4,1,2,45,0,0
29475,-100,4,1,1,45,0,0
30124,-100,4,1,1,55,0,0
31278,-100,4,1,2,55,0,0
31710,-100,4,1,1,55,0,0
33585,-100,4,1,2,55,0,0
33658,-100,4,1,1,55,0,0
33874,-100,4,1,2,55,0,0
33946,-100,4,1,1,55,0,0
34739,-100,4,1,1,60,0,0
35893,-100,4,1,2,60,0,0
36182,-100,4,1,2,50,0,0
36470,-100,4,1,1,25,0,0
36758,-100,4,1,1,15,0,0
37047,-100,4,1,1,60,0,0
38201,-100,4,1,2,60,0,0
38706,-100,4,1,1,60,0,0
39355,-100,4,1,2,65,0,0
39427,-100,4,1,1,65,0,0
40508,-100,4,1,2,65,0,0
40941,-100,4,1,1,65,0,0
41951,-100,4,1,1,65,0,0
43970,-100,4,1,1,70,0,0
45124,-100,4,1,2,70,0,0
45412,-100,4,1,1,70,0,0
46278,-100,4,1,2,70,0,0
46566,-100,4,1,1,70,0,0
47432,-100,4,1,2,70,0,0
47720,-100,4,1,1,70,0,0
48585,-100,4,1,2,70,0,0
48874,-100,4,1,1,70,0,0
49739,-100,4,1,2,70,0,0
50316,-100,4,1,1,70,0,0
52047,-100,4,1,2,70,0,0
52335,-100,4,1,1,70,0,0
52768,-100,4,1,1,65,0,0
52912,-100,4,1,1,60,0,0
53057,-100,4,1,1,50,0,0
53201,-83.3333333333333,4,1,2,75,0,0
53345,-83.3333333333333,4,1,1,70,0,0
54355,-83.3333333333333,4,1,2,70,0,0
54643,-83.3333333333333,4,1,1,70,0,0
57816,-133.333333333333,4,1,1,70,0,0
58970,-200,4,1,1,70,0,0
59547,-133.333333333333,4,1,2,70,0,0
60124,-133.333333333333,4,1,1,70,0,0
61278,-200,4,1,1,70,0,0
61855,-200,4,1,2,70,0,0
64162,-200,4,1,1,55,0,0
64739,-200,4,1,2,70,0,0
66470,-100,4,1,1,55,0,0
67047,-200,4,1,1,65,0,0
71662,-100,4,1,2,80,0,0
71662,-100,4,1,1,55,0,0
71807,-100,4,1,1,80,0,0
71951,-100,4,1,2,80,0,0
72095,-100,4,1,1,80,0,0
72239,-100,4,1,2,80,0,0
72383,-100,4,1,1,80,0,0
72528,-100,4,1,2,80,0,0
72672,-100,4,1,1,80,0,0
72816,-100,4,1,2,80,0,0
72960,-100,4,1,1,80,0,0
73105,-100,4,1,2,80,0,0
73249,-100,4,1,1,80,0,0
73393,-100,4,1,2,80,0,0
73537,-100,4,1,1,80,0,0
73682,-100,4,1,2,80,0,0
73826,-100,4,1,1,80,0,0
73970,-100,4,1,2,80,0,0
74114,-100,4,1,1,80,0,0
74258,-100,4,1,2,80,0,0
74403,-100,4,1,1,80,0,0
74547,-100,4,1,2,80,0,0
74691,-100,4,1,1,80,0,0
74835,-100,4,1,2,80,0,0
74980,-133.333333333333,4,1,2,80,0,0
75557,-133.333333333333,4,1,1,80,0,0
76278,-133.333333333333,4,1,1,70,0,0
83201,-200,4,1,2,5,0,0
84932,-200,4,1,1,65,0,0
85797,-200,4,1,2,5,0,0
86085,-200,4,1,2,10,0,0
87239,-200,4,1,1,65,0,0
88105,-200,4,1,2,5,0,0
88393,-200,4,1,2,10,0,0
89547,-200,4,1,1,65,0,0
92720,288.461538461538,4,2,1,80,1,1
101950,-100,4,2,1,90,0,1
111182,-200,4,1,1,70,0,0
114643,-200,4,1,1,60,0,0
115796,-200,4,1,1,80,0,0

[Colours]
Combo1 : 128,255,128
Combo2 : 255,128,255
Combo3 : 128,0,64
Combo4 : 128,128,255

[HitObjects]
160,136,2712,2,0,B|272:112,1,90
320,96,3289,1,0
336,240,3866,2,0,B|416:288,2,90
272,200,4731,1,0
272,200,5019,5,0
200,144,5308,1,0
200,144,5596,5,0
96,56,5885,1,0
96,56,6173,5,0
144,232,6462,1,0
320,208,6750,1,0
296,32,7039,1,0
216,128,7327,6,0,B|240:256,1,90
248,288,7904,1,0
348,132,8481,6,0,B|436:108,1,90
272,92,9058,2,0,B|180:80,1,90
336,40,9635,5,0
300,176,9923,1,0
276,100,10212,5,0
360,340,10500,1,0
428,356,10789,5,0
168,280,11077,1,0
104,312,11366,5,0
264,228,11654,1,0
104,144,11943,5,0
104,144,12231,1,0
104,144,12520,2,0,B|232:124,1,90
264,116,13096,5,0
372,132,13385,1,0
280,112,13673,5,0
148,148,13962,1,0
272,100,14250,5,0
336,268,14539,1,0
284,100,14827,5,0
140,328,15116,1,0
276,112,15404,5,0
268,156,15693,1,0
260,200,15981,1,0
252,244,16270,1,0
244,288,16558,5,0
184,272,16846,1,0
128,248,17135,1,0
68,228,17423,1,0
168,24,17712,5,0
176,112,18000,1,0
184,200,18289,1,0
192,288,18577,1,0
444,144,18866,5,0
316,188,19154,1,0
188,232,19443,1,0
60,276,19731,1,0
304,352,20020,5,0
256,256,20308,1,0
208,352,20596,1,0
256,256,20885,1,0
256,192,21029,12,0,24058
360,92,25509,5,4
344,92,25653,1,0
328,92,25797,1,2
312,92,25941,1,0
296,92,26085,1,0
280,92,26230,1,2
208,292,26662,5,4
304,292,26951,5,4
84,168,27816,5,0
124,152,27960,1,0
168,136,28105,1,2
208,120,28249,1,0
252,104,28393,1,0
292,88,28537,1,2
352,292,28970,5,4
160,292,29258,5,4
256,180,29475,5,0
256,180,29547,2,0,B|256:280,1,90,4|0
256,332,29835,2,0,B|256:380,3,45,0|0|0|0
256,332,30124,5,2
188,272,30268,1,0
212,184,30412,1,2
304,184,30557,1,0
324,272,30701,1,0
256,332,30845,1,2
184,72,31278,5,0
328,72,31566,5,0
256,108,31710,5,0
152,196,31855,1,2
188,324,31999,1,0
324,324,32143,1,0
360,196,32287,1,2
256,108,32432,1,4
256,108,33008,5,0
360,196,33153,1,2
324,324,33297,1,0
188,324,33441,1,0
152,196,33585,2,0,B|88:216,3,45,4|0|2|0
172,192,33874,2,0,B|188:96,1,90,4|0
184,72,34162,5,2
256,196,34451,1,8
328,312,34739,5,0
336,224,34883,1,0
416,268,35028,1,2
412,180,35172,1,0
332,136,35316,1,0
392,72,35460,1,2
124,136,35893,5,0
124,248,36182,5,0
388,248,36470,5,0
388,136,36758,5,0
184,84,37047,5,0
80,120,37191,1,0
168,184,37335,1,2
88,260,37480,1,0
196,272,37624,1,0
144,368,37768,1,2
388,304,38201,5,4
388,80,38489,5,4
320,192,38706,5,0
320,192,38778,2,0,B|232:208,1,90,4|0
124,224,39066,1,0
128,208,39138,1,0
132,192,39210,1,0
136,176,39283,1,0
140,160,39355,6,0,B|44:180,2,90,6|0|2
248,164,39787,1,0
328,92,39932,1,0
432,116,40076,1,2
440,336,40508,5,4
72,48,40797,6,0,B|84:144,1,90,4|0
100,244,41085,5,2
164,156,41230,1,0
260,104,41374,1,0
368,88,41518,1,2
472,112,41662,1,2
352,288,41951,6,0,B|340:376,2,90,0|2|0
384,72,42528,1,2
88,200,42816,5,0
424,184,43105,5,2
220,72,43393,5,2
224,96,43682,5,6
228,124,43970,5,0
336,144,44114,1,8
232,144,44403,5,0
132,180,44547,1,8
256,312,44835,5,0
244,288,44908,1,0
232,264,44980,1,0
220,240,45052,1,0
208,216,45124,2,0,B|140:276|140:276|28:260,1,180,0|8
280,104,45701,1,0
372,48,45845,1,8
464,100,45989,1,0
432,204,46133,1,0
324,208,46278,6,0,B|256:256|256:256|128:232,1,180,4|8
160,8,46855,1,0
160,8,46999,1,8
160,238,47432,2,0,B|172:148|172:148|272:120,1,180,4|8
364,100,47864,1,0
464,136,48008,2,0,B|488:36,1,90,0|8
384,208,48297,2,0,B|376:296,1,90,4|0
280,164,48585,6,0,B|220:100|220:100|120:104,1,180,4|8
20,112,49018,1,0
96,316,49307,1,8
184,256,49451,1,0
216,272,49523,1,0
248,288,49595,1,0
280,300,49667,1,0
312,316,49739,2,0,B|352:240|352:240|460:260,1,180,4|4
348,56,50316,5,0
272,136,50460,1,0
200,56,50605,1,8
280,300,50893,2,0,B|92:320,1,180,0|8
100,320,51470,5,0
85,321,51614,5,8
232,84,52047,6,0,B|420:64,1,180,0|8
428,64,52480,5,0
432,80,52624,6,0,B|448:140,1,45,2|0
392,124,52768,2,0,B|408:184,1,45,0|0
352,160,52912,2,0,B|368:224,1,45,0|0
308,192,53057,2,0,B|324:256,1,45,2|0
264,224,53201,6,0,B|140:308,1,108.000002574921,4|8
128,32,53633,2,0,B|260:68,1,108.000002574921,0|8
52,176,54066,1,0
64,172,54138,1,0
76,168,54210,1,0
88,164,54283,1,0
96,160,54355,5,0
320,328,54643,1,8
412,64,54932,1,0
216,96,55508,6,0,B|108:104,1,108.000002574921,0|8
160,316,55941,2,0,B|308:284,1,108.000002574921,0|8
412,136,56374,1,0
400,140,56446,1,0
388,144,56518,1,0
376,148,56590,1,0
368,152,56662,5,2
276,208,56951,1,8
180,160,57239,1,8
268,96,57528,1,2
268,96,57816,6,0,B|288:0,2,67.4999979883433,2|0|2
248,164,58393,1,8
224,228,58682,1,0
224,228,58826,1,0
224,228,58970,2,0,B|136:208|36:228,1,180,2|2
244,288,60124,6,0,B|220:380,2,67.4999979883433,2|0|2
264,220,60701,1,8
288,156,60989,1,0
288,156,61133,1,0
288,156,61278,2,0,B|376:176|476:156,1,180,2|2
448,96,62143,1,0
452,32,62432,5,4
468,28,62576,1,4
484,24,62720,1,4
120,192,63585,5,4
136,196,63730,1,4
152,200,63874,1,4
336,276,64162,5,2
364,200,64307,1,0
308,140,64451,1,2
236,176,64595,1,0
248,256,64739,5,4
224,276,64883,1,4
200,296,65028,1,4
264,128,65893,5,4
288,108,66037,1,4
312,88,66182,1,4
164,128,66470,5,2
48,120,66614,1,0
16,232,66758,1,0
112,300,66903,1,2
212,240,67047,6,0,B|284:308,1,90,0|2
296,212,67624,2,0,B|396:220,1,90,2|0
420,304,68201,2,0,B|508:264,2,90,0|2|2
244,340,69066,1,0
244,340,69210,1,0
244,340,69355,2,0,B|152:308,1,90,0|2
192,216,69932,2,0,B|92:236,1,90,2|0
44,156,70508,2,0,B|24:252,2,90,0|2|8
192,56,71662,5,4
236,136,71807,1,0
312,88,71951,1,2
344,172,72095,1,0
428,136,72239,5,4
368,48,72383,1,0
300,132,72528,1,2
196,108,72672,1,0
180,216,72816,5,4
60,156,72960,1,0
68,292,73105,1,2
196,332,73249,1,0
332,216,73393,5,4
452,156,73537,1,0
444,292,73682,1,2
316,332,73826,1,0
192,276,73970,5,6
60,180,74114,1,0
160,52,74258,1,2
256,184,74403,1,0
352,52,74547,1,4
452,180,74691,1,0
320,276,74835,1,2
216,116,75124,6,0,B|148:104,1,67.4999979883433,4|0
296,116,75412,2,0,B|364:104,1,67.4999979883433,4|0
256,228,75701,1,0
256,260,75845,1,0
256,292,75989,1,0
340,192,76278,6,0,B|480:172,2,134.999995976687,8|0|0
180,104,77143,2,0,B|40:84,2,134.999995976687,8|0|8
192,268,78009,1,0
360,84,78297,5,8
360,84,78441,1,0
360,84,78585,2,0,B|368:232,2,134.999995976687,8|0|0
152,300,79451,2,0,B|144:152,2,134.999995976687,8|0|8
256,192,80316,2,0,B|256:52,1,134.999995976687,0|8
224,48,80749,1,0
192,40,80893,6,0,B|104:28,1,67.4999979883433,8|0
108,272,81326,2,0,B|196:284,1,67.4999979883433,0|0
172,248,81614,2,0,B|176:332,1,67.4999979883433,8|0
140,320,81903,2,0,B|220:312,1,67.4999979883433
204,348,82191,2,0,B|220:200,1,134.999995976687,8|0
218,213,82624,5,0
220,204,82768,1,8
220,192,82912,1,0
256,192,83201,12,0,84066
328,100,84932,6,0,B|390:97,2,45
328,100,85509,2,0,B|140:108,1,180,8|0
184,284,87239,6,0,B|128:286,2,45
184,284,87816,2,0,B|372:276,1,180,8|0
368,196,89547,5,0
312,168,89691,1,0
256,196,89835,1,0
200,168,89980,1,0
144,196,90124,1,8
256,100,90701,5,0
192,268,90989,1,0
336,160,91278,1,8
176,160,91566,1,0
320,268,91855,1,0
400,272,92720,5,6
424,168,92864,1,2
416,168,92936,1,2
408,168,93009,2,0,B|396:72,1,90,10|8
296,36,93297,1,6
284,40,93369,1,10
296,148,93513,1,10
308,152,93585,1,10
208,116,93730,1,8
120,56,93874,5,6
116,64,93946,1,2
112,72,94018,1,10
108,80,94090,1,2
104,88,94162,1,10
92,280,94307,1,10
100,276,94379,1,8
108,272,94451,6,0,B|100:180,1,90,10|8
404,112,94739,2,0,B|412:204,1,90,2|10
404,204,94956,1,10
396,208,95027,2,0,B|372:296,1,90,14|8
292,252,95316,2,0,B|204:268,1,90,10|2
152,196,95605,1,2
148,188,95677,1,2
144,180,95749,1,10
140,172,95821,1,2
136,164,95893,2,0,B|216:124,1,90,8|8
372,60,96182,5,2
364,56,96254,1,2
356,52,96326,1,10
348,48,96398,1,10
340,44,96470,2,0,B|252:60,1,90,2|2
164,80,96759,1,10
156,80,96831,1,10
192,164,96975,1,10
200,164,97047,1,6
396,292,97335,5,6
388,296,97408,1,10
380,300,97480,1,2
372,304,97552,1,2
364,308,97624,2,0,B|352:220,2,90,14|8|2
212,284,98057,1,2
204,288,98129,1,2
196,292,98201,1,12
116,332,98345,1,8
64,260,98489,5,6
68,252,98561,1,8
160,192,98706,1,8
156,184,98778,1,10
96,116,98922,1,8
104,112,98994,1,8
112,108,99066,2,0,B|204:124,1,90,10|8
208,124,99283,1,2
216,124,99355,1,6
304,136,99499,1,2
412,280,99643,5,2
412,272,99715,1,2
412,264,99787,2,0,B|320:240,1,90,8|10
324,232,100004,1,10
320,224,100076,2,2,B|228:228,1,90,10|2
96,52,100509,5,10
184,68,100653,1,8
192,68,100725,1,8
200,68,100797,2,0,B|292:84,1,90,2|8
292,92,101013,1,8
296,100,101085,2,0,B|412:84,1,90,10|8
388,96,101302,1,8
392,104,101374,2,0,B|432:300,1,180,6|2
408,288,101734,1,2
388,296,101807,1,8
368,304,101879,1,8
348,312,101951,6,0,B|232:356,1,90,6|2
148,204,102239,1,14
160,184,102311,1,8
172,164,102384,1,2
184,144,102456,1,8
196,124,102528,2,0,B|184:72,3,45,2|8|0|2
224,116,102816,1,14
248,112,102888,1,2
272,108,102960,1,8
296,104,103033,1,8
320,100,103105,1,2
336,272,103393,6,0,B|396:280,3,45,10|2|8|0
336,272,103682,2,0,B|256:216,1,90,10|2
244,208,103898,1,8
228,196,103970,1,6
144,128,104114,1,6
172,344,104259,6,0,B|160:292,1,45,2|8
164,276,104403,2,0,B|176:216,1,45,2|8
176,208,104547,1,14
240,120,104691,1,2
236,96,104763,1,8
240,76,104835,2,0,B|300:52,4,45,2|2|2|2|14
220,64,105196,1,2
196,64,105268,1,10
176,52,105340,1,0
156,60,105412,6,0,B|112:44,3,45,6|2|10|2
96,60,105701,2,0,B|20:72,3,45,14|2|2|2
40,88,105989,2,0,B|28:160,1,45,14|8
36,156,106134,2,0,B|40:208|44:208,1,45,2|8
36,224,106278,1,6
292,304,106566,6,0,B|276:212,1,90,6|8
272,196,106783,1,8
268,172,106855,2,0,B|152:192,1,90,14|2
96,72,107143,1,2
120,76,107215,1,8
140,80,107287,1,2
160,84,107359,1,2
184,88,107432,2,0,B|288:80,1,90,10|10
380,72,107720,5,6
380,72,107792,1,8
356,176,107936,1,8
356,176,108009,1,10
464,160,108153,1,10
464,184,108225,1,2
464,208,108297,2,0,B|372:232,1,90,8|8
180,276,108585,2,0,B|288:292,1,90,6|8
292,292,108802,1,8
316,296,108874,6,0,B|328:352,3,45,2|2|10|0
316,296,109162,2,0,B|384:224,2,90,2|10|10
288,80,109739,1,2
268,92,109811,1,8
248,104,109884,1,2
228,116,109956,1,2
208,128,110028,2,0,B|96:112,1,90,6|2
118,115,110244,1,2
118,115,110316,2,0,B|32:156,2,90,6|8|14
172,284,111182,5,8
144,64,112335,1,8
108,168,112768,1,0
108,168,112912,1,0
172,136,113200,1,0
224,184,113489,1,8
208,144,114643,6,0,B|104:124,2,90,8|0|8
300,184,115797,1,4
256,264,116374,1,4
216,184,116951,1,4
