osu file format v9

[General]
AudioFilename: ryogen no mai.mp3
AudioLeadIn: 0
PreviewTime: 92648
Countdown: 1
SampleSet: Normal
StackLeniency: 0.7
Mode: 1
LetterboxInBreaks: 1

[Editor]
DistanceSpacing: 0.8
BeatDivisor: 4
GridSize: 8

[Metadata]
Title:Ryougen no Mai
Artist:Zeami
Creator:aquabluu
Version:Taiko Hard
Source:Taiko no Tatsujin
Tags:

[Difficulty]
HPDrainRate:5
CircleSize:5
OverallDifficulty:5
ApproachRate:5
SliderMultiplier:1.4
SliderTickRate:1

[Events]
//Background and Video events
0,0,"ryogen.jpg"
//Break Periods
//Storyboard Layer 0 (Background)
//Storyboard Layer 1 (Fail)
//Storyboard Layer 2 (Pass)
//Storyboard Layer 3 (Foreground)
//Storyboard Sound Samples
//Background Colour Transformations
3,100,163,162,255

[TimingPoints]
2712.30769230769,576.923076923077,4,1,0,100,1,0
25509,288.461538461538,4,1,0,100,1,0
92720,-100,4,1,0,100,0,1
111182,-100,4,1,0,100,0,0

[HitObjects]
140,239,2712,1,4
95,97,3289,5,2
178,138,3866,5,0
207,151,4154,1,0
280,203,4731,1,0
280,203,5019,1,0
119,254,5596,1,0
177,248,6173,1,0
133,164,6750,5,2
210,209,7327,5,0
75,276,7904,5,2
60,157,8481,5,0
104,159,8769,1,0
190,180,9346,1,0
218,192,9635,1,0
136,234,10212,1,0
213,241,10789,1,0
297,231,11077,5,2
334,240,11221,1,2
360,236,11365,1,2
72,128,11654,1,2
91,267,11943,5,4
123,204,12520,5,2
211,265,13096,5,0
248,280,13385,1,0
191,138,13962,5,2
211,174,14250,5,0
74,188,14827,5,2
104,221,15116,5,0
160,241,15404,1,0
209,244,15693,1,0
248,239,15981,5,2
104,146,16558,5,0
203,168,17135,5,2
296,211,17712,5,0
113,311,18000,1,0
89,197,18289,5,2
155,224,18866,5,0
212,245,19154,1,0
177,178,19443,5,2
259,244,19731,5,0
287,242,20020,1,0
77,124,20308,5,2
77,124,20452,1,2
148,121,20596,1,2
193,117,20885,1,2
52,215,25509,5,4
105,186,25797,1,0
184,180,26085,5,2
192,225,26374,5,0
209,271,26662,1,0
60,278,26951,5,2
91,280,27095,1,2
161,299,27239,1,2
300,306,27528,1,2
52,215,27816,5,4
105,186,28104,1,0
184,180,28392,5,2
192,225,28681,5,0
209,271,28969,1,0
60,278,29258,5,2
91,280,29402,1,2
161,299,29546,1,2
300,306,29835,1,2
52,215,30124,5,4
105,186,30412,1,0
184,180,30700,5,2
192,225,30989,5,0
209,271,31277,1,0
60,278,31566,5,2
91,280,31710,1,2
161,299,31854,1,2
300,306,32143,1,2
52,142,32432,5,4
123,143,32720,1,0
186,149,33008,5,2
121,204,33297,5,0
176,194,33585,5,2
223,228,33874,5,0
70,88,34162,5,2
123,143,34234,1,2
97,89,34307,1,2
217,96,34451,1,2
264,124,34595,1,2
79,301,34739,5,0
129,280,34883,5,2
158,279,35028,5,0
88,204,35316,5,2
231,266,35605,5,0
294,255,35893,1,0
42,118,36182,5,2
77,130,36326,1,2
130,133,36470,1,2
188,134,36758,1,2
79,301,37047,5,0
129,280,37191,5,2
158,279,37336,5,0
88,204,37624,5,2
231,266,37913,5,0
294,255,38201,1,0
42,118,38490,5,2
77,130,38634,1,2
130,133,38778,1,2
188,134,39066,1,2
79,301,39355,5,0
129,280,39499,5,2
158,279,39644,5,0
88,204,39932,5,2
231,266,40221,5,0
294,255,40509,1,0
42,118,40798,5,2
77,130,40942,1,2
130,133,41086,1,2
188,134,41374,1,2
79,301,41662,5,0
129,280,41806,5,2
158,279,41951,5,0
88,204,42239,5,2
231,266,42528,5,0
294,255,42816,5,2
66,132,43105,5,0
101,131,43249,1,0
157,136,43393,5,2
194,156,43537,1,2
194,156,43609,1,2
266,184,43682,5,0
332,181,43826,5,2
92,260,43970,1,2
124,258,44114,5,0
207,288,44258,5,2
260,300,44403,5,0
310,309,44547,5,2
92,260,45124,1,2
124,258,45268,5,0
207,288,45412,5,2
260,300,45557,5,0
310,309,45701,5,2
92,260,46278,1,2
124,258,46422,5,0
207,288,46566,5,2
260,300,46711,5,0
310,309,46855,5,2
102,62,47143,1,2
92,260,47432,1,2
124,258,47576,5,0
207,288,47720,5,2
260,300,47865,5,0
310,309,48009,5,2
53,141,48297,5,0
92,260,48585,5,2
124,258,48729,5,0
207,288,48873,5,2
260,300,49018,5,0
310,309,49162,5,2
92,260,49739,1,2
124,258,49883,5,0
207,288,50027,5,2
260,300,50172,5,0
310,309,50316,5,2
153,104,50605,1,2
92,260,50893,1,2
124,258,51037,5,0
207,288,51181,5,2
260,300,51326,5,0
310,309,51470,5,2
129,174,51758,5,0
92,260,52047,5,2
124,258,52191,5,0
207,288,52335,5,2
260,300,52480,5,0
310,309,52624,5,2
36,144,52768,5,0
36,144,52840,1,0
60,156,52913,1,0
89,184,53057,1,0
92,260,53201,5,2
124,258,53345,5,0
207,288,53489,5,2
260,300,53634,5,0
310,309,53778,5,2
92,260,54355,1,2
124,258,54499,5,0
207,288,54643,5,2
260,300,54788,5,0
310,309,54932,5,2
84,136,55220,5,0
132,130,55364,1,0
92,260,55508,5,2
124,258,55652,5,0
207,288,55796,5,2
260,300,55941,5,0
310,309,56085,5,2
202,147,56374,1,2
228,152,56518,1,2
92,260,56662,1,2
124,258,56806,5,0
207,288,56950,5,2
260,300,57095,5,0
310,309,57239,5,2
91,216,57528,1,0
92,260,57816,1,2
124,258,57960,5,0
207,288,58104,5,2
260,300,58249,5,0
310,309,58393,5,2
92,260,58970,1,2
124,258,59114,5,0
207,288,59258,5,2
260,300,59403,5,0
310,309,59547,5,2
92,260,60124,1,2
124,258,60268,5,0
207,288,60412,5,2
260,300,60557,5,0
310,309,60701,5,2
52,98,61278,2,0,L|193:107|185:248|339:244,1,420
47,209,62432,5,4
109,219,62576,1,4
109,219,62720,1,4
200,127,63585,5,6
280,133,63730,1,6
280,133,63874,1,6
56,227,64739,5,4
56,227,64883,1,4
108,257,65028,1,4
165,226,65893,5,6
202,253,66037,1,6
227,267,66182,1,6
128,140,67047,5,0
211,157,67624,5,2
85,216,68201,5,0
128,236,68489,1,0
188,264,68778,5,2
112,142,69355,5,0
215,176,69932,5,2
279,221,70508,5,0
332,233,70797,1,0
245,132,71085,5,2
48,128,71662,1,2
48,128,71807,1,2
96,152,71951,1,2
89,235,72239,5,0
155,87,72383,1,0
146,240,72528,1,0
48,128,72816,5,2
48,128,72961,1,2
96,152,73105,1,2
89,235,73393,5,0
155,87,73537,1,0
146,240,73682,1,0
48,128,73970,5,2
48,128,74115,1,2
96,152,74259,1,2
89,235,74547,5,0
155,87,74691,1,0
146,240,74836,1,0
228,180,75124,5,2
297,185,75268,5,0
272,125,75412,5,2
252,254,75557,5,0
338,249,75701,5,6
37,216,76278,5,0
56,260,76422,1,0
104,280,76566,1,0
71,139,76855,5,2
108,155,76927,1,2
135,176,76999,1,2
188,213,77143,1,2
236,278,77432,5,0
204,120,77576,1,0
236,136,77720,1,0
72,77,78008,5,2
111,81,78081,1,2
136,88,78153,1,2
214,80,78297,1,2
57,218,78585,5,0
112,208,78730,1,0
166,213,78874,1,0
235,201,79163,5,2
296,213,79235,1,2
296,213,79307,1,2
385,221,79452,1,2
56,226,79739,1,2
107,244,79884,5,0
145,225,80028,1,0
209,222,80172,1,0
292,200,80316,5,6
53,134,80893,5,0
101,137,81037,1,0
168,85,81182,1,0
236,122,81470,1,0
328,122,81614,1,0
254,196,81759,1,0
148,217,81903,1,0
61,286,82047,5,2
93,286,82119,1,2
126,285,82191,1,2
178,292,82336,1,2
63,168,82624,1,2
63,168,82696,1,2
135,188,82768,1,2
196,194,82912,1,2
54,242,83057,1,2
221,268,83201,5,4
176,89,83778,5,2
270,144,84355,1,2
96,203,84932,1,2
161,184,85220,5,0
220,209,85508,5,6
75,276,86085,1,2
154,263,86662,1,2
75,101,87239,1,2
123,134,87528,5,0
192,143,87816,5,6
145,276,88393,1,2
227,280,88970,1,2
93,133,89547,1,2
169,158,89835,5,0
232,164,90124,5,2
92,270,90701,1,2
149,258,90989,5,0
240,246,91278,1,4
272,252,91566,1,4
315,266,91855,1,4
72,152,92720,1,4
144,177,93008,5,2
170,172,93081,1,2
213,183,93153,1,2
268,175,93297,1,2
280,235,93585,1,2
88,285,93874,5,0
172,249,94162,5,2
218,252,94307,1,2
256,261,94451,1,2
87,144,94739,1,2
140,185,95028,5,0
204,137,95316,5,2
233,154,95388,1,2
269,163,95460,1,2
163,80,95605,1,2
251,96,95893,1,2
116,284,96182,5,4
204,267,96470,1,4
261,264,96758,1,4
86,148,97335,1,4
148,140,97624,5,2
148,140,97696,1,2
181,146,97768,1,2
234,134,97912,1,2
71,76,98201,1,2
112,199,98489,5,0
177,205,98778,5,2
264,208,98922,1,2
304,208,99066,1,2
337,170,99355,1,2
39,83,99643,6,0,L|32:243|160:260|150:120|300:134|282:276|422:279|423:157,1,980
75,209,101951,1,4
129,172,102239,5,2
191,180,102528,5,0
240,181,102816,5,2
154,260,103105,5,0
69,104,103393,5,2
100,107,103465,1,2
132,104,103537,1,2
196,112,103682,1,2
309,212,103970,1,6
59,225,104258,5,4
122,184,104547,5,2
176,239,104835,5,0
239,240,105124,5,2
267,245,105412,5,0
121,315,105701,1,0
121,315,105773,1,0
191,299,105845,5,2
228,290,105989,1,2
274,292,106133,5,0
267,245,106278,5,6
100,224,106566,5,4
136,130,106855,5,2
192,132,107143,5,0
239,142,107432,5,2
284,176,107720,5,0
65,177,108008,5,2
103,188,108081,1,2
132,193,108153,1,2
179,206,108297,1,2
256,272,108585,1,2
30,83,108874,2,0,L|43:310|449:312|376:96,1,840
146,151,110893,5,0
197,199,111182,1,4
53,232,112335,5,2
140,228,112912,5,0
224,216,113489,1,4
106,163,114643,5,2
136,212,115220,5,0
186,159,115797,1,4
230,163,116374,1,4
288,198,116951,1,4
