osu file format v9

[General]
AudioFilename: ryogen no mai.mp3
AudioLeadIn: 0
PreviewTime: 92648
Countdown: 1
SampleSet: Normal
StackLeniency: 0.7
Mode: 0
LetterboxInBreaks: 1
SkinPreference:taiko

[Editor]
Bookmarks: 13096,41662,82624,83201,90412,92143
DistanceSpacing: 0.8
BeatDivisor: 4
GridSize: 16

[Metadata]
Title:Ryougen no Mai
Artist:Zeami
Creator:aquabluu
Version:Normal
Source:Taiko no Tatsujin
Tags:

[Difficulty]
HPDrainRate:3
CircleSize:4
OverallDifficulty:3
ApproachRate:4
SliderMultiplier:1.2
SliderTickRate:1

[Events]
//Background and Video events
0,0,"ryogen.jpg"
//Break Periods
2,21084,24189
2,67247,70342
//Storyboard Layer 0 (Background)
//Storyboard Layer 1 (Fail)
//Storyboard Layer 2 (Pass)
//Storyboard Layer 3 (Foreground)
//Storyboard Sound Samples
//Background Colour Transformations
3,100,163,162,255

[TimingPoints]
2712.30769230769,576.923076923077,4,1,0,50,1,0
25509,288.461538461538,4,1,0,85,1,0
92720,-100,4,1,0,100,0,1
111182,-100,4,1,0,85,0,0

[Colours]
Combo1 : 172,105,15
Combo2 : 230,0,0
Combo3 : 250,232,12
Combo4 : 228,87,27

[HitObjects]
64,64,2712,1,0
256,64,3866,1,8
448,64,5019,1,0
256,64,6173,1,0
256,160,6750,1,2
256,256,7327,5,0
64,256,8481,1,8
256,256,9635,1,0
448,256,10789,2,0,B|448:128,1,120,0|2
448,32,11943,5,0
256,80,13096,1,8
80,160,14250,1,0
256,224,15404,1,8
256,224,15981,1,0
256,280,16558,6,0,B|152:352|48:280|112:112|288:32|288:32|272:168|440:232|408:360|320:392|248:352,1,900,0|4
448,320,25509,5,0
352,304,25797,1,0
256,336,26085,1,0
256,336,26230,2,0,B|256:192|256:192|256:176|240:144|192:144|176:176|176:192|176:192|176:320|176:320|176:336|160:368|112:368|96:336|96:320|96:320|96:272,1,540,0|4
64,192,27816,5,0
112,112,28105,1,0
32,48,28393,1,0
32,48,28537,2,0,B|128:16|192:64|192:160|192:160|240:208|320:208|352:144,1,420,0|8
496,16,30124,5,0
464,112,30412,1,0
400,192,30701,1,0
400,192,30845,2,0,B|496:240|496:240|448:304|448:304|352:240|288:352,1,360,0|8
112,336,32287,5,0
112,336,32432,2,2,B|208:96,1,240
352,112,33441,1,0
352,112,33586,2,2,B|448:352,1,240
352,352,34451,1,4
256,320,34739,5,4
160,352,35028,1,0
80,320,35316,1,0
80,320,35460,1,8
80,320,35605,2,0,B|0:208,4,120
160,272,37047,5,0
240,224,37335,1,0
320,176,37624,1,0
320,176,37768,1,8
320,176,37912,2,0,B|224:80,3,120
112,240,39355,5,0
64,160,39643,1,0
160,160,39932,1,8
304,32,40508,1,0
496,32,41085,1,2
496,224,41662,6,0,B|496:112|400:96|400:-16,2,240,0|0|2
304,192,43393,1,2
208,192,43682,1,2
208,96,43970,6,0,B|108:100|94:201|112:244|160:272,1,240,4|0
256,272,44835,1,0
256,368,45124,2,0,B|356:364|370:263|352:220|304:192,1,240
400,160,45989,1,0
496,160,46278,2,0,B|494:112|467:51|364:32|311:117,3,240,8|8|8|8
144,32,48585,6,0,B|80:64|80:64|112:112|112:112|48:144|48:144|80:192,1,240
112,256,49451,1,8
160,336,49739,2,0,B|224:304|224:304|192:256|192:256|256:224|256:224|224:176,1,240
192,112,50605,1,8
272,48,50893,2,0,B|352:32|352:32|336:96|336:96|432:80,3,240,8|8|8|8
480,272,53201,6,0,B|464:368|256:384|0:368|-32:208|16:32,1,720
96,96,55220,1,2
96,192,55508,2,0,B|144:272|320:320|496:288|512:192|480:48|400:16|224:64|288:192,1,720,2|0
192,160,57528,1,2
224,64,57816,5,2
128,48,58105,1,2
48,112,58393,1,0
64,304,58970,2,0,B|16:256|48:176,2,120
144,352,59835,1,0
240,320,60124,6,0,B|304:288|352:352,2,120,8|0|8
400,224,61278,1,0
448,144,61566,1,0
400,64,61855,1,2
352,144,62143,1,2
256,176,62432,6,0,B|256:240,2,60
256,176,63585,6,0,B|192:176,2,60
256,80,64162,1,8
256,80,64451,1,0
256,176,64739,6,0,B|320:176,2,60
256,176,65893,6,0,B|256:112,2,60
256,272,66470,1,8
256,272,66758,1,0
256,272,67047,1,4
448,64,71662,5,0
256,112,72239,1,0
64,80,72744,2,0,B|30:127|58:180|86:211,2,120,0|8|0
144,128,73682,1,2
160,224,73970,5,0
336,320,74547,2,0,B|272:336|224:272,1,120,8|0
320,240,75124,1,0
400,208,75412,2,0,B|464:192|512:256,2,120,8|0|2
464,128,76278,6,0,B|352:128|352:128|320:128|288:144|256:208|256:208|224:144|192:128|144:128|144:128|48:128,1,480
64,224,77720,1,8
64,320,78008,1,0
160,320,78297,1,4
256,320,78585,6,0,B|256:288|256:288|256:256|240:240|128:224|128:224|240:208|256:192|256:144|256:144|256:0,1,480
336,80,80028,2,0,B|336:128|336:128|336:160|352:176|384:176|384:176,1,120,8|0
480,176,80605,1,4
432,256,80893,6,0,B|384:320|384:320|336:272|336:272|304:320|304:320|272:272|272:272|240:320|240:320|208:272|208:272|176:320|176:320|112:288,1,480
48,256,82335,1,8
128,192,82624,1,0
48,128,82912,1,8
256,192,83201,12,0,84932
256,192,85508,12,0,87239
256,192,87816,12,0,89547
256,336,90124,5,0
384,192,90701,1,0
256,48,91278,1,0
128,192,91855,1,4
384,336,92720,5,0
304,288,93008,1,0
368,208,93297,2,2,B|448:96,1,120
352,64,93874,1,0
272,16,94162,1,0
224,96,94451,2,2,B|144:208,1,120
96,272,95028,6,0,B|128:336|192:336,3,120
256,272,96182,1,0
320,208,96470,1,0
384,144,96758,1,8
208,64,97335,6,0,B|80:96,1,120
48,176,97912,2,2,B|176:144,1,120
256,144,98489,1,0
336,192,98778,1,8
256,240,99066,1,0
176,192,99355,1,8
112,256,99643,6,0,B|64:304,2,60
192,304,100220,2,8,B|144:352,2,60
288,304,100797,1,0
288,304,101085,1,0
288,304,101374,1,4
480,304,101951,6,0,B|480:368,4,60
480,208,102816,1,8
400,144,103105,1,0
400,144,103249,1,0
304,144,103537,1,0
304,144,103682,1,0
224,208,103970,1,8
224,304,104258,6,0,B|224:368,4,60
304,256,105124,1,0
224,208,105412,2,0,B|160:160|96:224,2,120,8|0|4
96,64,106566,5,0
64,160,106855,1,0
96,256,107143,1,8
176,304,107432,1,0
272,304,107720,2,0,B|320:352,2,60,0|0|8
336,240,108297,1,0
336,240,108441,1,0
336,240,108585,1,8
256,192,108874,12,4,111182
160,128,112335,5,8
352,128,112912,1,8
256,288,113489,1,0
256,48,114643,5,8
160,208,115220,1,8
352,208,115797,1,4
352,208,116374,1,4
352,208,116951,1,4
