osu file format v12

[General]
AudioFilename: Myujikku Riboruba.mp3
AudioLeadIn: 0
PreviewTime: 97967
Countdown: 0
SampleSet: Soft
StackLeniency: 0.7
Mode: 0
LetterboxInBreaks: 1

[Editor]
DistanceSpacing: 1
BeatDivisor: 4
GridSize: 4

[Metadata]
Title:Music Revolver
TitleUnicode:
Artist:Zeami
ArtistUnicode:
Creator:KanaRin
Version:Normal
Source:Taiko no Tatsujin
Tags:tatsh namco lepidopodus lepidon cRyo[iceeicee] aesopl19193
BeatmapID:165414
BeatmapSetID:53231

[Difficulty]
HPDrainRate:3
CircleSize:3
OverallDifficulty:3
ApproachRate:4
SliderMultiplier:1.2
SliderTickRate:1

[Events]
//Background and Video events
0,0,"BG.jpg",0,0
//Break Periods
2,69508,75934
//Storyboard Layer 0 (Background)
//Storyboard Layer 1 (Fail)
//Storyboard Layer 2 (Pass)
//Storyboard Layer 3 (Foreground)
//Storyboard Sound Samples
//Background Colour Transformations
3,100,163,162,255

[TimingPoints]
112,357.142857142857,4,1,1,50,1,0
5827,357.142857142857,4,1,1,50,1,0
5827,-100,4,1,1,50,0,0
6005,-100,4,2,1,40,0,0
11362,-100,4,1,1,50,0,0
15826,357.142857142857,7,1,1,50,1,0
17969,357.142857142857,4,1,1,50,1,1
29397,-100,4,2,1,60,0,0
34933,-100,4,1,1,50,0,0
70826,357.142857142857,7,2,0,5,1,0
73683,357.142857142857,4,1,0,90,1,0
77254,357.142857142857,4,1,0,40,1,0
80111,-100,4,1,0,20,0,0
80468,-100,4,1,0,25,0,0
80825,-100,4,1,0,30,0,0
81182,-100,4,1,0,35,0,0
81539,-100,4,1,0,40,0,0
81896,-100,4,1,0,50,0,0
82254,-100,4,1,0,60,0,0
82611,-100,4,1,0,70,0,0
82789,-100,4,1,0,80,0,0
82968,-66.6666666666667,4,1,0,90,0,0
84396,357.142857142857,7,2,2,70,1,0
86539,357.142857142857,4,1,0,50,1,1
86539,-100,4,1,1,50,0,1
96181,-100,4,1,1,50,0,1
96360,-100,4,1,1,5,0,1
97610,-100,4,1,1,60,0,1
97967,-86.9565217391304,4,1,1,60,0,1
116538,-80,4,1,1,50,0,1
117967,-80,4,1,1,40,0,1
120824,-200,4,2,2,90,0,0
120913,-200,4,2,2,25,0,0
129396,-200,4,2,2,5,0,0
130824,-200,4,2,2,80,0,0

[Colours]
Combo1 : 83,169,255
Combo2 : 255,128,128
Combo3 : 255,137,81
Combo4 : 147,255,147

[HitObjects]
48,248,17969,2,0,B|176:272,1,120
272,216,18683,1,0,0:0:0:0:
384,264,19040,1,0,0:0:0:0:
456,168,19397,6,0,B|472:88|416:40,1,120
320,104,20111,2,0,B|279:33|205:33,1,120,0|0,0:0|0:0,0:0:0:0:
144,128,20826,5,0,0:0:0:0:
112,240,21183,1,0,0:0:0:0:
224,304,21540,1,0,0:0:0:0:
336,272,21897,1,0,0:0:0:0:
448,288,22254,6,0,B|432:144,1,120
336,96,22969,2,0,B|352:224,1,120
320,336,23683,5,0,0:0:0:0:
224,256,24040,1,0,0:0:0:0:
112,272,24397,1,0,0:0:0:0:
16,352,24754,2,0,B|0:224,1,120
32,112,25468,1,0,0:0:0:0:
112,32,25826,1,0,0:0:0:0:
224,80,26183,1,0,0:0:0:0:
240,192,26540,6,0,B|352:144,1,120
448,208,27254,2,0,B|336:256,1,120,0|0,0:0|0:0,0:0:0:0:
256,192,27968,12,4,29397,0:0:0:0:
256,192,29754,5,2,0:0:0:0:
96,304,30468,1,2,0:0:0:0:
80,112,31183,1,2,0:0:0:0:
256,192,31897,1,2,0:0:0:0:
432,128,32611,5,2,0:0:0:0:
400,320,33326,1,2,0:0:0:0:
256,192,34040,1,2,0:0:0:0:
292,44,34754,5,2,0:0:0:0:
184,92,35111,2,0,B|56:60,1,120
28,176,35826,1,0,0:0:0:0:
80,284,36183,2,0,B|208:268|208:268,1,120
308,320,36897,1,0,0:0:0:0:
416,272,37254,6,0,B|512:160|416:48,1,240
304,96,38326,1,0,0:0:0:0:
192,52,38683,2,0,B|152:104|188:168,1,120
256,192,39397,12,4,40826,0:0:0:0:
184,276,41183,5,0,0:0:0:0:
194,157,41540,1,0,0:0:0:0:
312,140,41897,1,0,0:0:0:0:
368,246,42254,2,0,B|432:262|500:250,1,120
460,132,42968,1,0,0:0:0:0:
356,68,43326,1,0,0:0:0:0:
240,96,43683,6,0,B|128:144|-12:96,1,240
48,212,44754,1,0,0:0:0:0:
144,284,45111,2,0,B|256:236|396:284,1,240
488,232,46183,1,4,0:0:0:0:
464,116,46540,6,0,B|336:92|336:92,1,120
240,152,47254,2,0,B|180:48,1,120
60,44,47968,1,0,0:0:0:0:
48,164,48326,1,0,0:0:0:0:
116,264,48683,1,0,0:0:0:0:
236,272,49040,1,0,0:0:0:0:
352,308,49397,6,0,B|424:176|368:64,1,240
256,96,50468,1,0,0:0:0:0:
152,36,50826,2,0,B|80:168|136:280,1,240
248,236,51897,1,0,0:0:0:0:
364,204,52254,6,0,B|400:80,1,120,4|0,0:0|0:0,0:0:0:0:
476,180,52968,2,0,B|432:312,1,120
320,304,53683,1,0,0:0:0:0:
320,304,54040,1,0,0:0:0:0:
200,292,54397,1,0,0:0:0:0:
200,292,54754,1,0,0:0:0:0:
80,312,55111,6,0,B|60:248|40:184,1,120
156,152,55826,2,0,B|180:28,1,120
276,104,56540,2,0,B|332:44|332:44|432:32|496:88,1,240
444,192,57611,1,4,0:0:0:0:
396,304,57968,6,0,B|328:288|328:288|260:308,1,120,4|0,0:0|0:0,0:0:0:0:
160,296,58683,2,0,B|88:260|88:260|64:216,1,120
96,108,59397,1,0,0:0:0:0:
188,28,59754,1,0,0:0:0:0:
280,104,60111,1,0,0:0:0:0:
396,68,60468,1,0,0:0:0:0:
436,180,60826,6,0,B|396:304,1,120
284,256,61540,2,0,B|168:288,1,120
64,228,62254,1,0,0:0:0:0:
76,108,62611,1,0,0:0:0:0:
184,60,62968,1,0,0:0:0:0:
276,140,63326,1,0,0:0:0:0:
348,236,63683,6,0,B|476:200,3,120
468,324,65111,2,0,B|336:336,3,120
256,192,66540,12,4,69308,0:0:0:0:
256,192,77254,5,0,0:0:0:0:
256,192,78682,1,0,0:0:0:0:
432,324,80111,5,0,0:0:0:0:
424,204,80468,1,0,0:0:0:0:
304,208,80825,1,0,0:0:0:0:
312,328,81182,1,0,0:0:0:0:
192,308,81539,6,0,B|168:240,3,60
156,192,82254,2,0,B|176:132,3,60
256,192,82968,12,8,84396,0:0:0:0:
152,280,86539,5,0,0:0:0:0:
264,324,86896,1,0,0:0:0:0:
376,276,87253,2,0,B|400:204|392:152,1,120
284,108,87967,2,0,B|260:180|268:232,1,120
376,276,88681,1,0,0:0:0:0:
432,168,89039,1,0,0:0:0:0:
396,56,89396,6,0,B|272:8|136:64,1,240
124,168,90467,1,0,0:0:0:0:
148,284,90824,2,0,B|272:336|408:276,1,240
428,176,91896,1,0,0:0:0:0:
392,60,92253,5,0,0:0:0:0:
276,36,92610,1,0,0:0:0:0:
180,108,92967,1,0,0:0:0:0:
180,108,93324,1,0,0:0:0:0:
220,220,93681,5,0,0:0:0:0:
332,180,94039,1,0,0:0:0:0:
412,268,94396,1,0,0:0:0:0:
412,268,94753,1,0,0:0:0:0:
312,336,95110,5,0,0:0:0:0:
216,264,95467,1,0,0:0:0:0:
136,356,95824,1,0,0:0:0:0:
136,356,96181,1,0,0:0:0:0:
256,192,96539,12,0,97610,0:0:0:0:
136,166,97967,6,0,B|184:110|184:110|292:74|408:138,1,276.000005264282,4|0,0:0|0:0,0:0:0:0:
272,210,99039,1,0,0:0:0:0:
376,302,99396,2,0,B|336:294|336:294|264:350|176:286,2,207.000003948212
288,156,100824,6,0,B|328:164|328:164|400:108|488:168,2,207.000003948212
308,292,102253,1,0,0:0:0:0:
172,324,102610,1,0,0:0:0:0:
64,240,102967,1,0,0:0:0:0:
68,104,103324,1,0,0:0:0:0:
188,36,103681,6,0,B|232:76|232:76|312:44|404:64,2,207.000003948212
124,160,105110,1,0,0:0:0:0:
192,280,105467,1,0,0:0:0:0:
324,244,105824,1,0,0:0:0:0:
324,244,106181,1,0,0:0:0:0:
340,108,106539,6,0,B|256:116|220:72|220:72|132:44|72:88,1,276.000005264282
148,204,107610,1,0,0:0:0:0:
96,332,107967,2,0,B|180:340|216:296|216:296|304:268|364:312,1,276.000005264282
476,236,109038,1,0,0:0:0:0:
412,112,109396,6,0,B|272:48,1,138.000002632141,4|0,0:0|0:0,0:0:0:0:
172,132,110110,2,0,B|308:164,1,138.000002632141
408,260,110824,2,0,B|272:248,1,138.000002632141
180,352,111538,2,0,B|348:336,1,138.000002632141
416,244,112253,5,0,0:0:0:0:
416,244,112610,1,0,0:0:0:0:
444,108,112967,1,0,0:0:0:0:
444,108,113324,1,0,0:0:0:0:
308,76,113681,5,0,0:0:0:0:
308,76,114038,1,0,0:0:0:0:
280,212,114396,1,0,0:0:0:0:
280,212,114753,1,0,0:0:0:0:
336,340,115110,6,0,B|408:328|408:328|460:276|452:180,2,207.000003948212
280,200,116538,2,0,B|208:212|208:212|156:264|164:364,2,225,0|0|0,0:0|0:0|0:0,0:0:0:0:
256,192,117967,12,6,120824,0:0:0:0:
112,184,121538,5,2,0:0:0:0:
208,256,122253,1,2,0:0:0:0:
324,232,122967,1,2,0:0:0:0:
420,304,123681,5,2,0:0:0:0:
324,232,124396,1,2,0:0:0:0:
208,256,125110,1,2,0:0:0:0:
172,372,125824,1,2,0:0:0:0:
84,292,126538,6,0,B|52:200|88:96|220:56|300:104,1,360,2|2,0:0|0:0,0:0:0:0:
256,192,129396,12,8,130824,0:0:0:0:
