osu file format v12

[General]
AudioFilename: Something.mp3
AudioLeadIn: 0
PreviewTime: 86220
Countdown: 0
SampleSet: Soft
StackLeniency: 0.7
Mode: 3
LetterboxInBreaks: 0
SpecialStyle: 0
WidescreenStoryboard: 1

[Editor]
DistanceSpacing: 0.6
BeatDivisor: 4
GridSize: 8

[Metadata]
Title:Music Revolver
TitleUnicode:Music Revolver
Artist:Zeami
ArtistUnicode:Zeami
Creator:Entozer
Version:Hard
Source:Taiko no Tatsujin
Tags:
BeatmapID:329057
BeatmapSetID:130464

[Difficulty]
HPDrainRate:8
CircleSize:7
OverallDifficulty:7
ApproachRate:5
SliderMultiplier:1.4
SliderTickRate:1

[Events]
//Background and Video events
0,0,"TenshiBG.jpg",0,0
//Break Periods
//Storyboard Layer 0 (Background)
//Storyboard Layer 1 (Fail)
//Storyboard Layer 2 (Pass)
//Storyboard Layer 3 (Foreground)
//Storyboard Sound Samples
//Background Colour Transformations
3,100,163,162,255

[TimingPoints]
5686,357.142857142857,4,2,0,5,1,0
17828,357.142857142857,4,2,0,5,1,0
84256,-50,4,2,0,5,0,0
84970,-200,4,2,0,5,0,0
86399,-100,4,2,0,5,0,0

[HitObjects]
329,192,5686,128,0,11400:0:0:0:0:
182,192,5686,128,0,11400:0:0:0:0:
256,192,5686,1,0,0:0:0:0:
109,192,5686,1,0,0:0:0:0:
402,192,5686,1,0,0:0:0:0:
36,192,6043,1,0,0:0:0:0:
475,192,6043,1,0,0:0:0:0:
36,192,6757,1,0,0:0:0:0:
475,192,6757,1,0,0:0:0:0:
36,192,7471,1,0,0:0:0:0:
475,192,7471,1,0,0:0:0:0:
475,192,8186,1,0,0:0:0:0:
36,192,8186,1,0,0:0:0:0:
36,192,8900,1,0,0:0:0:0:
475,192,8900,1,0,0:0:0:0:
36,192,9614,1,0,0:0:0:0:
475,192,9614,1,0,0:0:0:0:
475,192,10328,1,0,0:0:0:0:
36,192,10328,1,0,0:0:0:0:
475,192,10864,1,0,0:0:0:0:
36,192,10864,1,0,0:0:0:0:
36,192,11043,1,0,0:0:0:0:
475,192,11043,1,0,0:0:0:0:
256,192,11400,128,0,11578:0:0:0:0:
36,192,11400,1,0,0:0:0:0:
475,192,11400,1,0,0:0:0:0:
402,192,11400,1,0,0:0:0:0:
109,192,11489,1,0,0:0:0:0:
329,192,11578,1,0,0:0:0:0:
182,192,11668,1,0,0:0:0:0:
256,192,11757,128,0,11936:0:0:0:0:
36,192,11757,1,0,0:0:0:0:
475,192,11757,1,0,0:0:0:0:
402,192,11757,1,0,0:0:0:0:
109,192,11846,1,0,0:0:0:0:
329,192,11936,1,0,0:0:0:0:
182,192,12025,1,0,0:0:0:0:
256,192,12114,128,0,12293:0:0:0:0:
475,192,12114,1,0,0:0:0:0:
36,192,12114,1,0,0:0:0:0:
402,192,12114,1,0,0:0:0:0:
109,192,12203,1,0,0:0:0:0:
329,192,12293,1,0,0:0:0:0:
182,192,12382,1,0,0:0:0:0:
256,192,12471,1,0,0:0:0:0:
36,192,12471,1,0,0:0:0:0:
475,192,12471,1,0,0:0:0:0:
402,192,12471,1,0,0:0:0:0:
109,192,12560,1,0,0:0:0:0:
256,192,12650,1,0,0:0:0:0:
475,192,12650,1,0,0:0:0:0:
36,192,12650,1,0,0:0:0:0:
329,192,12650,1,0,0:0:0:0:
182,192,12739,1,0,0:0:0:0:
256,192,12828,128,0,13007:0:0:0:0:
475,192,12828,1,0,0:0:0:0:
36,192,12828,1,0,0:0:0:0:
402,192,12828,1,0,0:0:0:0:
109,192,12918,1,0,0:0:0:0:
329,192,13007,1,0,0:0:0:0:
182,192,13096,1,0,0:0:0:0:
256,192,13185,128,0,13364:0:0:0:0:
475,192,13185,1,0,0:0:0:0:
36,192,13185,1,0,0:0:0:0:
402,192,13185,1,0,0:0:0:0:
109,192,13275,1,0,0:0:0:0:
329,192,13364,1,0,0:0:0:0:
182,192,13453,1,0,0:0:0:0:
256,192,13543,128,0,13721:0:0:0:0:
36,192,13543,1,0,0:0:0:0:
475,192,13543,1,0,0:0:0:0:
402,192,13543,1,0,0:0:0:0:
109,192,13632,1,0,0:0:0:0:
329,192,13721,1,0,0:0:0:0:
182,192,13810,1,0,0:0:0:0:
256,192,13900,1,0,0:0:0:0:
36,192,13900,1,0,0:0:0:0:
475,192,13900,1,0,0:0:0:0:
402,192,13900,1,0,0:0:0:0:
109,192,13989,1,0,0:0:0:0:
256,192,14078,1,0,0:0:0:0:
36,192,14078,1,0,0:0:0:0:
475,192,14078,1,0,0:0:0:0:
329,192,14078,1,0,0:0:0:0:
182,192,14168,1,0,0:0:0:0:
256,192,14257,128,0,14435:0:0:0:0:
475,192,14257,1,0,0:0:0:0:
36,192,14257,1,0,0:0:0:0:
402,192,14257,1,0,0:0:0:0:
109,192,14346,1,0,0:0:0:0:
329,192,14435,1,0,0:0:0:0:
182,192,14525,1,0,0:0:0:0:
256,192,14614,128,0,14793:0:0:0:0:
36,192,14614,1,0,0:0:0:0:
475,192,14614,1,0,0:0:0:0:
402,192,14614,1,0,0:0:0:0:
109,192,14703,1,0,0:0:0:0:
329,192,14793,1,0,0:0:0:0:
182,192,14882,1,0,0:0:0:0:
256,192,14971,128,0,15150:0:0:0:0:
475,192,14971,1,0,0:0:0:0:
36,192,14971,1,0,0:0:0:0:
402,192,14971,1,0,0:0:0:0:
109,192,15060,1,0,0:0:0:0:
329,192,15150,1,0,0:0:0:0:
182,192,15239,1,0,0:0:0:0:
256,192,15328,128,0,15507:0:0:0:0:
36,192,15328,1,0,0:0:0:0:
475,192,15328,1,0,0:0:0:0:
402,192,15328,1,0,0:0:0:0:
109,192,15418,1,0,0:0:0:0:
329,192,15507,1,0,0:0:0:0:
182,192,15596,1,0,0:0:0:0:
256,192,15685,128,0,16400:0:0:0:0:
36,192,15685,1,0,0:0:0:0:
475,192,15685,1,0,0:0:0:0:
402,192,15685,1,0,0:0:0:0:
182,192,16400,1,0,0:0:0:0:
329,192,16400,1,0,0:0:0:0:
475,192,16400,1,0,0:0:0:0:
109,192,16489,1,0,0:0:0:0:
402,192,16489,1,0,0:0:0:0:
256,192,16489,1,0,0:0:0:0:
182,192,16578,1,0,0:0:0:0:
329,192,16578,1,0,0:0:0:0:
36,192,16578,1,0,0:0:0:0:
109,192,16668,1,0,0:0:0:0:
402,192,16668,1,0,0:0:0:0:
256,192,16668,1,0,0:0:0:0:
182,192,16757,1,0,0:0:0:0:
329,192,16757,1,0,0:0:0:0:
475,192,16757,1,0,0:0:0:0:
109,192,16846,1,0,0:0:0:0:
402,192,16846,1,0,0:0:0:0:
256,192,16846,1,0,0:0:0:0:
182,192,16935,1,0,0:0:0:0:
329,192,16935,1,0,0:0:0:0:
36,192,16935,1,0,0:0:0:0:
109,192,17025,1,0,0:0:0:0:
402,192,17025,1,0,0:0:0:0:
256,192,17025,1,0,0:0:0:0:
182,192,17828,128,0,18185:0:0:0:0:
256,192,17828,1,0,0:0:0:0:
402,192,17828,1,0,0:0:0:0:
109,192,17828,1,0,0:0:0:0:
329,192,18006,1,0,0:0:0:0:
109,192,18185,128,0,18542:0:0:0:0:
402,192,18185,1,0,0:0:0:0:
475,192,18185,1,0,0:0:0:0:
329,192,18363,1,0,0:0:0:0:
36,192,18542,128,0,18899:0:0:0:0:
256,192,18542,1,0,0:0:0:0:
402,192,18542,1,0,0:0:0:0:
329,192,18720,1,0,0:0:0:0:
182,192,18899,128,0,19078:0:0:0:0:
402,192,18899,1,0,0:0:0:0:
475,192,18899,1,0,0:0:0:0:
109,192,19078,128,0,20685:0:0:0:0:
329,192,19078,1,0,0:0:0:0:
256,192,19256,1,0,0:0:0:0:
402,192,19256,1,0,0:0:0:0:
329,192,19435,1,0,0:0:0:0:
402,192,19613,1,0,0:0:0:0:
475,192,19613,1,0,0:0:0:0:
329,192,19792,1,0,0:0:0:0:
256,192,19970,1,0,0:0:0:0:
402,192,19970,1,0,0:0:0:0:
329,192,20149,1,0,0:0:0:0:
402,192,20328,1,0,0:0:0:0:
475,192,20328,1,0,0:0:0:0:
329,192,20506,1,0,0:0:0:0:
475,192,20685,128,0,21042:0:0:0:0:
182,192,20685,1,0,0:0:0:0:
256,192,20685,1,0,0:0:0:0:
36,192,20863,1,0,0:0:0:0:
329,192,21042,128,0,21399:0:0:0:0:
109,192,21042,1,0,0:0:0:0:
182,192,21042,1,0,0:0:0:0:
36,192,21220,1,0,0:0:0:0:
402,192,21399,128,0,21756:0:0:0:0:
182,192,21399,1,0,0:0:0:0:
256,192,21399,1,0,0:0:0:0:
36,192,21578,1,0,0:0:0:0:
475,192,21756,128,0,21935:0:0:0:0:
109,192,21756,1,0,0:0:0:0:
182,192,21756,1,0,0:0:0:0:
329,192,21935,128,0,23542:0:0:0:0:
36,192,21935,1,0,0:0:0:0:
182,192,22113,1,0,0:0:0:0:
256,192,22113,1,0,0:0:0:0:
36,192,22292,1,0,0:0:0:0:
109,192,22470,1,0,0:0:0:0:
182,192,22470,1,0,0:0:0:0:
36,192,22649,1,0,0:0:0:0:
182,192,22828,1,0,0:0:0:0:
256,192,22828,1,0,0:0:0:0:
36,192,23006,1,0,0:0:0:0:
256,192,23006,1,0,0:0:0:0:
109,192,23185,1,0,0:0:0:0:
256,192,23185,1,0,0:0:0:0:
36,192,23363,1,0,0:0:0:0:
256,192,23452,1,0,0:0:0:0:
182,192,23542,128,0,23899:0:0:0:0:
402,192,23542,1,0,0:0:0:0:
329,192,23720,1,0,0:0:0:0:
109,192,23899,128,0,24256:0:0:0:0:
402,192,23899,1,0,0:0:0:0:
475,192,23899,1,0,0:0:0:0:
329,192,24077,1,0,0:0:0:0:
36,192,24256,128,0,24613:0:0:0:0:
256,192,24256,1,0,0:0:0:0:
402,192,24256,1,0,0:0:0:0:
329,192,24435,1,0,0:0:0:0:
182,192,24613,128,0,24792:0:0:0:0:
402,192,24613,1,0,0:0:0:0:
475,192,24613,1,0,0:0:0:0:
109,192,24792,128,0,25863:0:0:0:0:
329,192,24792,1,0,0:0:0:0:
256,192,24970,1,0,0:0:0:0:
402,192,24970,1,0,0:0:0:0:
329,192,25149,1,0,0:0:0:0:
402,192,25327,1,0,0:0:0:0:
475,192,25327,1,0,0:0:0:0:
329,192,25506,1,0,0:0:0:0:
256,192,25685,1,0,0:0:0:0:
402,192,25685,1,0,0:0:0:0:
36,192,25863,128,0,26042:0:0:0:0:
329,192,25863,1,0,0:0:0:0:
109,192,26042,128,0,26220:0:0:0:0:
402,192,26042,1,0,0:0:0:0:
475,192,26042,1,0,0:0:0:0:
182,192,26220,128,0,26399:0:0:0:0:
329,192,26220,1,0,0:0:0:0:
256,192,26399,128,0,26756:0:0:0:0:
109,192,26399,1,0,0:0:0:0:
36,192,26399,1,0,0:0:0:0:
329,192,26577,1,0,0:0:0:0:
182,192,26756,128,0,27113:0:0:0:0:
402,192,26756,1,0,0:0:0:0:
475,192,26756,1,0,0:0:0:0:
329,192,26935,1,0,0:0:0:0:
329,192,27113,128,0,27470:0:0:0:0:
109,192,27113,1,0,0:0:0:0:
36,192,27113,1,0,0:0:0:0:
182,192,27292,1,0,0:0:0:0:
182,192,27470,128,0,27649:0:0:0:0:
402,192,27470,1,0,0:0:0:0:
475,192,27470,1,0,0:0:0:0:
402,192,27649,128,0,28006:0:0:0:0:
256,192,27649,1,0,0:0:0:0:
36,192,27827,1,0,0:0:0:0:
329,192,27827,1,0,0:0:0:0:
182,192,27917,1,0,0:0:0:0:
475,192,28006,128,0,28363:0:0:0:0:
36,192,28006,1,0,0:0:0:0:
256,192,28006,1,0,0:0:0:0:
182,192,28095,1,0,0:0:0:0:
36,192,28185,1,0,0:0:0:0:
402,192,28185,1,0,0:0:0:0:
329,192,28185,1,0,0:0:0:0:
182,192,28274,1,0,0:0:0:0:
329,192,28363,128,0,29256:0:0:0:0:
36,192,28363,1,0,0:0:0:0:
256,192,28363,1,0,0:0:0:0:
182,192,28452,1,0,0:0:0:0:
36,192,28542,1,0,0:0:0:0:
402,192,28542,1,0,0:0:0:0:
182,192,28631,1,0,0:0:0:0:
36,192,28720,1,0,0:0:0:0:
256,192,28720,1,0,0:0:0:0:
182,192,28810,1,0,0:0:0:0:
36,192,28899,1,0,0:0:0:0:
475,192,28899,1,0,0:0:0:0:
402,192,28899,1,0,0:0:0:0:
256,192,28899,1,0,0:0:0:0:
182,192,28988,1,0,0:0:0:0:
109,192,28988,1,0,0:0:0:0:
36,192,29077,1,0,0:0:0:0:
402,192,29077,1,0,0:0:0:0:
256,192,29077,1,0,0:0:0:0:
475,192,29077,1,0,0:0:0:0:
182,192,29167,1,0,0:0:0:0:
109,192,29167,1,0,0:0:0:0:
36,192,29256,128,0,29613:0:0:0:0:
402,192,29256,128,0,29792:0:0:0:0:
256,192,29256,1,0,0:0:0:0:
475,192,29256,1,0,0:0:0:0:
182,192,29435,128,0,29792:0:0:0:0:
329,192,29613,128,0,29970:0:0:0:0:
256,192,29613,1,0,0:0:0:0:
109,192,29613,1,0,0:0:0:0:
109,192,29792,128,0,30149:0:0:0:0:
475,192,29792,128,0,30327:0:0:0:0:
256,192,29970,128,0,30327:0:0:0:0:
402,192,30149,128,0,30506:0:0:0:0:
182,192,30327,128,0,30685:0:0:0:0:
36,192,30327,128,0,30863:0:0:0:0:
109,192,30327,1,0,0:0:0:0:
329,192,30327,1,0,0:0:0:0:
329,192,30506,128,0,30863:0:0:0:0:
475,192,30685,128,0,31042:0:0:0:0:
109,192,30863,128,0,31220:0:0:0:0:
182,192,30863,128,0,31399:0:0:0:0:
256,192,31042,128,0,31399:0:0:0:0:
329,192,31042,1,0,0:0:0:0:
402,192,31042,1,0,0:0:0:0:
402,192,31220,128,0,31577:0:0:0:0:
36,192,31399,128,0,31756:0:0:0:0:
475,192,31399,128,0,31756:0:0:0:0:
182,192,31577,128,0,31935:0:0:0:0:
329,192,31756,128,0,32113:0:0:0:0:
256,192,31756,128,0,32113:0:0:0:0:
109,192,31756,1,0,0:0:0:0:
402,192,31756,1,0,0:0:0:0:
475,192,31935,128,0,32292:0:0:0:0:
36,192,32113,128,0,32470:0:0:0:0:
402,192,32113,128,0,32649:0:0:0:0:
182,192,32292,128,0,32649:0:0:0:0:
329,192,32470,128,0,32827:0:0:0:0:
256,192,32470,1,0,0:0:0:0:
109,192,32470,1,0,0:0:0:0:
109,192,32649,128,0,33006:0:0:0:0:
475,192,32649,128,0,33185:0:0:0:0:
256,192,32827,128,0,33185:0:0:0:0:
402,192,33006,128,0,33363:0:0:0:0:
182,192,33185,128,0,33542:0:0:0:0:
36,192,33185,128,0,33720:0:0:0:0:
109,192,33185,1,0,0:0:0:0:
329,192,33185,1,0,0:0:0:0:
329,192,33363,128,0,33720:0:0:0:0:
475,192,33542,128,0,33899:0:0:0:0:
109,192,33720,128,0,34077:0:0:0:0:
182,192,33720,128,0,34256:0:0:0:0:
256,192,33899,128,0,34256:0:0:0:0:
329,192,33899,1,0,0:0:0:0:
402,192,33899,1,0,0:0:0:0:
402,192,34077,128,0,34435:0:0:0:0:
36,192,34256,128,0,34792:0:0:0:0:
329,192,34256,128,0,34613:0:0:0:0:
109,192,34256,1,0,0:0:0:0:
475,192,34256,1,0,0:0:0:0:
182,192,34613,128,0,34970:0:0:0:0:
475,192,34613,128,0,34970:0:0:0:0:
256,192,34613,1,0,0:0:0:0:
329,192,34792,128,0,35149:0:0:0:0:
256,192,34792,1,0,0:0:0:0:
109,192,34881,1,0,0:0:0:0:
36,192,34970,128,0,35327:0:0:0:0:
402,192,34970,128,0,35506:0:0:0:0:
256,192,34970,1,0,0:0:0:0:
182,192,35149,128,0,35506:0:0:0:0:
109,192,35149,1,0,0:0:0:0:
329,192,35327,128,0,35685:0:0:0:0:
256,192,35327,1,0,0:0:0:0:
475,192,35327,1,0,0:0:0:0:
109,192,35506,128,0,35863:0:0:0:0:
475,192,35506,128,0,36042:0:0:0:0:
36,192,35506,1,0,0:0:0:0:
256,192,35685,128,0,36042:0:0:0:0:
182,192,35685,1,0,0:0:0:0:
402,192,35863,128,0,36220:0:0:0:0:
36,192,35863,1,0,0:0:0:0:
182,192,36042,128,0,36399:0:0:0:0:
36,192,36042,128,0,37827:0:0:0:0:
329,192,36042,1,0,0:0:0:0:
109,192,36042,1,0,0:0:0:0:
329,192,36220,128,0,36577:0:0:0:0:
256,192,36220,1,0,0:0:0:0:
475,192,36399,128,0,36756:0:0:0:0:
402,192,36399,1,0,0:0:0:0:
109,192,36577,128,0,36935:0:0:0:0:
256,192,36577,1,0,0:0:0:0:
256,192,36756,128,0,37113:0:0:0:0:
182,192,36756,1,0,0:0:0:0:
329,192,36756,1,0,0:0:0:0:
402,192,36935,128,0,37292:0:0:0:0:
475,192,36935,1,0,0:0:0:0:
182,192,37113,128,0,37649:0:0:0:0:
329,192,37113,1,0,0:0:0:0:
256,192,37292,1,0,0:0:0:0:
329,192,37470,128,0,37827:0:0:0:0:
402,192,37470,1,0,0:0:0:0:
475,192,37470,1,0,0:0:0:0:
475,192,37649,128,0,38006:0:0:0:0:
256,192,37649,1,0,0:0:0:0:
182,192,37827,128,0,38185:0:0:0:0:
109,192,37827,128,0,38899:0:0:0:0:
402,192,37827,1,0,0:0:0:0:
329,192,38006,128,0,38363:0:0:0:0:
36,192,38006,1,0,0:0:0:0:
475,192,38185,128,0,38542:0:0:0:0:
256,192,38185,1,0,0:0:0:0:
402,192,38185,1,0,0:0:0:0:
36,192,38363,128,0,38720:0:0:0:0:
182,192,38363,1,0,0:0:0:0:
182,192,38542,128,0,38899:0:0:0:0:
329,192,38542,1,0,0:0:0:0:
329,192,38720,128,0,39077:0:0:0:0:
475,192,38720,1,0,0:0:0:0:
36,192,38899,128,0,39256:0:0:0:0:
475,192,38899,128,0,39077:0:0:0:0:
402,192,38899,1,0,0:0:0:0:
256,192,38899,1,0,0:0:0:0:
256,192,39077,128,0,39435:0:0:0:0:
402,192,39077,128,0,39256:0:0:0:0:
182,192,39077,1,0,0:0:0:0:
475,192,39256,128,0,39613:0:0:0:0:
329,192,39256,128,0,39970:0:0:0:0:
182,192,39256,1,0,0:0:0:0:
36,192,39345,1,0,0:0:0:0:
109,192,39435,128,0,39792:0:0:0:0:
182,192,39435,1,0,0:0:0:0:
36,192,39524,1,0,0:0:0:0:
256,192,39613,128,0,39970:0:0:0:0:
182,192,39613,1,0,0:0:0:0:
402,192,39792,128,0,40149:0:0:0:0:
182,192,39792,1,0,0:0:0:0:
36,192,39792,1,0,0:0:0:0:
182,192,39970,128,0,40685:0:0:0:0:
36,192,39970,128,0,40685:0:0:0:0:
109,192,39970,1,0,0:0:0:0:
475,192,39970,1,0,0:0:0:0:
256,192,40060,1,0,0:0:0:0:
329,192,40149,128,0,40685:0:0:0:0:
475,192,40149,1,0,0:0:0:0:
109,192,40149,1,0,0:0:0:0:
256,192,40238,1,0,0:0:0:0:
475,192,40327,128,0,40685:0:0:0:0:
402,192,40327,1,0,0:0:0:0:
109,192,40327,1,0,0:0:0:0:
256,192,40417,1,0,0:0:0:0:
109,192,40506,1,0,0:0:0:0:
402,192,40506,1,0,0:0:0:0:
256,192,40595,1,0,0:0:0:0:
109,192,40685,128,0,41042:0:0:0:0:
402,192,40685,1,0,0:0:0:0:
256,192,40685,1,0,0:0:0:0:
329,192,40774,1,0,0:0:0:0:
182,192,40774,1,0,0:0:0:0:
402,192,40863,1,0,0:0:0:0:
256,192,40863,1,0,0:0:0:0:
36,192,40863,1,0,0:0:0:0:
182,192,40952,1,0,0:0:0:0:
329,192,40952,1,0,0:0:0:0:
402,192,41042,128,0,41399:0:0:0:0:
475,192,41042,1,0,0:0:0:0:
256,192,41042,1,0,0:0:0:0:
36,192,41042,1,0,0:0:0:0:
109,192,41131,1,0,0:0:0:0:
329,192,41131,1,0,0:0:0:0:
475,192,41220,1,0,0:0:0:0:
256,192,41220,1,0,0:0:0:0:
36,192,41220,1,0,0:0:0:0:
329,192,41310,1,0,0:0:0:0:
182,192,41310,1,0,0:0:0:0:
109,192,41399,128,0,41756:0:0:0:0:
36,192,41399,1,0,0:0:0:0:
256,192,41399,1,0,0:0:0:0:
475,192,41399,1,0,0:0:0:0:
329,192,41488,1,0,0:0:0:0:
402,192,41488,1,0,0:0:0:0:
36,192,41577,1,0,0:0:0:0:
256,192,41577,1,0,0:0:0:0:
475,192,41577,1,0,0:0:0:0:
329,192,41667,1,0,0:0:0:0:
182,192,41667,1,0,0:0:0:0:
402,192,41756,128,0,42113:0:0:0:0:
475,192,41756,1,0,0:0:0:0:
256,192,41756,1,0,0:0:0:0:
36,192,41756,1,0,0:0:0:0:
109,192,41845,1,0,0:0:0:0:
329,192,41845,1,0,0:0:0:0:
256,192,41935,1,0,0:0:0:0:
182,192,41935,1,0,0:0:0:0:
475,192,41935,1,0,0:0:0:0:
109,192,42024,1,0,0:0:0:0:
329,192,42024,1,0,0:0:0:0:
256,192,42113,1,0,0:0:0:0:
182,192,42113,1,0,0:0:0:0:
475,192,42113,1,0,0:0:0:0:
36,192,42113,128,0,42470:0:0:0:0:
402,192,42202,1,0,0:0:0:0:
329,192,42202,1,0,0:0:0:0:
475,192,42292,1,0,0:0:0:0:
256,192,42292,1,0,0:0:0:0:
109,192,42292,1,0,0:0:0:0:
402,192,42381,1,0,0:0:0:0:
182,192,42381,1,0,0:0:0:0:
329,192,42470,128,0,42827:0:0:0:0:
475,192,42470,1,0,0:0:0:0:
109,192,42470,1,0,0:0:0:0:
256,192,42470,1,0,0:0:0:0:
402,192,42560,1,0,0:0:0:0:
182,192,42560,1,0,0:0:0:0:
256,192,42649,1,0,0:0:0:0:
36,192,42649,1,0,0:0:0:0:
109,192,42649,1,0,0:0:0:0:
402,192,42738,1,0,0:0:0:0:
182,192,42738,1,0,0:0:0:0:
36,192,42827,128,0,43185:0:0:0:0:
475,192,42827,1,0,0:0:0:0:
256,192,42827,1,0,0:0:0:0:
109,192,42827,1,0,0:0:0:0:
182,192,42917,1,0,0:0:0:0:
402,192,42917,1,0,0:0:0:0:
329,192,43006,1,0,0:0:0:0:
109,192,43006,1,0,0:0:0:0:
475,192,43006,1,0,0:0:0:0:
256,192,43095,1,0,0:0:0:0:
402,192,43095,1,0,0:0:0:0:
329,192,43185,128,0,43542:0:0:0:0:
109,192,43185,1,0,0:0:0:0:
475,192,43185,1,0,0:0:0:0:
182,192,43185,1,0,0:0:0:0:
256,192,43274,1,0,0:0:0:0:
402,192,43274,1,0,0:0:0:0:
36,192,43363,1,0,0:0:0:0:
182,192,43363,1,0,0:0:0:0:
475,192,43363,1,0,0:0:0:0:
109,192,43452,1,0,0:0:0:0:
402,192,43452,1,0,0:0:0:0:
182,192,43542,128,0,43899:0:0:0:0:
36,192,43542,1,0,0:0:0:0:
256,192,43542,1,0,0:0:0:0:
475,192,43542,1,0,0:0:0:0:
402,192,43631,1,0,0:0:0:0:
109,192,43631,1,0,0:0:0:0:
475,192,43720,1,0,0:0:0:0:
36,192,43720,1,0,0:0:0:0:
329,192,43720,1,0,0:0:0:0:
256,192,43810,1,0,0:0:0:0:
109,192,43810,1,0,0:0:0:0:
475,192,43899,128,0,44256:0:0:0:0:
402,192,43899,1,0,0:0:0:0:
36,192,43899,1,0,0:0:0:0:
329,192,43899,1,0,0:0:0:0:
256,192,43988,1,0,0:0:0:0:
109,192,43988,1,0,0:0:0:0:
36,192,44077,1,0,0:0:0:0:
182,192,44077,1,0,0:0:0:0:
329,192,44077,1,0,0:0:0:0:
109,192,44167,1,0,0:0:0:0:
256,192,44167,1,0,0:0:0:0:
182,192,44256,128,0,44613:0:0:0:0:
402,192,44256,1,0,0:0:0:0:
329,192,44256,1,0,0:0:0:0:
36,192,44256,1,0,0:0:0:0:
109,192,44345,1,0,0:0:0:0:
256,192,44345,1,0,0:0:0:0:
475,192,44435,1,0,0:0:0:0:
402,192,44435,1,0,0:0:0:0:
36,192,44435,1,0,0:0:0:0:
109,192,44524,1,0,0:0:0:0:
329,192,44524,1,0,0:0:0:0:
475,192,44613,128,0,44970:0:0:0:0:
36,192,44613,1,0,0:0:0:0:
256,192,44613,1,0,0:0:0:0:
402,192,44613,1,0,0:0:0:0:
329,192,44702,1,0,0:0:0:0:
182,192,44702,1,0,0:0:0:0:
402,192,44792,1,0,0:0:0:0:
109,192,44792,1,0,0:0:0:0:
256,192,44792,1,0,0:0:0:0:
182,192,44881,1,0,0:0:0:0:
329,192,44881,1,0,0:0:0:0:
109,192,44970,128,0,45327:0:0:0:0:
36,192,44970,1,0,0:0:0:0:
256,192,44970,1,0,0:0:0:0:
402,192,44970,1,0,0:0:0:0:
329,192,45060,1,0,0:0:0:0:
475,192,45060,1,0,0:0:0:0:
36,192,45149,1,0,0:0:0:0:
402,192,45149,1,0,0:0:0:0:
256,192,45149,1,0,0:0:0:0:
182,192,45238,1,0,0:0:0:0:
475,192,45238,1,0,0:0:0:0:
402,192,45327,128,0,45685:0:0:0:0:
329,192,45327,1,0,0:0:0:0:
256,192,45327,1,0,0:0:0:0:
36,192,45327,1,0,0:0:0:0:
109,192,45417,1,0,0:0:0:0:
475,192,45417,1,0,0:0:0:0:
36,192,45506,1,0,0:0:0:0:
182,192,45506,1,0,0:0:0:0:
329,192,45506,1,0,0:0:0:0:
256,192,45595,1,0,0:0:0:0:
475,192,45595,1,0,0:0:0:0:
109,192,45685,128,0,46042:0:0:0:0:
36,192,45685,1,0,0:0:0:0:
329,192,45685,1,0,0:0:0:0:
182,192,45685,1,0,0:0:0:0:
256,192,45774,1,0,0:0:0:0:
475,192,45774,1,0,0:0:0:0:
402,192,45863,128,0,46042:0:0:0:0:
182,192,45863,1,0,0:0:0:0:
329,192,45863,1,0,0:0:0:0:
36,192,45863,1,0,0:0:0:0:
475,192,45952,1,0,0:0:0:0:
256,192,45952,1,0,0:0:0:0:
36,192,46042,1,0,0:0:0:0:
329,192,46042,1,0,0:0:0:0:
182,192,46042,1,0,0:0:0:0:
182,192,46399,128,0,47827:0:0:0:0:
109,192,46399,1,0,0:0:0:0:
36,192,46399,1,0,0:0:0:0:
329,192,46399,1,0,0:0:0:0:
475,192,46399,1,0,0:0:0:0:
402,192,46488,1,0,0:0:0:0:
256,192,46488,1,0,0:0:0:0:
475,192,46577,1,0,0:0:0:0:
329,192,46577,1,0,0:0:0:0:
109,192,46577,1,0,0:0:0:0:
402,192,46667,1,0,0:0:0:0:
36,192,46667,1,0,0:0:0:0:
329,192,46756,1,0,0:0:0:0:
256,192,46756,1,0,0:0:0:0:
109,192,46756,1,0,0:0:0:0:
475,192,46756,1,0,0:0:0:0:
402,192,46845,1,0,0:0:0:0:
36,192,46845,1,0,0:0:0:0:
475,192,46935,1,0,0:0:0:0:
109,192,46935,1,0,0:0:0:0:
329,192,46935,1,0,0:0:0:0:
256,192,47024,1,0,0:0:0:0:
36,192,47024,1,0,0:0:0:0:
402,192,47113,1,0,0:0:0:0:
109,192,47113,1,0,0:0:0:0:
329,192,47113,1,0,0:0:0:0:
256,192,47202,1,0,0:0:0:0:
36,192,47202,1,0,0:0:0:0:
329,192,47292,1,0,0:0:0:0:
109,192,47292,1,0,0:0:0:0:
475,192,47292,1,0,0:0:0:0:
256,192,47381,1,0,0:0:0:0:
402,192,47381,1,0,0:0:0:0:
475,192,47470,1,0,0:0:0:0:
36,192,47470,1,0,0:0:0:0:
329,192,47470,1,0,0:0:0:0:
109,192,47470,1,0,0:0:0:0:
402,192,47560,1,0,0:0:0:0:
256,192,47560,1,0,0:0:0:0:
475,192,47649,1,0,0:0:0:0:
329,192,47649,1,0,0:0:0:0:
109,192,47649,1,0,0:0:0:0:
256,192,47738,1,0,0:0:0:0:
402,192,47738,1,0,0:0:0:0:
329,192,47827,128,0,49256:0:0:0:0:
36,192,47827,1,0,0:0:0:0:
475,192,47827,1,0,0:0:0:0:
109,192,47827,1,0,0:0:0:0:
182,192,47917,1,0,0:0:0:0:
402,192,47917,1,0,0:0:0:0:
475,192,48006,1,0,0:0:0:0:
256,192,48006,1,0,0:0:0:0:
109,192,48006,1,0,0:0:0:0:
36,192,48095,1,0,0:0:0:0:
402,192,48095,1,0,0:0:0:0:
256,192,48185,1,0,0:0:0:0:
182,192,48185,1,0,0:0:0:0:
475,192,48185,1,0,0:0:0:0:
109,192,48185,1,0,0:0:0:0:
36,192,48274,1,0,0:0:0:0:
402,192,48274,1,0,0:0:0:0:
109,192,48363,1,0,0:0:0:0:
256,192,48363,1,0,0:0:0:0:
475,192,48363,1,0,0:0:0:0:
402,192,48452,1,0,0:0:0:0:
182,192,48452,1,0,0:0:0:0:
475,192,48542,1,0,0:0:0:0:
256,192,48542,1,0,0:0:0:0:
109,192,48542,1,0,0:0:0:0:
182,192,48631,1,0,0:0:0:0:
36,192,48631,1,0,0:0:0:0:
475,192,48720,1,0,0:0:0:0:
109,192,48720,1,0,0:0:0:0:
256,192,48720,1,0,0:0:0:0:
182,192,48810,1,0,0:0:0:0:
402,192,48810,1,0,0:0:0:0:
109,192,48899,1,0,0:0:0:0:
36,192,48899,1,0,0:0:0:0:
475,192,48899,1,0,0:0:0:0:
256,192,48899,1,0,0:0:0:0:
402,192,48988,1,0,0:0:0:0:
182,192,48988,1,0,0:0:0:0:
475,192,49077,1,0,0:0:0:0:
256,192,49077,1,0,0:0:0:0:
109,192,49077,1,0,0:0:0:0:
182,192,49167,1,0,0:0:0:0:
36,192,49167,1,0,0:0:0:0:
402,192,49256,1,0,0:0:0:0:
256,192,49256,1,0,0:0:0:0:
109,192,49256,1,0,0:0:0:0:
475,192,49256,128,0,50327:0:0:0:0:
36,192,49345,1,0,0:0:0:0:
329,192,49345,1,0,0:0:0:0:
402,192,49435,1,0,0:0:0:0:
256,192,49435,1,0,0:0:0:0:
109,192,49435,1,0,0:0:0:0:
329,192,49524,1,0,0:0:0:0:
182,192,49524,1,0,0:0:0:0:
256,192,49613,1,0,0:0:0:0:
109,192,49613,1,0,0:0:0:0:
36,192,49613,1,0,0:0:0:0:
402,192,49613,1,0,0:0:0:0:
182,192,49702,1,0,0:0:0:0:
329,192,49702,1,0,0:0:0:0:
256,192,49792,1,0,0:0:0:0:
36,192,49792,1,0,0:0:0:0:
109,192,49792,1,0,0:0:0:0:
182,192,49881,1,0,0:0:0:0:
329,192,49881,1,0,0:0:0:0:
402,192,49970,1,0,0:0:0:0:
256,192,49970,1,0,0:0:0:0:
109,192,49970,1,0,0:0:0:0:
329,192,50060,1,0,0:0:0:0:
182,192,50060,1,0,0:0:0:0:
256,192,50149,1,0,0:0:0:0:
109,192,50149,1,0,0:0:0:0:
36,192,50149,1,0,0:0:0:0:
402,192,50238,1,0,0:0:0:0:
329,192,50238,1,0,0:0:0:0:
256,192,50327,1,0,0:0:0:0:
109,192,50327,1,0,0:0:0:0:
36,192,50327,1,0,0:0:0:0:
182,192,50327,128,0,50685:0:0:0:0:
329,192,50417,1,0,0:0:0:0:
402,192,50417,1,0,0:0:0:0:
475,192,50506,1,0,0:0:0:0:
256,192,50506,1,0,0:0:0:0:
36,192,50506,1,0,0:0:0:0:
402,192,50595,1,0,0:0:0:0:
109,192,50595,1,0,0:0:0:0:
475,192,50685,128,0,51399:0:0:0:0:
402,192,50685,128,0,51354:0:0:0:0:
329,192,50729,128,0,50819:0:0:0:0:
256,192,50774,128,0,50863:0:0:0:0:
182,192,50819,128,0,50908:0:0:0:0:
329,192,50863,128,0,51176:0:0:0:0:
256,192,50908,128,0,50997:0:0:0:0:
182,192,50952,128,0,51042:0:0:0:0:
109,192,50997,128,0,51086:0:0:0:0:
256,192,51042,128,0,51220:0:0:0:0:
182,192,51086,128,0,51265:0:0:0:0:
109,192,51131,128,0,51310:0:0:0:0:
36,192,51176,128,0,51354:0:0:0:0:
329,192,51220,128,0,51354:0:0:0:0:
256,192,51265,128,0,51354:0:0:0:0:
182,192,51310,128,0,51354:0:0:0:0:
109,192,51354,128,0,51399:0:0:0:0:
36,192,51399,128,0,52113:0:0:0:0:
256,192,51399,1,0,0:0:0:0:
329,192,51399,1,0,0:0:0:0:
182,192,51399,128,0,51577:0:0:0:0:
402,192,51399,1,0,0:0:0:0:
109,192,51488,128,0,51667:0:0:0:0:
256,192,51577,1,0,0:0:0:0:
402,192,51577,1,0,0:0:0:0:
475,192,51577,1,0,0:0:0:0:
329,192,51577,128,0,51756:0:0:0:0:
182,192,51667,128,0,51845:0:0:0:0:
475,192,51756,1,0,0:0:0:0:
256,192,51756,1,0,0:0:0:0:
402,192,51756,1,0,0:0:0:0:
109,192,51756,128,0,51935:0:0:0:0:
329,192,51845,128,0,51935:0:0:0:0:
256,192,51935,1,0,0:0:0:0:
402,192,51935,1,0,0:0:0:0:
475,192,51935,1,0,0:0:0:0:
182,192,51935,128,0,52024:0:0:0:0:
109,192,52024,128,0,52113:0:0:0:0:
182,192,52113,128,0,53185:0:0:0:0:
256,192,52113,1,0,0:0:0:0:
329,192,52113,1,0,0:0:0:0:
475,192,52113,1,0,0:0:0:0:
402,192,52202,1,0,0:0:0:0:
109,192,52202,1,0,0:0:0:0:
256,192,52292,1,0,0:0:0:0:
36,192,52292,1,0,0:0:0:0:
475,192,52292,1,0,0:0:0:0:
109,192,52381,1,0,0:0:0:0:
329,192,52381,1,0,0:0:0:0:
402,192,52470,1,0,0:0:0:0:
256,192,52470,1,0,0:0:0:0:
475,192,52470,1,0,0:0:0:0:
36,192,52470,1,0,0:0:0:0:
109,192,52560,1,0,0:0:0:0:
329,192,52560,1,0,0:0:0:0:
256,192,52649,1,0,0:0:0:0:
402,192,52649,1,0,0:0:0:0:
36,192,52649,1,0,0:0:0:0:
109,192,52738,1,0,0:0:0:0:
475,192,52738,1,0,0:0:0:0:
36,192,52827,1,0,0:0:0:0:
256,192,52827,1,0,0:0:0:0:
402,192,52827,1,0,0:0:0:0:
329,192,52917,1,0,0:0:0:0:
475,192,52917,1,0,0:0:0:0:
402,192,53006,1,0,0:0:0:0:
109,192,53006,1,0,0:0:0:0:
256,192,53006,1,0,0:0:0:0:
329,192,53095,1,0,0:0:0:0:
36,192,53095,1,0,0:0:0:0:
475,192,53185,128,0,53542:0:0:0:0:
109,192,53185,1,0,0:0:0:0:
256,192,53185,1,0,0:0:0:0:
402,192,53185,1,0,0:0:0:0:
329,192,53274,1,0,0:0:0:0:
182,192,53274,1,0,0:0:0:0:
36,192,53363,1,0,0:0:0:0:
109,192,53363,1,0,0:0:0:0:
256,192,53363,1,0,0:0:0:0:
182,192,53452,1,0,0:0:0:0:
402,192,53452,1,0,0:0:0:0:
329,192,53542,128,0,54970:0:0:0:0:
109,192,53542,1,0,0:0:0:0:
256,192,53542,1,0,0:0:0:0:
36,192,53542,1,0,0:0:0:0:
182,192,53631,1,0,0:0:0:0:
402,192,53631,1,0,0:0:0:0:
256,192,53720,1,0,0:0:0:0:
475,192,53720,1,0,0:0:0:0:
109,192,53720,1,0,0:0:0:0:
182,192,53810,1,0,0:0:0:0:
402,192,53810,1,0,0:0:0:0:
36,192,53899,1,0,0:0:0:0:
475,192,53899,1,0,0:0:0:0:
109,192,53899,1,0,0:0:0:0:
256,192,53899,1,0,0:0:0:0:
182,192,53988,1,0,0:0:0:0:
402,192,53988,1,0,0:0:0:0:
256,192,54077,1,0,0:0:0:0:
109,192,54077,1,0,0:0:0:0:
475,192,54077,1,0,0:0:0:0:
36,192,54167,1,0,0:0:0:0:
182,192,54167,1,0,0:0:0:0:
256,192,54256,1,0,0:0:0:0:
109,192,54256,1,0,0:0:0:0:
402,192,54256,1,0,0:0:0:0:
182,192,54345,1,0,0:0:0:0:
475,192,54345,1,0,0:0:0:0:
402,192,54435,1,0,0:0:0:0:
256,192,54435,1,0,0:0:0:0:
36,192,54435,1,0,0:0:0:0:
109,192,54524,1,0,0:0:0:0:
475,192,54524,1,0,0:0:0:0:
182,192,54613,1,0,0:0:0:0:
402,192,54613,1,0,0:0:0:0:
256,192,54613,1,0,0:0:0:0:
36,192,54613,1,0,0:0:0:0:
109,192,54702,1,0,0:0:0:0:
475,192,54702,1,0,0:0:0:0:
256,192,54792,1,0,0:0:0:0:
36,192,54792,1,0,0:0:0:0:
402,192,54792,1,0,0:0:0:0:
109,192,54881,1,0,0:0:0:0:
475,192,54881,1,0,0:0:0:0:
182,192,54970,128,0,55685:0:0:0:0:
256,192,54970,1,0,0:0:0:0:
402,192,54970,1,0,0:0:0:0:
36,192,54970,1,0,0:0:0:0:
109,192,55060,1,0,0:0:0:0:
329,192,55060,1,0,0:0:0:0:
256,192,55149,1,0,0:0:0:0:
402,192,55149,1,0,0:0:0:0:
475,192,55149,1,0,0:0:0:0:
109,192,55238,1,0,0:0:0:0:
329,192,55238,1,0,0:0:0:0:
256,192,55327,1,0,0:0:0:0:
402,192,55327,1,0,0:0:0:0:
36,192,55327,1,0,0:0:0:0:
475,192,55327,1,0,0:0:0:0:
109,192,55417,1,0,0:0:0:0:
329,192,55417,1,0,0:0:0:0:
256,192,55506,1,0,0:0:0:0:
402,192,55506,1,0,0:0:0:0:
36,192,55506,1,0,0:0:0:0:
109,192,55595,1,0,0:0:0:0:
475,192,55595,1,0,0:0:0:0:
329,192,55685,128,0,56042:0:0:0:0:
256,192,55685,1,0,0:0:0:0:
402,192,55685,1,0,0:0:0:0:
36,192,55685,1,0,0:0:0:0:
109,192,55774,1,0,0:0:0:0:
475,192,55774,1,0,0:0:0:0:
256,192,55863,1,0,0:0:0:0:
182,192,55863,1,0,0:0:0:0:
36,192,55863,1,0,0:0:0:0:
109,192,55952,1,0,0:0:0:0:
475,192,55952,1,0,0:0:0:0:
402,192,56042,128,0,56399:0:0:0:0:
256,192,56042,1,0,0:0:0:0:
182,192,56042,1,0,0:0:0:0:
36,192,56042,1,0,0:0:0:0:
109,192,56131,1,0,0:0:0:0:
329,192,56131,1,0,0:0:0:0:
256,192,56220,1,0,0:0:0:0:
182,192,56220,1,0,0:0:0:0:
475,192,56220,1,0,0:0:0:0:
329,192,56310,1,0,0:0:0:0:
36,192,56310,1,0,0:0:0:0:
475,192,56399,128,0,57470:0:0:0:0:
182,192,56399,1,0,0:0:0:0:
109,192,56399,1,0,0:0:0:0:
256,192,56399,1,0,0:0:0:0:
329,192,56488,1,0,0:0:0:0:
36,192,56488,1,0,0:0:0:0:
182,192,56577,1,0,0:0:0:0:
256,192,56577,1,0,0:0:0:0:
402,192,56577,1,0,0:0:0:0:
329,192,56667,1,0,0:0:0:0:
109,192,56667,1,0,0:0:0:0:
36,192,56756,1,0,0:0:0:0:
182,192,56756,1,0,0:0:0:0:
402,192,56756,1,0,0:0:0:0:
256,192,56756,1,0,0:0:0:0:
109,192,56845,1,0,0:0:0:0:
329,192,56845,1,0,0:0:0:0:
36,192,56935,1,0,0:0:0:0:
182,192,56935,1,0,0:0:0:0:
402,192,56935,1,0,0:0:0:0:
256,192,57024,1,0,0:0:0:0:
109,192,57024,1,0,0:0:0:0:
36,192,57113,1,0,0:0:0:0:
182,192,57113,1,0,0:0:0:0:
329,192,57113,1,0,0:0:0:0:
109,192,57202,1,0,0:0:0:0:
256,192,57202,1,0,0:0:0:0:
182,192,57292,1,0,0:0:0:0:
329,192,57292,1,0,0:0:0:0:
402,192,57292,1,0,0:0:0:0:
256,192,57381,1,0,0:0:0:0:
109,192,57381,1,0,0:0:0:0:
36,192,57470,1,0,0:0:0:0:
182,192,57470,1,0,0:0:0:0:
329,192,57470,1,0,0:0:0:0:
402,192,57470,1,0,0:0:0:0:
182,192,57649,1,0,0:0:0:0:
36,192,57649,1,0,0:0:0:0:
329,192,57649,1,0,0:0:0:0:
402,192,57649,1,0,0:0:0:0:
329,192,57827,128,0,59256:0:0:0:0:
256,192,57827,1,0,0:0:0:0:
109,192,57827,1,0,0:0:0:0:
402,192,57827,1,0,0:0:0:0:
475,192,57827,1,0,0:0:0:0:
182,192,57917,1,0,0:0:0:0:
36,192,57917,1,0,0:0:0:0:
256,192,58006,1,0,0:0:0:0:
109,192,58006,1,0,0:0:0:0:
475,192,58006,1,0,0:0:0:0:
182,192,58095,1,0,0:0:0:0:
402,192,58095,1,0,0:0:0:0:
36,192,58185,1,0,0:0:0:0:
109,192,58185,1,0,0:0:0:0:
256,192,58185,1,0,0:0:0:0:
475,192,58185,1,0,0:0:0:0:
182,192,58274,1,0,0:0:0:0:
402,192,58274,1,0,0:0:0:0:
475,192,58363,1,0,0:0:0:0:
256,192,58363,1,0,0:0:0:0:
36,192,58363,1,0,0:0:0:0:
182,192,58452,1,0,0:0:0:0:
402,192,58452,1,0,0:0:0:0:
256,192,58542,1,0,0:0:0:0:
36,192,58542,1,0,0:0:0:0:
475,192,58542,1,0,0:0:0:0:
109,192,58631,1,0,0:0:0:0:
402,192,58631,1,0,0:0:0:0:
256,192,58720,1,0,0:0:0:0:
182,192,58720,1,0,0:0:0:0:
475,192,58720,1,0,0:0:0:0:
109,192,58810,1,0,0:0:0:0:
402,192,58810,1,0,0:0:0:0:
256,192,58899,1,0,0:0:0:0:
475,192,58899,1,0,0:0:0:0:
36,192,58899,1,0,0:0:0:0:
182,192,58899,1,0,0:0:0:0:
109,192,58988,1,0,0:0:0:0:
402,192,58988,1,0,0:0:0:0:
36,192,59077,1,0,0:0:0:0:
256,192,59077,1,0,0:0:0:0:
475,192,59077,1,0,0:0:0:0:
109,192,59167,1,0,0:0:0:0:
402,192,59167,1,0,0:0:0:0:
182,192,59256,128,0,60685:0:0:0:0:
256,192,59256,1,0,0:0:0:0:
36,192,59256,1,0,0:0:0:0:
475,192,59256,1,0,0:0:0:0:
109,192,59345,1,0,0:0:0:0:
402,192,59345,1,0,0:0:0:0:
256,192,59435,1,0,0:0:0:0:
36,192,59435,1,0,0:0:0:0:
475,192,59435,1,0,0:0:0:0:
402,192,59524,1,0,0:0:0:0:
109,192,59524,1,0,0:0:0:0:
36,192,59613,1,0,0:0:0:0:
256,192,59613,1,0,0:0:0:0:
475,192,59613,1,0,0:0:0:0:
329,192,59613,1,0,0:0:0:0:
109,192,59702,1,0,0:0:0:0:
402,192,59702,1,0,0:0:0:0:
475,192,59792,1,0,0:0:0:0:
256,192,59792,1,0,0:0:0:0:
36,192,59792,1,0,0:0:0:0:
329,192,59881,1,0,0:0:0:0:
109,192,59881,1,0,0:0:0:0:
475,192,59970,1,0,0:0:0:0:
36,192,59970,1,0,0:0:0:0:
402,192,59970,1,0,0:0:0:0:
109,192,60060,1,0,0:0:0:0:
329,192,60060,1,0,0:0:0:0:
256,192,60149,1,0,0:0:0:0:
475,192,60149,1,0,0:0:0:0:
36,192,60149,1,0,0:0:0:0:
109,192,60238,1,0,0:0:0:0:
402,192,60238,1,0,0:0:0:0:
256,192,60327,1,0,0:0:0:0:
329,192,60327,1,0,0:0:0:0:
475,192,60327,1,0,0:0:0:0:
36,192,60327,1,0,0:0:0:0:
109,192,60417,1,0,0:0:0:0:
402,192,60417,1,0,0:0:0:0:
256,192,60506,1,0,0:0:0:0:
475,192,60506,1,0,0:0:0:0:
36,192,60506,1,0,0:0:0:0:
109,192,60595,1,0,0:0:0:0:
329,192,60595,1,0,0:0:0:0:
256,192,60685,128,0,62827:0:0:0:0:
402,192,60685,1,0,0:0:0:0:
475,192,60685,1,0,0:0:0:0:
36,192,60685,1,0,0:0:0:0:
109,192,60774,1,0,0:0:0:0:
329,192,60774,1,0,0:0:0:0:
182,192,60863,1,0,0:0:0:0:
402,192,60863,1,0,0:0:0:0:
36,192,60863,1,0,0:0:0:0:
109,192,60952,1,0,0:0:0:0:
475,192,60952,1,0,0:0:0:0:
402,192,61042,1,0,0:0:0:0:
329,192,61042,1,0,0:0:0:0:
182,192,61042,1,0,0:0:0:0:
36,192,61042,1,0,0:0:0:0:
109,192,61131,1,0,0:0:0:0:
475,192,61131,1,0,0:0:0:0:
402,192,61220,1,0,0:0:0:0:
182,192,61220,1,0,0:0:0:0:
36,192,61220,1,0,0:0:0:0:
109,192,61310,1,0,0:0:0:0:
329,192,61310,1,0,0:0:0:0:
402,192,61399,1,0,0:0:0:0:
475,192,61399,1,0,0:0:0:0:
182,192,61399,1,0,0:0:0:0:
36,192,61488,1,0,0:0:0:0:
329,192,61488,1,0,0:0:0:0:
109,192,61577,1,0,0:0:0:0:
182,192,61577,1,0,0:0:0:0:
402,192,61577,1,0,0:0:0:0:
475,192,61667,1,0,0:0:0:0:
36,192,61667,1,0,0:0:0:0:
109,192,61756,1,0,0:0:0:0:
402,192,61756,1,0,0:0:0:0:
329,192,61756,1,0,0:0:0:0:
182,192,61756,1,0,0:0:0:0:
36,192,61845,1,0,0:0:0:0:
475,192,61845,1,0,0:0:0:0:
402,192,61935,1,0,0:0:0:0:
182,192,61935,1,0,0:0:0:0:
329,192,61935,1,0,0:0:0:0:
109,192,62024,1,0,0:0:0:0:
475,192,62024,1,0,0:0:0:0:
329,192,62113,1,0,0:0:0:0:
182,192,62113,1,0,0:0:0:0:
36,192,62113,1,0,0:0:0:0:
109,192,62202,1,0,0:0:0:0:
402,192,62202,1,0,0:0:0:0:
329,192,62292,1,0,0:0:0:0:
475,192,62292,1,0,0:0:0:0:
182,192,62292,1,0,0:0:0:0:
36,192,62381,1,0,0:0:0:0:
402,192,62381,1,0,0:0:0:0:
109,192,62470,1,0,0:0:0:0:
182,192,62470,1,0,0:0:0:0:
329,192,62470,1,0,0:0:0:0:
475,192,62470,1,0,0:0:0:0:
36,192,62560,1,0,0:0:0:0:
402,192,62560,1,0,0:0:0:0:
329,192,62649,1,0,0:0:0:0:
182,192,62649,1,0,0:0:0:0:
475,192,62649,1,0,0:0:0:0:
109,192,62738,1,0,0:0:0:0:
402,192,62738,1,0,0:0:0:0:
329,192,62827,128,0,63542:0:0:0:0:
182,192,62827,1,0,0:0:0:0:
36,192,62827,1,0,0:0:0:0:
475,192,62827,1,0,0:0:0:0:
109,192,62917,1,0,0:0:0:0:
402,192,62917,1,0,0:0:0:0:
256,192,63006,1,0,0:0:0:0:
36,192,63006,1,0,0:0:0:0:
475,192,63006,1,0,0:0:0:0:
402,192,63095,1,0,0:0:0:0:
109,192,63095,1,0,0:0:0:0:
36,192,63185,1,0,0:0:0:0:
182,192,63185,1,0,0:0:0:0:
256,192,63185,1,0,0:0:0:0:
475,192,63185,1,0,0:0:0:0:
109,192,63274,1,0,0:0:0:0:
402,192,63274,1,0,0:0:0:0:
256,192,63363,1,0,0:0:0:0:
475,192,63363,1,0,0:0:0:0:
36,192,63363,1,0,0:0:0:0:
109,192,63452,1,0,0:0:0:0:
182,192,63452,1,0,0:0:0:0:
402,192,63542,128,0,65685:0:0:0:0:
256,192,63542,1,0,0:0:0:0:
36,192,63542,1,0,0:0:0:0:
475,192,63542,1,0,0:0:0:0:
109,192,63631,1,0,0:0:0:0:
182,192,63631,1,0,0:0:0:0:
256,192,63720,1,0,0:0:0:0:
36,192,63720,1,0,0:0:0:0:
475,192,63720,1,0,0:0:0:0:
109,192,63810,1,0,0:0:0:0:
329,192,63810,1,0,0:0:0:0:
182,192,63899,1,0,0:0:0:0:
256,192,63899,1,0,0:0:0:0:
475,192,63899,1,0,0:0:0:0:
329,192,63988,1,0,0:0:0:0:
109,192,63988,1,0,0:0:0:0:
256,192,64077,1,0,0:0:0:0:
475,192,64077,1,0,0:0:0:0:
182,192,64077,1,0,0:0:0:0:
109,192,64167,1,0,0:0:0:0:
329,192,64167,1,0,0:0:0:0:
475,192,64256,1,0,0:0:0:0:
256,192,64256,1,0,0:0:0:0:
36,192,64256,1,0,0:0:0:0:
109,192,64345,1,0,0:0:0:0:
329,192,64345,1,0,0:0:0:0:
475,192,64435,1,0,0:0:0:0:
256,192,64435,1,0,0:0:0:0:
36,192,64435,1,0,0:0:0:0:
109,192,64524,1,0,0:0:0:0:
182,192,64524,1,0,0:0:0:0:
475,192,64613,1,0,0:0:0:0:
256,192,64613,1,0,0:0:0:0:
36,192,64613,1,0,0:0:0:0:
109,192,64702,1,0,0:0:0:0:
329,192,64702,1,0,0:0:0:0:
475,192,64792,1,0,0:0:0:0:
256,192,64792,1,0,0:0:0:0:
36,192,64792,1,0,0:0:0:0:
109,192,64881,1,0,0:0:0:0:
182,192,64881,1,0,0:0:0:0:
475,192,64970,1,0,0:0:0:0:
256,192,64970,1,0,0:0:0:0:
36,192,64970,1,0,0:0:0:0:
109,192,65060,1,0,0:0:0:0:
329,192,65060,1,0,0:0:0:0:
256,192,65149,1,0,0:0:0:0:
36,192,65149,1,0,0:0:0:0:
109,192,65238,1,0,0:0:0:0:
329,192,65238,1,0,0:0:0:0:
36,192,65327,1,0,0:0:0:0:
256,192,65327,1,0,0:0:0:0:
329,192,65417,1,0,0:0:0:0:
182,192,65417,1,0,0:0:0:0:
109,192,65506,1,0,0:0:0:0:
256,192,65506,1,0,0:0:0:0:
329,192,65595,1,0,0:0:0:0:
36,192,65595,1,0,0:0:0:0:
182,192,65685,128,0,66042:0:0:0:0:
109,192,65685,1,0,0:0:0:0:
256,192,65685,1,0,0:0:0:0:
475,192,65685,1,0,0:0:0:0:
329,192,65774,1,0,0:0:0:0:
36,192,65774,1,0,0:0:0:0:
402,192,65774,1,0,0:0:0:0:
475,192,65863,1,0,0:0:0:0:
256,192,65863,1,0,0:0:0:0:
109,192,65863,1,0,0:0:0:0:
36,192,65952,1,0,0:0:0:0:
329,192,65952,1,0,0:0:0:0:
402,192,65952,1,0,0:0:0:0:
256,192,66042,128,0,66220:0:0:0:0:
475,192,66042,1,0,0:0:0:0:
109,192,66042,1,0,0:0:0:0:
36,192,66131,1,0,0:0:0:0:
182,192,66131,1,0,0:0:0:0:
402,192,66131,1,0,0:0:0:0:
329,192,66220,128,0,66399:0:0:0:0:
475,192,66220,1,0,0:0:0:0:
109,192,66220,1,0,0:0:0:0:
36,192,66310,1,0,0:0:0:0:
182,192,66310,1,0,0:0:0:0:
402,192,66310,1,0,0:0:0:0:
475,192,66399,128,0,69256:0:0:0:0:
109,192,66399,1,0,0:0:0:0:
256,192,66399,1,0,0:0:0:0:
182,192,66488,1,0,0:0:0:0:
329,192,66488,1,0,0:0:0:0:
256,192,66577,1,0,0:0:0:0:
402,192,66577,1,0,0:0:0:0:
329,192,66667,1,0,0:0:0:0:
182,192,66667,1,0,0:0:0:0:
109,192,66756,1,0,0:0:0:0:
256,192,66756,1,0,0:0:0:0:
402,192,66756,1,0,0:0:0:0:
36,192,66756,1,0,0:0:0:0:
182,192,66845,1,0,0:0:0:0:
329,192,66845,1,0,0:0:0:0:
256,192,66935,1,0,0:0:0:0:
109,192,66935,1,0,0:0:0:0:
329,192,67024,1,0,0:0:0:0:
182,192,67024,1,0,0:0:0:0:
109,192,67113,1,0,0:0:0:0:
256,192,67113,1,0,0:0:0:0:
402,192,67113,1,0,0:0:0:0:
36,192,67113,1,0,0:0:0:0:
329,192,67202,1,0,0:0:0:0:
182,192,67202,1,0,0:0:0:0:
109,192,67292,1,0,0:0:0:0:
256,192,67292,1,0,0:0:0:0:
182,192,67381,1,0,0:0:0:0:
329,192,67381,1,0,0:0:0:0:
109,192,67470,1,0,0:0:0:0:
256,192,67470,1,0,0:0:0:0:
402,192,67470,1,0,0:0:0:0:
36,192,67470,1,0,0:0:0:0:
329,192,67560,1,0,0:0:0:0:
182,192,67560,1,0,0:0:0:0:
36,192,67649,1,0,0:0:0:0:
256,192,67649,1,0,0:0:0:0:
402,192,67649,1,0,0:0:0:0:
109,192,67649,1,0,0:0:0:0:
329,192,67738,1,0,0:0:0:0:
182,192,67738,1,0,0:0:0:0:
36,192,67827,128,0,69256:0:0:0:0:
256,192,67827,1,0,0:0:0:0:
109,192,67827,1,0,0:0:0:0:
182,192,67917,1,0,0:0:0:0:
329,192,67917,1,0,0:0:0:0:
402,192,68006,1,0,0:0:0:0:
109,192,68006,1,0,0:0:0:0:
182,192,68095,1,0,0:0:0:0:
329,192,68095,1,0,0:0:0:0:
256,192,68185,1,0,0:0:0:0:
109,192,68185,1,0,0:0:0:0:
182,192,68274,1,0,0:0:0:0:
329,192,68274,1,0,0:0:0:0:
402,192,68363,1,0,0:0:0:0:
109,192,68363,1,0,0:0:0:0:
182,192,68452,1,0,0:0:0:0:
329,192,68452,1,0,0:0:0:0:
256,192,68542,1,0,0:0:0:0:
402,192,68542,1,0,0:0:0:0:
109,192,68542,1,0,0:0:0:0:
329,192,68631,1,0,0:0:0:0:
182,192,68631,1,0,0:0:0:0:
109,192,68720,1,0,0:0:0:0:
402,192,68720,1,0,0:0:0:0:
256,192,68720,1,0,0:0:0:0:
329,192,68810,1,0,0:0:0:0:
182,192,68810,1,0,0:0:0:0:
256,192,68899,1,0,0:0:0:0:
109,192,68899,1,0,0:0:0:0:
402,192,68899,1,0,0:0:0:0:
182,192,68988,1,0,0:0:0:0:
329,192,68988,1,0,0:0:0:0:
402,192,69077,1,0,0:0:0:0:
109,192,69077,1,0,0:0:0:0:
256,192,69077,1,0,0:0:0:0:
182,192,69167,1,0,0:0:0:0:
329,192,69167,1,0,0:0:0:0:
256,192,69256,128,0,75685:0:0:0:0:
402,192,72827,128,0,84256:0:0:0:0:
109,192,75685,128,0,84256:0:0:0:0:
182,192,77113,1,0,0:0:0:0:
329,192,77113,1,0,0:0:0:0:
182,192,78542,1,0,0:0:0:0:
329,192,78542,1,0,0:0:0:0:
182,192,79970,1,0,0:0:0:0:
329,192,79970,1,0,0:0:0:0:
182,192,80327,1,0,0:0:0:0:
329,192,80327,1,0,0:0:0:0:
182,192,80685,1,0,0:0:0:0:
329,192,80685,1,0,0:0:0:0:
329,192,81042,1,0,0:0:0:0:
182,192,81042,1,0,0:0:0:0:
256,192,81399,128,0,84256:0:0:0:0:
182,192,81399,1,0,0:0:0:0:
329,192,81399,1,0,0:0:0:0:
182,192,81577,1,0,0:0:0:0:
329,192,81577,1,0,0:0:0:0:
329,192,81756,1,0,0:0:0:0:
182,192,81756,1,0,0:0:0:0:
182,192,81935,1,0,0:0:0:0:
329,192,81935,1,0,0:0:0:0:
329,192,82113,1,0,0:0:0:0:
182,192,82113,1,0,0:0:0:0:
182,192,82292,1,0,0:0:0:0:
329,192,82292,1,0,0:0:0:0:
329,192,82470,1,0,0:0:0:0:
182,192,82470,1,0,0:0:0:0:
182,192,82649,1,0,0:0:0:0:
329,192,82649,1,0,0:0:0:0:
182,192,82827,1,0,0:0:0:0:
329,192,82827,1,0,0:0:0:0:
36,192,82917,1,0,0:0:0:0:
475,192,82917,1,0,0:0:0:0:
182,192,83006,1,0,0:0:0:0:
329,192,83006,1,0,0:0:0:0:
36,192,83095,1,0,0:0:0:0:
475,192,83095,1,0,0:0:0:0:
182,192,83185,1,0,0:0:0:0:
329,192,83185,1,0,0:0:0:0:
36,192,83274,1,0,0:0:0:0:
475,192,83274,1,0,0:0:0:0:
182,192,83363,1,0,0:0:0:0:
329,192,83363,1,0,0:0:0:0:
36,192,83452,1,0,0:0:0:0:
475,192,83452,1,0,0:0:0:0:
182,192,83542,1,0,0:0:0:0:
329,192,83542,1,0,0:0:0:0:
36,192,83631,1,0,0:0:0:0:
475,192,83631,1,0,0:0:0:0:
182,192,83720,1,0,0:0:0:0:
329,192,83720,1,0,0:0:0:0:
36,192,83810,1,0,0:0:0:0:
475,192,83810,1,0,0:0:0:0:
182,192,83899,1,0,0:0:0:0:
329,192,83899,1,0,0:0:0:0:
36,192,83988,1,0,0:0:0:0:
475,192,83988,1,0,0:0:0:0:
182,192,84077,1,0,0:0:0:0:
329,192,84077,1,0,0:0:0:0:
36,192,84167,1,0,0:0:0:0:
475,192,84167,1,0,0:0:0:0:
182,192,84256,1,0,0:0:0:0:
329,192,84256,1,0,0:0:0:0:
36,192,86399,128,0,86756:0:0:0:0:
182,192,86399,1,0,0:0:0:0:
256,192,86399,1,0,0:0:0:0:
402,192,86399,1,0,0:0:0:0:
329,192,86577,1,0,0:0:0:0:
182,192,86756,128,0,86935:0:0:0:0:
402,192,86756,1,0,0:0:0:0:
475,192,86756,1,0,0:0:0:0:
109,192,86935,128,0,87827:0:0:0:0:
329,192,86935,1,0,0:0:0:0:
36,192,87113,1,0,0:0:0:0:
182,192,87113,1,0,0:0:0:0:
329,192,87292,128,0,87470:0:0:0:0:
256,192,87292,1,0,0:0:0:0:
475,192,87470,128,0,87649:0:0:0:0:
182,192,87470,1,0,0:0:0:0:
402,192,87470,1,0,0:0:0:0:
402,192,87649,128,0,88006:0:0:0:0:
256,192,87649,1,0,0:0:0:0:
182,192,87827,128,0,88006:0:0:0:0:
329,192,87827,1,0,0:0:0:0:
475,192,87827,1,0,0:0:0:0:
329,192,88006,128,0,88363:0:0:0:0:
36,192,88006,128,0,88185:0:0:0:0:
256,192,88006,1,0,0:0:0:0:
109,192,88185,128,0,88363:0:0:0:0:
182,192,88185,1,0,0:0:0:0:
402,192,88185,1,0,0:0:0:0:
475,192,88363,128,0,88720:0:0:0:0:
182,192,88363,128,0,89256:0:0:0:0:
36,192,88363,1,0,0:0:0:0:
256,192,88542,1,0,0:0:0:0:
329,192,88542,1,0,0:0:0:0:
256,192,88720,128,0,88899:0:0:0:0:
402,192,88720,1,0,0:0:0:0:
329,192,88899,128,0,89077:0:0:0:0:
109,192,88899,1,0,0:0:0:0:
36,192,88899,1,0,0:0:0:0:
402,192,89077,128,0,89256:0:0:0:0:
256,192,89077,1,0,0:0:0:0:
475,192,89256,128,0,89613:0:0:0:0:
36,192,89256,128,0,89613:0:0:0:0:
109,192,89256,1,0,0:0:0:0:
329,192,89256,1,0,0:0:0:0:
256,192,89435,1,0,0:0:0:0:
109,192,89613,128,0,89792:0:0:0:0:
402,192,89613,128,0,89792:0:0:0:0:
256,192,89613,128,0,89792:0:0:0:0:
182,192,89613,1,0,0:0:0:0:
329,192,89613,1,0,0:0:0:0:
182,192,89792,128,0,90149:0:0:0:0:
329,192,89792,128,0,89970:0:0:0:0:
475,192,89792,128,0,89970:0:0:0:0:
36,192,89792,1,0,0:0:0:0:
402,192,89970,128,0,90327:0:0:0:0:
256,192,89970,128,0,90327:0:0:0:0:
109,192,89970,1,0,0:0:0:0:
36,192,89970,1,0,0:0:0:0:
36,192,90149,128,0,90327:0:0:0:0:
475,192,90149,1,0,0:0:0:0:
109,192,90327,128,0,90506:0:0:0:0:
329,192,90327,1,0,0:0:0:0:
182,192,90327,1,0,0:0:0:0:
182,192,90506,128,0,90685:0:0:0:0:
402,192,90506,1,0,0:0:0:0:
256,192,90685,128,0,90863:0:0:0:0:
329,192,90685,1,0,0:0:0:0:
475,192,90685,1,0,0:0:0:0:
36,192,90863,128,0,91042:0:0:0:0:
402,192,90863,1,0,0:0:0:0:
109,192,91042,128,0,91220:0:0:0:0:
329,192,91042,1,0,0:0:0:0:
182,192,91042,1,0,0:0:0:0:
256,192,91220,128,0,91399:0:0:0:0:
402,192,91220,1,0,0:0:0:0:
36,192,91220,1,0,0:0:0:0:
182,192,91399,128,0,91577:0:0:0:0:
329,192,91399,1,0,0:0:0:0:
475,192,91399,1,0,0:0:0:0:
109,192,91577,128,0,91756:0:0:0:0:
402,192,91577,1,0,0:0:0:0:
36,192,91756,128,0,91935:0:0:0:0:
329,192,91756,1,0,0:0:0:0:
182,192,91756,1,0,0:0:0:0:
182,192,91935,128,0,92113:0:0:0:0:
402,192,91935,1,0,0:0:0:0:
256,192,91935,1,0,0:0:0:0:
329,192,92113,128,0,93006:0:0:0:0:
36,192,92113,128,0,92292:0:0:0:0:
402,192,92113,1,0,0:0:0:0:
475,192,92113,1,0,0:0:0:0:
109,192,92292,128,0,92470:0:0:0:0:
256,192,92292,1,0,0:0:0:0:
182,192,92470,128,0,92649:0:0:0:0:
36,192,92470,1,0,0:0:0:0:
402,192,92470,1,0,0:0:0:0:
256,192,92649,128,0,92827:0:0:0:0:
109,192,92649,1,0,0:0:0:0:
475,192,92827,128,0,93542:0:0:0:0:
182,192,92827,1,0,0:0:0:0:
36,192,92827,1,0,0:0:0:0:
256,192,93006,128,0,93185:0:0:0:0:
109,192,93006,1,0,0:0:0:0:
329,192,93185,128,0,93542:0:0:0:0:
182,192,93185,1,0,0:0:0:0:
402,192,93185,1,0,0:0:0:0:
109,192,93363,1,0,0:0:0:0:
402,192,93542,128,0,94256:0:0:0:0:
36,192,93542,128,0,93899:0:0:0:0:
182,192,93542,1,0,0:0:0:0:
256,192,93542,1,0,0:0:0:0:
329,192,93720,1,0,0:0:0:0:
109,192,93899,128,0,94077:0:0:0:0:
256,192,93899,1,0,0:0:0:0:
475,192,93899,1,0,0:0:0:0:
182,192,94077,128,0,94613:0:0:0:0:
329,192,94077,1,0,0:0:0:0:
475,192,94256,128,0,94613:0:0:0:0:
109,192,94256,1,0,0:0:0:0:
36,192,94256,1,0,0:0:0:0:
329,192,94256,128,0,94613:0:0:0:0:
256,192,94435,1,0,0:0:0:0:
402,192,94613,128,0,94792:0:0:0:0:
256,192,94613,128,0,94970:0:0:0:0:
36,192,94613,1,0,0:0:0:0:
109,192,94613,1,0,0:0:0:0:
329,192,94792,128,0,94970:0:0:0:0:
182,192,94792,1,0,0:0:0:0:
475,192,94792,1,0,0:0:0:0:
402,192,94970,128,0,96220:0:0:0:0:
36,192,94970,128,0,95149:0:0:0:0:
109,192,94970,1,0,0:0:0:0:
475,192,94970,1,0,0:0:0:0:
109,192,95149,128,0,95327:0:0:0:0:
256,192,95149,1,0,0:0:0:0:
182,192,95327,128,0,95506:0:0:0:0:
329,192,95327,1,0,0:0:0:0:
475,192,95327,1,0,0:0:0:0:
256,192,95506,128,0,95863:0:0:0:0:
109,192,95506,1,0,0:0:0:0:
182,192,95685,1,0,0:0:0:0:
36,192,95685,1,0,0:0:0:0:
182,192,95863,128,0,96042:0:0:0:0:
109,192,95863,1,0,0:0:0:0:
329,192,96042,128,0,96220:0:0:0:0:
256,192,96042,1,0,0:0:0:0:
36,192,96042,1,0,0:0:0:0:
475,192,96220,128,0,96399:0:0:0:0:
256,192,96220,128,0,96399:0:0:0:0:
182,192,96220,1,0,0:0:0:0:
36,192,96220,1,0,0:0:0:0:
329,192,96399,128,0,97113:0:0:0:0:
109,192,96399,128,0,97113:0:0:0:0:
36,192,96399,1,0,0:0:0:0:
182,192,96488,1,0,0:0:0:0:
36,192,96577,1,0,0:0:0:0:
182,192,96667,1,0,0:0:0:0:
36,192,96756,1,0,0:0:0:0:
182,192,96845,1,0,0:0:0:0:
36,192,96935,1,0,0:0:0:0:
182,192,97024,1,0,0:0:0:0:
256,192,97113,1,0,0:0:0:0:
36,192,97113,128,0,97649:0:0:0:0:
329,192,97202,1,0,0:0:0:0:
109,192,97202,128,0,97381:0:0:0:0:
402,192,97292,1,0,0:0:0:0:
182,192,97292,128,0,97470:0:0:0:0:
475,192,97381,1,0,0:0:0:0:
256,192,97381,128,0,97560:0:0:0:0:
329,192,97470,1,0,0:0:0:0:
109,192,97470,128,0,97738:0:0:0:0:
402,192,97560,1,0,0:0:0:0:
182,192,97560,128,0,98006:0:0:0:0:
475,192,97649,1,0,0:0:0:0:
256,192,97649,128,0,97738:0:0:0:0:
36,192,97738,1,0,0:0:0:0:
329,192,97738,128,0,97827:0:0:0:0:
109,192,97827,1,0,0:0:0:0:
256,192,97827,1,0,0:0:0:0:
475,192,97827,1,0,0:0:0:0:
402,192,97827,128,0,98274:0:0:0:0:
36,192,97917,1,0,0:0:0:0:
329,192,97917,128,0,98185:0:0:0:0:
109,192,98006,1,0,0:0:0:0:
256,192,98006,128,0,98095:0:0:0:0:
182,192,98095,1,0,0:0:0:0:
36,192,98095,128,0,98542:0:0:0:0:
256,192,98185,1,0,0:0:0:0:
475,192,98185,1,0,0:0:0:0:
109,192,98185,128,0,98452:0:0:0:0:
329,192,98274,1,0,0:0:0:0:
182,192,98274,128,0,98363:0:0:0:0:
402,192,98363,1,0,0:0:0:0:
256,192,98363,128,0,98452:0:0:0:0:
329,192,98452,1,0,0:0:0:0:
182,192,98452,128,0,98720:0:0:0:0:
402,192,98542,1,0,0:0:0:0:
256,192,98542,1,0,0:0:0:0:
109,192,98542,128,0,98631:0:0:0:0:
475,192,98631,1,0,0:0:0:0:
36,192,98631,128,0,98988:0:0:0:0:
402,192,98720,1,0,0:0:0:0:
109,192,98720,128,0,98810:0:0:0:0:
329,192,98810,1,0,0:0:0:0:
182,192,98810,128,0,98899:0:0:0:0:
402,192,98899,1,0,0:0:0:0:
256,192,98899,1,0,0:0:0:0:
109,192,98899,128,0,99256:0:0:0:0:
329,192,98988,1,0,0:0:0:0:
182,192,98988,128,0,99077:0:0:0:0:
402,192,99077,1,0,0:0:0:0:
36,192,99077,1,0,0:0:0:0:
256,192,99077,128,0,99167:0:0:0:0:
329,192,99167,1,0,0:0:0:0:
182,192,99167,128,0,99345:0:0:0:0:
256,192,99256,1,0,0:0:0:0:
475,192,99256,1,0,0:0:0:0:
36,192,99256,128,0,99524:0:0:0:0:
329,192,99345,1,0,0:0:0:0:
109,192,99345,128,0,99613:0:0:0:0:
402,192,99435,1,0,0:0:0:0:
182,192,99435,128,0,99524:0:0:0:0:
475,192,99524,1,0,0:0:0:0:
256,192,99524,128,0,99792:0:0:0:0:
36,192,99613,1,0,0:0:0:0:
182,192,99613,1,0,0:0:0:0:
329,192,99613,128,0,99881:0:0:0:0:
109,192,99702,1,0,0:0:0:0:
402,192,99702,128,0,99970:0:0:0:0:
182,192,99792,1,0,0:0:0:0:
475,192,99792,128,0,99881:0:0:0:0:
36,192,99881,1,0,0:0:0:0:
256,192,99881,128,0,100060:0:0:0:0:
109,192,99970,1,0,0:0:0:0:
475,192,99970,1,0,0:0:0:0:
329,192,99970,128,0,100149:0:0:0:0:
182,192,100060,1,0,0:0:0:0:
402,192,100060,128,0,100149:0:0:0:0:
256,192,100149,1,0,0:0:0:0:
475,192,100149,1,0,0:0:0:0:
475,192,100327,1,0,0:0:0:0:
36,192,100327,1,0,0:0:0:0:
256,192,100327,128,0,100506:0:0:0:0:
402,192,100417,1,0,0:0:0:0:
182,192,100417,128,0,100595:0:0:0:0:
329,192,100506,1,0,0:0:0:0:
475,192,100506,1,0,0:0:0:0:
109,192,100506,128,0,100685:0:0:0:0:
36,192,100595,128,0,100774:0:0:0:0:
256,192,100595,128,0,100863:0:0:0:0:
475,192,100685,1,0,0:0:0:0:
329,192,100685,1,0,0:0:0:0:
182,192,100685,128,0,100952:0:0:0:0:
402,192,100774,1,0,0:0:0:0:
109,192,100774,128,0,100863:0:0:0:0:
329,192,100863,1,0,0:0:0:0:
36,192,100863,128,0,101131:0:0:0:0:
256,192,100952,1,0,0:0:0:0:
109,192,100952,128,0,101042:0:0:0:0:
182,192,101042,1,0,0:0:0:0:
475,192,101042,1,0,0:0:0:0:
329,192,101042,128,0,101310:0:0:0:0:
109,192,101131,1,0,0:0:0:0:
256,192,101131,128,0,101220:0:0:0:0:
36,192,101220,1,0,0:0:0:0:
182,192,101220,128,0,101488:0:0:0:0:
109,192,101310,1,0,0:0:0:0:
256,192,101310,128,0,101577:0:0:0:0:
36,192,101399,1,0,0:0:0:0:
475,192,101399,1,0,0:0:0:0:
329,192,101399,128,0,101667:0:0:0:0:
109,192,101488,1,0,0:0:0:0:
402,192,101488,128,0,101577:0:0:0:0:
182,192,101577,1,0,0:0:0:0:
475,192,101577,128,0,102024:0:0:0:0:
256,192,101667,1,0,0:0:0:0:
402,192,101667,128,0,101756:0:0:0:0:
182,192,101756,1,0,0:0:0:0:
36,192,101756,1,0,0:0:0:0:
329,192,101756,128,0,101845:0:0:0:0:
109,192,101845,1,0,0:0:0:0:
402,192,101845,128,0,102113:0:0:0:0:
36,192,101935,1,0,0:0:0:0:
329,192,101935,128,0,102024:0:0:0:0:
109,192,102024,1,0,0:0:0:0:
256,192,102024,128,0,102470:0:0:0:0:
182,192,102113,1,0,0:0:0:0:
475,192,102113,1,0,0:0:0:0:
329,192,102113,128,0,102381:0:0:0:0:
109,192,102202,1,0,0:0:0:0:
402,192,102202,128,0,102292:0:0:0:0:
182,192,102292,1,0,0:0:0:0:
475,192,102292,128,0,102560:0:0:0:0:
109,192,102381,1,0,0:0:0:0:
402,192,102381,128,0,102470:0:0:0:0:
182,192,102470,1,0,0:0:0:0:
36,192,102470,1,0,0:0:0:0:
329,192,102470,128,0,102917:0:0:0:0:
402,192,102560,1,0,0:0:0:0:
256,192,102560,128,0,102738:0:0:0:0:
475,192,102649,1,0,0:0:0:0:
182,192,102649,128,0,103095:0:0:0:0:
402,192,102738,1,0,0:0:0:0:
109,192,102738,128,0,102827:0:0:0:0:
475,192,102827,1,0,0:0:0:0:
256,192,102827,1,0,0:0:0:0:
36,192,102827,128,0,102917:0:0:0:0:
402,192,102917,1,0,0:0:0:0:
109,192,102917,128,0,103006:0:0:0:0:
329,192,103006,1,0,0:0:0:0:
36,192,103006,128,0,103274:0:0:0:0:
109,192,103095,1,0,0:0:0:0:
256,192,103095,128,0,103363:0:0:0:0:
182,192,103185,1,0,0:0:0:0:
475,192,103185,1,0,0:0:0:0:
329,192,103185,128,0,103274:0:0:0:0:
109,192,103274,1,0,0:0:0:0:
402,192,103274,128,0,103542:0:0:0:0:
36,192,103363,1,0,0:0:0:0:
182,192,103363,1,0,0:0:0:0:
329,192,103363,128,0,103452:0:0:0:0:
109,192,103452,1,0,0:0:0:0:
256,192,103452,128,0,103720:0:0:0:0:
329,192,103542,1,0,0:0:0:0:
475,192,103542,1,0,0:0:0:0:
182,192,103542,128,0,103810:0:0:0:0:
402,192,103631,1,0,0:0:0:0:
109,192,103631,128,0,103720:0:0:0:0:
329,192,103720,1,0,0:0:0:0:
36,192,103720,128,0,104970:0:0:0:0:
256,192,103810,1,0,0:0:0:0:
109,192,103810,128,0,104435:0:0:0:0:
329,192,103899,1,0,0:0:0:0:
475,192,103899,1,0,0:0:0:0:
182,192,103899,128,0,103988:0:0:0:0:
402,192,103988,1,0,0:0:0:0:
256,192,103988,128,0,104077:0:0:0:0:
475,192,104077,1,0,0:0:0:0:
182,192,104077,128,0,104167:0:0:0:0:
402,192,104167,1,0,0:0:0:0:
256,192,104167,128,0,104435:0:0:0:0:
475,192,104256,1,0,0:0:0:0:
182,192,104256,128,0,104524:0:0:0:0:
329,192,104256,128,0,105238:0:0:0:0:
256,192,104524,128,0,104792:0:0:0:0:
109,192,104524,128,0,104970:0:0:0:0:
475,192,104613,1,0,0:0:0:0:
182,192,104613,128,0,104702:0:0:0:0:
475,192,104792,1,0,0:0:0:0:
182,192,104792,128,0,104881:0:0:0:0:
256,192,104881,128,0,105327:0:0:0:0:
402,192,104881,128,0,105149:0:0:0:0:
475,192,104970,128,0,105595:0:0:0:0:
182,192,104970,128,0,105238:0:0:0:0:
109,192,105238,1,0,0:0:0:0:
402,192,105238,128,0,105863:0:0:0:0:
182,192,105327,1,0,0:0:0:0:
36,192,105327,1,0,0:0:0:0:
329,192,105327,128,0,105595:0:0:0:0:
109,192,105417,1,0,0:0:0:0:
256,192,105417,128,0,105506:0:0:0:0:
36,192,105506,1,0,0:0:0:0:
182,192,105506,128,0,105595:0:0:0:0:
109,192,105595,1,0,0:0:0:0:
256,192,105595,128,0,105685:0:0:0:0:
329,192,105685,1,0,0:0:0:0:
475,192,105685,1,0,0:0:0:0:
182,192,105685,128,0,105774:0:0:0:0:
256,192,105774,1,0,0:0:0:0:
109,192,105774,128,0,106220:0:0:0:0:
329,192,105863,1,0,0:0:0:0:
182,192,105863,128,0,106131:0:0:0:0:
402,192,105952,1,0,0:0:0:0:
256,192,105952,128,0,106042:0:0:0:0:
475,192,106042,1,0,0:0:0:0:
36,192,106042,1,0,0:0:0:0:
329,192,106042,128,0,106310:0:0:0:0:
402,192,106131,1,0,0:0:0:0:
256,192,106131,128,0,106399:0:0:0:0:
475,192,106220,1,0,0:0:0:0:
36,192,106220,1,0,0:0:0:0:
182,192,106220,128,0,106310:0:0:0:0:
109,192,106310,1,0,0:0:0:0:
402,192,106310,128,0,106577:0:0:0:0:
182,192,106399,1,0,0:0:0:0:
475,192,106399,1,0,0:0:0:0:
329,192,106399,128,0,106488:0:0:0:0:
109,192,106488,1,0,0:0:0:0:
256,192,106488,128,0,106756:0:0:0:0:
36,192,106577,1,0,0:0:0:0:
329,192,106577,128,0,106667:0:0:0:0:
109,192,106667,1,0,0:0:0:0:
402,192,106667,128,0,106756:0:0:0:0:
182,192,106756,1,0,0:0:0:0:
36,192,106756,1,0,0:0:0:0:
329,192,106756,128,0,106845:0:0:0:0:
402,192,106845,1,0,0:0:0:0:
256,192,106845,128,0,107470:0:0:0:0:
329,192,106935,1,0,0:0:0:0:
182,192,106935,128,0,107202:0:0:0:0:
402,192,107024,1,0,0:0:0:0:
109,192,107024,128,0,107113:0:0:0:0:
329,192,107113,1,0,0:0:0:0:
475,192,107113,1,0,0:0:0:0:
36,192,107113,128,0,107381:0:0:0:0:
402,192,107202,1,0,0:0:0:0:
109,192,107202,128,0,107292:0:0:0:0:
475,192,107292,1,0,0:0:0:0:
182,192,107292,128,0,107917:0:0:0:0:
402,192,107381,1,0,0:0:0:0:
109,192,107381,128,0,107470:0:0:0:0:
329,192,107470,1,0,0:0:0:0:
475,192,107470,1,0,0:0:0:0:
36,192,107470,128,0,107560:0:0:0:0:
256,192,107560,1,0,0:0:0:0:
109,192,107560,128,0,107649:0:0:0:0:
329,192,107649,1,0,0:0:0:0:
402,192,107649,1,0,0:0:0:0:
36,192,107649,128,0,107738:0:0:0:0:
256,192,107738,1,0,0:0:0:0:
109,192,107738,128,0,107827:0:0:0:0:
329,192,107827,1,0,0:0:0:0:
475,192,107827,1,0,0:0:0:0:
36,192,107827,128,0,108095:0:0:0:0:
402,192,107917,1,0,0:0:0:0:
109,192,107917,128,0,108185:0:0:0:0:
475,192,108006,1,0,0:0:0:0:
182,192,108006,128,0,108095:0:0:0:0:
402,192,108095,1,0,0:0:0:0:
256,192,108095,128,0,108363:0:0:0:0:
182,192,108185,1,0,0:0:0:0:
36,192,108185,1,0,0:0:0:0:
329,192,108185,128,0,108452:0:0:0:0:
109,192,108274,1,0,0:0:0:0:
402,192,108274,128,0,108363:0:0:0:0:
182,192,108363,1,0,0:0:0:0:
475,192,108363,128,0,108452:0:0:0:0:
256,192,108452,1,0,0:0:0:0:
402,192,108452,128,0,108542:0:0:0:0:
182,192,108542,1,0,0:0:0:0:
329,192,108542,128,0,108631:0:0:0:0:
475,192,108542,128,0,108810:0:0:0:0:
36,192,108542,1,0,0:0:0:0:
109,192,108631,1,0,0:0:0:0:
402,192,108631,128,0,108899:0:0:0:0:
36,192,108720,1,0,0:0:0:0:
329,192,108720,128,0,108810:0:0:0:0:
109,192,108810,1,0,0:0:0:0:
256,192,108810,128,0,109077:0:0:0:0:
182,192,108899,1,0,0:0:0:0:
475,192,108899,1,0,0:0:0:0:
329,192,108899,128,0,109167:0:0:0:0:
109,192,108988,1,0,0:0:0:0:
402,192,108988,128,0,109077:0:0:0:0:
182,192,109077,1,0,0:0:0:0:
36,192,109077,1,0,0:0:0:0:
475,192,109077,128,0,109524:0:0:0:0:
256,192,109167,1,0,0:0:0:0:
402,192,109167,128,0,109256:0:0:0:0:
182,192,109256,1,0,0:0:0:0:
36,192,109256,1,0,0:0:0:0:
329,192,109256,128,0,109345:0:0:0:0:
402,192,109345,1,0,0:0:0:0:
256,192,109345,128,0,109792:0:0:0:0:
329,192,109435,1,0,0:0:0:0:
182,192,109435,128,0,109702:0:0:0:0:
402,192,109524,1,0,0:0:0:0:
109,192,109524,128,0,109613:0:0:0:0:
475,192,109613,1,0,0:0:0:0:
329,192,109613,1,0,0:0:0:0:
36,192,109613,128,0,109881:0:0:0:0:
402,192,109702,1,0,0:0:0:0:
109,192,109702,128,0,109792:0:0:0:0:
329,192,109792,1,0,0:0:0:0:
182,192,109792,128,0,110238:0:0:0:0:
109,192,109881,1,0,0:0:0:0:
256,192,109881,128,0,110327:0:0:0:0:
36,192,109970,1,0,0:0:0:0:
475,192,109970,1,0,0:0:0:0:
329,192,109970,128,0,110060:0:0:0:0:
109,192,110060,1,0,0:0:0:0:
402,192,110060,128,0,110149:0:0:0:0:
36,192,110149,1,0,0:0:0:0:
329,192,110149,128,0,110417:0:0:0:0:
109,192,110238,1,0,0:0:0:0:
402,192,110238,128,0,110327:0:0:0:0:
182,192,110327,1,0,0:0:0:0:
36,192,110327,1,0,0:0:0:0:
475,192,110327,128,0,110595:0:0:0:0:
256,192,110417,1,0,0:0:0:0:
402,192,110417,128,0,110506:0:0:0:0:
182,192,110506,1,0,0:0:0:0:
109,192,110506,1,0,0:0:0:0:
329,192,110506,128,0,110595:0:0:0:0:
402,192,110595,1,0,0:0:0:0:
256,192,110595,128,0,110863:0:0:0:0:
475,192,110685,1,0,0:0:0:0:
329,192,110685,1,0,0:0:0:0:
182,192,110685,128,0,110952:0:0:0:0:
402,192,110774,1,0,0:0:0:0:
109,192,110774,128,0,111042:0:0:0:0:
329,192,110863,1,0,0:0:0:0:
36,192,110863,128,0,110952:0:0:0:0:
475,192,110952,1,0,0:0:0:0:
256,192,110952,128,0,111131:0:0:0:0:
402,192,111042,1,0,0:0:0:0:
36,192,111042,1,0,0:0:0:0:
182,192,111042,128,0,111220:0:0:0:0:
329,192,111131,1,0,0:0:0:0:
109,192,111131,128,0,111310:0:0:0:0:
256,192,111220,1,0,0:0:0:0:
36,192,111220,128,0,111399:0:0:0:0:
475,192,111310,1,0,0:0:0:0:
182,192,111310,128,0,111577:0:0:0:0:
402,192,111399,1,0,0:0:0:0:
256,192,111399,1,0,0:0:0:0:
109,192,111399,128,0,111488:0:0:0:0:
329,192,111488,1,0,0:0:0:0:
36,192,111488,128,0,111577:0:0:0:0:
256,192,111577,1,0,0:0:0:0:
109,192,111577,128,0,111667:0:0:0:0:
36,192,111667,1,0,0:0:0:0:
182,192,111667,128,0,111756:0:0:0:0:
109,192,111756,1,0,0:0:0:0:
475,192,111756,1,0,0:0:0:0:
256,192,111756,128,0,111935:0:0:0:0:
182,192,111845,1,0,0:0:0:0:
329,192,111845,128,0,111935:0:0:0:0:
402,192,111935,1,0,0:0:0:0:
109,192,111935,1,0,0:0:0:0:
475,192,111935,1,0,0:0:0:0:
329,192,112113,1,0,0:0:0:0:
256,192,112113,1,0,0:0:0:0:
36,192,112113,128,0,112560:0:0:0:0:
402,192,112202,1,0,0:0:0:0:
109,192,112202,128,0,112470:0:0:0:0:
475,192,112292,1,0,0:0:0:0:
182,192,112292,128,0,112381:0:0:0:0:
402,192,112381,1,0,0:0:0:0:
256,192,112381,128,0,112827:0:0:0:0:
475,192,112470,1,0,0:0:0:0:
329,192,112470,1,0,0:0:0:0:
182,192,112470,128,0,112738:0:0:0:0:
402,192,112560,1,0,0:0:0:0:
109,192,112560,128,0,112649:0:0:0:0:
329,192,112649,1,0,0:0:0:0:
36,192,112649,128,0,112738:0:0:0:0:
402,192,112738,1,0,0:0:0:0:
109,192,112738,128,0,113185:0:0:0:0:
475,192,112827,1,0,0:0:0:0:
36,192,112827,1,0,0:0:0:0:
182,192,112827,128,0,112917:0:0:0:0:
402,192,112917,1,0,0:0:0:0:
256,192,112917,128,0,113006:0:0:0:0:
329,192,113006,1,0,0:0:0:0:
182,192,113006,128,0,113095:0:0:0:0:
402,192,113095,1,0,0:0:0:0:
256,192,113095,128,0,113363:0:0:0:0:
182,192,113185,1,0,0:0:0:0:
475,192,113185,1,0,0:0:0:0:
329,192,113185,128,0,113274:0:0:0:0:
109,192,113274,1,0,0:0:0:0:
402,192,113274,128,0,113542:0:0:0:0:
182,192,113363,1,0,0:0:0:0:
329,192,113363,128,0,113631:0:0:0:0:
109,192,113452,1,0,0:0:0:0:
256,192,113452,128,0,113720:0:0:0:0:
182,192,113542,1,0,0:0:0:0:
36,192,113542,1,0,0:0:0:0:
475,192,113542,128,0,113720:0:0:0:0:
109,192,113631,1,0,0:0:0:0:
402,192,113631,128,0,113810:0:0:0:0:
36,192,113720,1,0,0:0:0:0:
329,192,113720,128,0,113899:0:0:0:0:
475,192,113810,1,0,0:0:0:0:
256,192,113810,128,0,113988:0:0:0:0:
182,192,113899,1,0,0:0:0:0:
36,192,113899,1,0,0:0:0:0:
402,192,113899,128,0,114167:0:0:0:0:
109,192,113988,1,0,0:0:0:0:
329,192,113988,128,0,114256:0:0:0:0:
36,192,114077,1,0,0:0:0:0:
256,192,114077,128,0,114167:0:0:0:0:
182,192,114167,1,0,0:0:0:0:
475,192,114167,128,0,114524:0:0:0:0:
256,192,114256,1,0,0:0:0:0:
109,192,114256,1,0,0:0:0:0:
402,192,114256,128,0,114345:0:0:0:0:
182,192,114345,1,0,0:0:0:0:
329,192,114345,128,0,114435:0:0:0:0:
256,192,114435,1,0,0:0:0:0:
402,192,114435,128,0,114702:0:0:0:0:
329,192,114524,1,0,0:0:0:0:
182,192,114524,128,0,114792:0:0:0:0:
256,192,114613,1,0,0:0:0:0:
475,192,114613,1,0,0:0:0:0:
109,192,114613,128,0,114702:0:0:0:0:
329,192,114702,1,0,0:0:0:0:
36,192,114702,128,0,114881:0:0:0:0:
402,192,114792,1,0,0:0:0:0:
256,192,114792,1,0,0:0:0:0:
109,192,114792,128,0,115060:0:0:0:0:
329,192,114881,1,0,0:0:0:0:
182,192,114881,128,0,114970:0:0:0:0:
402,192,114970,1,0,0:0:0:0:
36,192,114970,1,0,0:0:0:0:
256,192,114970,128,0,115238:0:0:0:0:
475,192,115060,1,0,0:0:0:0:
182,192,115060,128,0,115149:0:0:0:0:
402,192,115149,1,0,0:0:0:0:
109,192,115149,128,0,115417:0:0:0:0:
475,192,115238,1,0,0:0:0:0:
182,192,115238,128,0,115327:0:0:0:0:
402,192,115327,1,0,0:0:0:0:
36,192,115327,1,0,0:0:0:0:
256,192,115327,128,0,115417:0:0:0:0:
182,192,115417,1,0,0:0:0:0:
329,192,115417,128,0,115506:0:0:0:0:
109,192,115506,1,0,0:0:0:0:
256,192,115506,128,0,115774:0:0:0:0:
36,192,115595,1,0,0:0:0:0:
329,192,115595,128,0,115685:0:0:0:0:
109,192,115685,1,0,0:0:0:0:
475,192,115685,1,0,0:0:0:0:
402,192,115685,128,0,115774:0:0:0:0:
182,192,115774,1,0,0:0:0:0:
329,192,115774,128,0,116042:0:0:0:0:
256,192,115863,1,0,0:0:0:0:
402,192,115863,128,0,115952:0:0:0:0:
182,192,115952,1,0,0:0:0:0:
475,192,115952,128,0,116131:0:0:0:0:
109,192,116042,1,0,0:0:0:0:
36,192,116042,1,0,0:0:0:0:
402,192,116042,128,0,116310:0:0:0:0:
182,192,116131,1,0,0:0:0:0:
329,192,116131,128,0,116220:0:0:0:0:
109,192,116220,1,0,0:0:0:0:
475,192,116220,1,0,0:0:0:0:
256,192,116220,128,0,116310:0:0:0:0:
36,192,116310,1,0,0:0:0:0:
329,192,116310,128,0,116399:0:0:0:0:
402,192,116399,1,0,0:0:0:0:
256,192,116399,1,0,0:0:0:0:
109,192,116399,128,0,116488:0:0:0:0:
329,192,116488,1,0,0:0:0:0:
36,192,116488,128,0,116935:0:0:0:0:
402,192,116577,1,0,0:0:0:0:
256,192,116577,1,0,0:0:0:0:
109,192,116577,128,0,116667:0:0:0:0:
475,192,116667,1,0,0:0:0:0:
182,192,116667,128,0,116756:0:0:0:0:
402,192,116756,1,0,0:0:0:0:
256,192,116756,1,0,0:0:0:0:
109,192,116756,128,0,116845:0:0:0:0:
329,192,116845,1,0,0:0:0:0:
182,192,116845,128,0,117113:0:0:0:0:
109,192,116935,1,0,0:0:0:0:
475,192,116935,1,0,0:0:0:0:
256,192,116935,128,0,117024:0:0:0:0:
36,192,117024,1,0,0:0:0:0:
329,192,117024,128,0,117292:0:0:0:0:
109,192,117113,1,0,0:0:0:0:
256,192,117113,1,0,0:0:0:0:
402,192,117113,128,0,117202:0:0:0:0:
182,192,117202,1,0,0:0:0:0:
475,192,117202,128,0,117470:0:0:0:0:
109,192,117292,1,0,0:0:0:0:
402,192,117292,128,0,117381:0:0:0:0:
256,192,117292,1,0,0:0:0:0:
36,192,117381,1,0,0:0:0:0:
329,192,117381,128,0,117649:0:0:0:0:
109,192,117470,1,0,0:0:0:0:
256,192,117470,1,0,0:0:0:0:
402,192,117470,128,0,117560:0:0:0:0:
182,192,117560,1,0,0:0:0:0:
475,192,117560,128,0,117738:0:0:0:0:
109,192,117649,1,0,0:0:0:0:
36,192,117649,1,0,0:0:0:0:
402,192,117649,128,0,118095:0:0:0:0:
182,192,117738,1,0,0:0:0:0:
329,192,117738,128,0,118006:0:0:0:0:
109,192,117827,1,0,0:0:0:0:
475,192,117827,1,0,0:0:0:0:
256,192,117827,128,0,117917:0:0:0:0:
182,192,117917,1,0,0:0:0:0:
36,192,117917,128,0,118274:0:0:0:0:
256,192,118006,1,0,0:0:0:0:
109,192,118006,128,0,118095:0:0:0:0:
329,192,118095,1,0,0:0:0:0:
182,192,118095,128,0,118185:0:0:0:0:
256,192,118185,1,0,0:0:0:0:
402,192,118185,1,0,0:0:0:0:
475,192,118185,1,0,0:0:0:0:
109,192,118185,128,0,118631:0:0:0:0:
329,192,118274,1,0,0:0:0:0:
182,192,118274,128,0,118542:0:0:0:0:
402,192,118363,1,0,0:0:0:0:
36,192,118363,1,0,0:0:0:0:
256,192,118363,128,0,118452:0:0:0:0:
329,192,118452,1,0,0:0:0:0:
475,192,118452,128,0,118988:0:0:0:0:
256,192,118542,1,0,0:0:0:0:
36,192,118542,1,0,0:0:0:0:
402,192,118542,128,0,118810:0:0:0:0:
182,192,118631,1,0,0:0:0:0:
329,192,118631,128,0,118720:0:0:0:0:
109,192,118720,1,0,0:0:0:0:
256,192,118720,128,0,118810:0:0:0:0:
182,192,118810,1,0,0:0:0:0:
329,192,118810,128,0,118899:0:0:0:0:
256,192,118899,1,0,0:0:0:0:
109,192,118899,1,0,0:0:0:0:
36,192,118899,1,0,0:0:0:0:
402,192,118899,128,0,119167:0:0:0:0:
182,192,118988,1,0,0:0:0:0:
329,192,118988,128,0,119077:0:0:0:0:
109,192,119077,1,0,0:0:0:0:
475,192,119077,1,0,0:0:0:0:
256,192,119077,128,0,119345:0:0:0:0:
36,192,119167,1,0,0:0:0:0:
329,192,119167,128,0,119256:0:0:0:0:
182,192,119256,1,0,0:0:0:0:
402,192,119256,128,0,119435:0:0:0:0:
109,192,119256,128,0,119345:0:0:0:0:
329,192,119345,128,0,119524:0:0:0:0:
36,192,119345,128,0,119613:0:0:0:0:
256,192,119435,128,0,119613:0:0:0:0:
109,192,119435,1,0,0:0:0:0:
475,192,119435,128,0,119524:0:0:0:0:
182,192,119524,128,0,119702:0:0:0:0:
402,192,119524,128,0,119792:0:0:0:0:
475,192,119613,1,0,0:0:0:0:
109,192,119613,128,0,119792:0:0:0:0:
329,192,119613,128,0,119702:0:0:0:0:
36,192,119702,128,0,119881:0:0:0:0:
256,192,119702,128,0,119970:0:0:0:0:
329,192,119792,1,0,0:0:0:0:
475,192,119792,128,0,119970:0:0:0:0:
182,192,119792,128,0,119881:0:0:0:0:
402,192,119881,128,0,120060:0:0:0:0:
109,192,119881,128,0,119970:0:0:0:0:
182,192,119970,1,0,0:0:0:0:
329,192,119970,128,0,120327:0:0:0:0:
36,192,119970,128,0,120060:0:0:0:0:
109,192,120060,1,0,0:0:0:0:
475,192,120060,128,0,120149:0:0:0:0:
256,192,120060,128,0,120149:0:0:0:0:
36,192,120149,1,0,0:0:0:0:
402,192,120149,128,0,120238:0:0:0:0:
182,192,120149,128,0,120238:0:0:0:0:
109,192,120238,1,0,0:0:0:0:
475,192,120238,128,0,120327:0:0:0:0:
256,192,120238,128,0,120417:0:0:0:0:
36,192,120327,1,0,0:0:0:0:
402,192,120327,128,0,120417:0:0:0:0:
182,192,120327,128,0,120595:0:0:0:0:
475,192,120417,1,0,0:0:0:0:
329,192,120417,128,0,120506:0:0:0:0:
109,192,120417,128,0,120506:0:0:0:0:
402,192,120506,1,0,0:0:0:0:
36,192,120506,128,0,120685:0:0:0:0:
256,192,120506,128,0,120685:0:0:0:0:
475,192,120595,1,0,0:0:0:0:
109,192,120595,128,0,120685:0:0:0:0:
329,192,120595,128,0,120685:0:0:0:0:
182,192,120685,1,0,0:0:0:0:
402,192,120685,1,0,0:0:0:0:
329,192,121399,1,0,0:0:0:0:
256,192,122113,1,0,0:0:0:0:
182,192,122827,1,0,0:0:0:0:
329,192,123542,1,0,0:0:0:0:
109,192,123542,1,0,0:0:0:0:
256,192,124256,1,0,0:0:0:0:
182,192,124970,1,0,0:0:0:0:
109,192,125685,1,0,0:0:0:0:
256,192,126399,1,0,0:0:0:0:
36,192,126399,1,0,0:0:0:0:
109,192,126756,1,0,0:0:0:0:
182,192,127113,1,0,0:0:0:0:
256,192,127470,1,0,0:0:0:0:
329,192,127827,1,0,0:0:0:0:
402,192,128185,1,0,0:0:0:0:
256,192,128185,1,0,0:0:0:0:
329,192,128542,1,0,0:0:0:0:
402,192,128899,1,0,0:0:0:0:
475,192,129256,1,0,0:0:0:0:
182,192,129256,1,0,0:0:0:0:
36,192,129256,1,0,0:0:0:0:
109,192,130685,1,0,0:0:0:0:
256,192,130685,1,0,0:0:0:0:
402,192,130685,1,0,0:0:0:0:
475,192,130685,1,0,0:0:0:0:
36,192,130685,1,0,0:0:0:0:
