osu file format v13

[General]
AudioFilename: Blue Rose Ruin.mp3
AudioLeadIn: 0
PreviewTime: 12606
Countdown: 0
SampleSet: None
StackLeniency: 0.7
Mode: 1
LetterboxInBreaks: 0
WidescreenStoryboard: 0

[Editor]
DistanceSpacing: 2
BeatDivisor: 4
GridSize: 8
TimelineZoom: 1

[Metadata]
Title:Blue Rose Ruin
TitleUnicode:Blue Rose Ruin
Artist:Zeami
ArtistUnicode:世阿弥
Creator:TaMul
Version:Muzukashii
Source:太鼓の達人
Tags:
BeatmapID:457582
BeatmapSetID:192411

[Difficulty]
HPDrainRate:4
CircleSize:5
OverallDifficulty:4
ApproachRate:4
SliderMultiplier:1.4
SliderTickRate:1

[Events]
//Background and Video events
0,0,"308962-1366x768.jpg",0,60
//Break Periods
//Storyboard Layer 0 (Background)
//Storyboard Layer 1 (Fail)
//Storyboard Layer 2 (Pass)
//Storyboard Layer 3 (Foreground)
//Storyboard Sound Samples
//Background Colour Transformations
3,100,163,162,255

[TimingPoints]
2228,324.324324324324,4,2,0,100,1,0
58011,-100,4,2,0,100,0,1
78768,-100,4,2,0,100,0,0
99525,-100,4,2,0,100,0,1
109903,-100,4,2,0,100,0,0

[HitObjects]
128,80,2228,5,0,0:0:0:0:
128,80,2876,1,0,0:0:0:0:
128,80,3525,1,0,0:0:0:0:
128,80,4173,1,0,0:0:0:0:
128,80,4822,1,0,0:0:0:0:
128,80,5470,1,0,0:0:0:0:
128,80,6119,1,0,0:0:0:0:
128,80,6767,1,0,0:0:0:0:
128,80,7417,1,0,0:0:0:0:
128,80,7741,1,0,0:0:0:0:
128,80,8065,1,0,0:0:0:0:
128,80,8390,1,0,0:0:0:0:
128,80,8714,1,0,0:0:0:0:
128,80,9038,1,0,0:0:0:0:
128,80,9362,1,0,0:0:0:0:
128,80,9687,1,0,0:0:0:0:
128,80,10011,1,0,0:0:0:0:
128,80,10173,1,0,0:0:0:0:
128,80,10336,1,0,0:0:0:0:
128,80,10660,1,0,0:0:0:0:
128,80,10822,1,0,0:0:0:0:
128,80,10984,1,0,0:0:0:0:
128,80,11309,1,0,0:0:0:0:
128,80,11471,1,0,0:0:0:0:
128,80,11633,1,0,0:0:0:0:
128,80,11795,1,0,0:0:0:0:
128,80,11957,1,0,0:0:0:0:
128,80,12119,1,0,0:0:0:0:
128,80,12200,1,0,0:0:0:0:
128,80,12282,1,0,0:0:0:0:
128,80,12606,1,0,0:0:0:0:
128,80,12768,1,0,0:0:0:0:
128,80,12930,1,8,0:0:0:0:
128,80,13255,1,0,0:0:0:0:
128,80,13579,1,8,0:0:0:0:
128,80,13741,1,0,0:0:0:0:
128,80,14065,1,8,0:0:0:0:
128,80,14390,1,8,0:0:0:0:
128,80,14714,1,8,0:0:0:0:
128,80,14795,1,8,0:0:0:0:
128,80,14876,1,8,0:0:0:0:
128,80,15038,1,8,0:0:0:0:
128,80,15200,1,0,0:0:0:0:
128,80,15363,1,0,0:0:0:0:
128,80,15525,1,8,0:0:0:0:
128,80,15849,1,0,0:0:0:0:
128,80,16173,1,8,0:0:0:0:
128,80,16336,1,0,0:0:0:0:
128,80,16660,1,8,0:0:0:0:
128,80,16984,1,8,0:0:0:0:
128,80,17309,1,8,0:0:0:0:
128,80,17390,1,8,0:0:0:0:
128,80,17471,1,8,0:0:0:0:
128,80,17633,1,8,0:0:0:0:
128,80,17795,1,0,0:0:0:0:
128,80,18119,1,12,0:0:0:0:
128,80,18768,1,12,0:0:0:0:
128,80,19092,1,0,0:0:0:0:
128,80,19417,1,12,0:0:0:0:
128,80,20065,1,12,0:0:0:0:
128,80,20390,1,0,0:0:0:0:
128,80,20714,1,12,0:0:0:0:
128,80,21363,1,12,0:0:0:0:
128,80,21687,1,0,0:0:0:0:
128,80,22011,1,12,0:0:0:0:
128,80,22660,1,12,0:0:0:0:
128,80,22984,1,0,0:0:0:0:
128,80,23146,1,0,0:0:0:0:
128,80,23309,1,8,0:0:0:0:
128,80,23471,1,0,0:0:0:0:
128,80,23633,1,8,0:0:0:0:
128,80,23795,1,0,0:0:0:0:
128,80,23957,1,8,0:0:0:0:
128,80,24282,1,0,0:0:0:0:
128,80,24444,1,0,0:0:0:0:
128,80,24606,1,8,0:0:0:0:
128,80,24768,1,0,0:0:0:0:
128,80,24930,1,8,0:0:0:0:
128,80,25092,1,8,0:0:0:0:
128,80,25173,1,8,0:0:0:0:
128,80,25255,1,8,0:0:0:0:
128,80,25579,1,0,0:0:0:0:
128,80,25741,1,0,0:0:0:0:
128,80,25903,1,8,0:0:0:0:
128,80,26065,1,0,0:0:0:0:
128,80,26227,1,8,0:0:0:0:
128,80,26390,1,0,0:0:0:0:
128,80,26552,1,8,0:0:0:0:
128,80,26876,1,8,0:0:0:0:
128,80,27038,1,8,0:0:0:0:
128,80,27119,1,8,0:0:0:0:
128,80,27200,1,8,0:0:0:0:
128,80,27525,1,8,0:0:0:0:
128,80,27687,1,8,0:0:0:0:
128,80,27768,1,8,0:0:0:0:
128,80,27849,1,8,0:0:0:0:
128,80,28173,1,0,0:0:0:0:
128,80,28335,1,0,0:0:0:0:
128,80,28498,1,8,0:0:0:0:
128,80,28660,1,0,0:0:0:0:
128,80,28822,1,8,0:0:0:0:
128,80,28984,1,0,0:0:0:0:
128,80,29146,1,8,0:0:0:0:
128,80,29471,1,0,0:0:0:0:
128,80,29633,1,0,0:0:0:0:
128,80,29795,1,8,0:0:0:0:
128,80,29957,1,0,0:0:0:0:
128,80,30119,1,8,0:0:0:0:
128,80,30281,1,8,0:0:0:0:
128,80,30362,1,8,0:0:0:0:
128,80,30444,1,8,0:0:0:0:
128,80,30768,1,0,0:0:0:0:
128,80,30930,1,0,0:0:0:0:
128,80,31092,1,8,0:0:0:0:
128,80,31254,1,0,0:0:0:0:
128,80,31416,1,8,0:0:0:0:
128,80,31579,1,0,0:0:0:0:
128,80,31741,1,8,0:0:0:0:
128,80,32065,1,8,0:0:0:0:
128,80,32227,1,8,0:0:0:0:
128,80,32308,1,8,0:0:0:0:
128,80,32389,1,8,0:0:0:0:
128,80,32714,1,8,0:0:0:0:
128,80,32876,1,8,0:0:0:0:
128,80,32957,1,8,0:0:0:0:
128,80,33038,1,8,0:0:0:0:
128,80,33363,1,0,0:0:0:0:
128,80,33525,1,0,0:0:0:0:
128,80,33687,1,8,0:0:0:0:
128,80,34011,1,0,0:0:0:0:
128,80,34336,1,8,0:0:0:0:
128,80,34498,1,0,0:0:0:0:
128,80,34822,1,8,0:0:0:0:
128,80,35146,1,8,0:0:0:0:
128,80,35471,1,8,0:0:0:0:
128,80,35552,1,8,0:0:0:0:
128,80,35633,1,8,0:0:0:0:
128,80,35795,1,8,0:0:0:0:
128,80,35957,1,0,0:0:0:0:
128,80,36119,1,0,0:0:0:0:
128,80,36282,1,8,0:0:0:0:
128,80,36606,1,0,0:0:0:0:
128,80,36930,1,8,0:0:0:0:
128,80,37092,1,0,0:0:0:0:
128,80,37417,1,8,0:0:0:0:
128,80,37741,1,8,0:0:0:0:
128,80,38065,1,0,0:0:0:0:
128,80,38146,1,0,0:0:0:0:
128,80,38227,1,0,0:0:0:0:
128,80,38390,1,8,0:0:0:0:
128,80,38552,1,0,0:0:0:0:
128,80,38714,1,0,0:0:0:0:
128,80,38876,1,8,0:0:0:0:
128,80,39200,1,0,0:0:0:0:
128,80,39525,1,8,0:0:0:0:
128,80,39687,1,0,0:0:0:0:
128,80,40011,1,8,0:0:0:0:
128,80,40335,1,8,0:0:0:0:
128,80,40660,1,8,0:0:0:0:
128,80,40741,1,8,0:0:0:0:
128,80,40822,1,8,0:0:0:0:
128,80,40984,1,8,0:0:0:0:
128,80,41146,1,0,0:0:0:0:
128,80,41308,1,0,0:0:0:0:
128,80,41471,1,8,0:0:0:0:
128,80,41795,1,0,0:0:0:0:
128,80,42119,1,8,0:0:0:0:
128,80,42281,1,0,0:0:0:0:
128,80,42606,1,8,0:0:0:0:
128,80,42930,1,8,0:0:0:0:
128,80,43254,1,0,0:0:0:0:
128,80,43335,1,0,0:0:0:0:
128,80,43416,1,0,0:0:0:0:
128,80,43579,1,8,0:0:0:0:
128,80,43741,1,0,0:0:0:0:
128,80,43903,1,0,0:0:0:0:
128,80,44065,1,8,0:0:0:0:
128,80,44390,1,0,0:0:0:0:
128,80,44552,1,0,0:0:0:0:
128,80,44714,1,8,0:0:0:0:
128,80,45038,1,8,0:0:0:0:
128,80,45200,1,0,0:0:0:0:
128,80,45363,1,0,0:0:0:0:
128,80,45525,1,8,0:0:0:0:
128,80,45687,1,0,0:0:0:0:
128,80,45849,1,0,0:0:0:0:
128,80,46011,1,8,0:0:0:0:
128,80,46336,1,0,0:0:0:0:
128,80,46498,1,0,0:0:0:0:
128,80,46660,1,8,0:0:0:0:
128,80,46984,1,0,0:0:0:0:
128,80,47146,1,0,0:0:0:0:
128,80,47308,1,8,0:0:0:0:
128,80,47633,1,8,0:0:0:0:
128,80,47795,1,0,0:0:0:0:
128,80,47957,1,0,0:0:0:0:
128,80,48119,1,8,0:0:0:0:
128,80,48282,1,0,0:0:0:0:
128,80,48444,1,0,0:0:0:0:
128,80,48606,1,8,0:0:0:0:
128,80,48930,1,4,0:0:0:0:
128,80,51525,1,4,0:0:0:0:
128,80,51849,1,4,0:0:0:0:
128,80,52173,1,4,0:0:0:0:
128,80,52498,1,4,0:0:0:0:
128,80,52822,1,4,0:0:0:0:
128,80,52984,1,4,0:0:0:0:
128,80,53146,1,4,0:0:0:0:
128,80,53471,1,4,0:0:0:0:
128,80,53633,1,4,0:0:0:0:
128,80,53795,1,4,0:0:0:0:
128,80,54119,1,4,0:0:0:0:
128,80,54282,1,4,0:0:0:0:
128,80,54444,1,4,0:0:0:0:
128,80,54606,1,4,0:0:0:0:
128,80,54768,1,4,0:0:0:0:
128,80,54930,1,4,0:0:0:0:
128,80,55092,1,4,0:0:0:0:
128,80,55255,1,4,0:0:0:0:
208,56,55417,2,4,P|168:160|40:96,1,280
128,80,58011,1,0,0:0:0:0:
128,80,58173,1,8,0:0:0:0:
128,80,58336,1,0,0:0:0:0:
128,80,58498,1,8,0:0:0:0:
128,80,58660,1,0,0:0:0:0:
128,80,58822,1,0,0:0:0:0:
128,80,58903,1,0,0:0:0:0:
128,80,58984,1,0,0:0:0:0:
128,80,59309,1,0,0:0:0:0:
128,80,59471,1,8,0:0:0:0:
128,80,59634,1,0,0:0:0:0:
128,80,59796,1,8,0:0:0:0:
128,80,59958,1,0,0:0:0:0:
128,80,60120,1,0,0:0:0:0:
128,80,60201,1,0,0:0:0:0:
128,80,60282,1,0,0:0:0:0:
128,80,60606,1,0,0:0:0:0:
128,80,60768,1,8,0:0:0:0:
128,80,60930,1,0,0:0:0:0:
128,80,61255,1,0,0:0:0:0:
128,80,61417,1,8,0:0:0:0:
128,80,61579,1,0,0:0:0:0:
128,80,61903,1,0,0:0:0:0:
128,80,62065,1,8,0:0:0:0:
128,80,62227,1,0,0:0:0:0:
128,80,62390,1,8,0:0:0:0:
128,80,62552,1,0,0:0:0:0:
128,80,62714,1,8,0:0:0:0:
128,80,62795,1,8,0:0:0:0:
128,80,62876,1,8,0:0:0:0:
128,80,63200,1,0,0:0:0:0:
128,80,63363,1,8,0:0:0:0:
128,80,63525,1,0,0:0:0:0:
128,80,63687,1,8,0:0:0:0:
128,80,63849,1,0,0:0:0:0:
128,80,64011,1,0,0:0:0:0:
128,80,64092,1,0,0:0:0:0:
128,80,64173,1,0,0:0:0:0:
128,80,64498,1,0,0:0:0:0:
128,80,64660,1,8,0:0:0:0:
128,80,64822,1,0,0:0:0:0:
128,80,64984,1,8,0:0:0:0:
128,80,65146,1,0,0:0:0:0:
128,80,65309,1,0,0:0:0:0:
128,80,65390,1,0,0:0:0:0:
128,80,65471,1,0,0:0:0:0:
128,80,65795,1,0,0:0:0:0:
128,80,65876,1,0,0:0:0:0:
128,80,65957,1,0,0:0:0:0:
128,80,66119,1,0,0:0:0:0:
128,80,66444,1,0,0:0:0:0:
128,80,66525,1,0,0:0:0:0:
128,80,66606,1,0,0:0:0:0:
128,80,66768,1,0,0:0:0:0:
216,32,67092,2,0,P|104:176|48:16,1,420
128,80,68389,1,0,0:0:0:0:
128,80,68551,1,8,0:0:0:0:
128,80,68714,1,0,0:0:0:0:
128,80,68876,1,8,0:0:0:0:
128,80,69038,1,0,0:0:0:0:
128,80,69200,1,0,0:0:0:0:
128,80,69281,1,0,0:0:0:0:
128,80,69362,1,0,0:0:0:0:
128,80,69687,1,0,0:0:0:0:
128,80,69849,1,8,0:0:0:0:
128,80,70012,1,0,0:0:0:0:
128,80,70174,1,8,0:0:0:0:
128,80,70336,1,0,0:0:0:0:
128,80,70498,1,0,0:0:0:0:
128,80,70579,1,0,0:0:0:0:
128,80,70660,1,0,0:0:0:0:
128,80,70984,1,0,0:0:0:0:
128,80,71146,1,8,0:0:0:0:
128,80,71308,1,0,0:0:0:0:
128,80,71633,1,0,0:0:0:0:
128,80,71795,1,8,0:0:0:0:
128,80,71957,1,0,0:0:0:0:
128,80,72281,1,0,0:0:0:0:
128,80,72443,1,8,0:0:0:0:
128,80,72605,1,0,0:0:0:0:
128,80,72768,1,8,0:0:0:0:
128,80,72930,1,0,0:0:0:0:
128,80,73092,1,8,0:0:0:0:
128,80,73173,1,8,0:0:0:0:
128,80,73254,1,8,0:0:0:0:
128,80,73579,1,0,0:0:0:0:
128,80,73741,1,8,0:0:0:0:
128,80,73904,1,0,0:0:0:0:
128,80,74066,1,8,0:0:0:0:
128,80,74228,1,0,0:0:0:0:
128,80,74390,1,0,0:0:0:0:
128,80,74471,1,0,0:0:0:0:
128,80,74552,1,0,0:0:0:0:
128,80,74877,1,0,0:0:0:0:
128,80,75039,1,8,0:0:0:0:
128,80,75202,1,0,0:0:0:0:
128,80,75364,1,8,0:0:0:0:
128,80,75526,1,0,0:0:0:0:
128,80,75688,1,0,0:0:0:0:
128,80,75769,1,0,0:0:0:0:
128,80,75850,1,0,0:0:0:0:
128,80,76174,1,0,0:0:0:0:
128,80,76255,1,0,0:0:0:0:
128,80,76336,1,0,0:0:0:0:
128,80,76498,1,0,0:0:0:0:
128,80,76823,1,0,0:0:0:0:
128,80,76904,1,0,0:0:0:0:
128,80,76985,1,0,0:0:0:0:
128,80,77146,1,0,0:0:0:0:
216,32,77471,2,0,P|104:176|48:16,1,420
128,80,78768,1,0,0:0:0:0:
128,80,78930,1,0,0:0:0:0:
128,80,79092,1,8,0:0:0:0:
128,80,79254,1,8,0:0:0:0:
128,80,79416,1,0,0:0:0:0:
128,80,79579,1,0,0:0:0:0:
128,80,79741,1,8,0:0:0:0:
128,80,79903,1,8,0:0:0:0:
128,80,80065,1,0,0:0:0:0:
128,80,80227,1,8,0:0:0:0:
128,80,80389,1,8,0:0:0:0:
128,80,80552,1,8,0:0:0:0:
128,80,80714,1,0,0:0:0:0:
128,80,81038,1,8,0:0:0:0:
128,80,81362,1,0,0:0:0:0:
128,80,81525,1,0,0:0:0:0:
128,80,81687,1,8,0:0:0:0:
128,80,81849,1,8,0:0:0:0:
128,80,82011,1,0,0:0:0:0:
128,80,82173,1,0,0:0:0:0:
128,80,82335,1,8,0:0:0:0:
128,80,82498,1,8,0:0:0:0:
128,80,82660,1,0,0:0:0:0:
128,80,82822,1,8,0:0:0:0:
128,80,82984,1,8,0:0:0:0:
128,80,83146,1,8,0:0:0:0:
128,80,83308,1,0,0:0:0:0:
128,80,83471,1,8,0:0:0:0:
128,80,83795,1,8,0:0:0:0:
128,80,83957,1,0,0:0:0:0:
128,80,84119,1,0,0:0:0:0:
128,80,84281,1,8,0:0:0:0:
128,80,84444,1,8,0:0:0:0:
128,80,84606,1,0,0:0:0:0:
128,80,84768,1,0,0:0:0:0:
128,80,84930,1,8,0:0:0:0:
128,80,85092,1,8,0:0:0:0:
128,80,85254,1,0,0:0:0:0:
128,80,85416,1,8,0:0:0:0:
128,80,85579,1,8,0:0:0:0:
128,80,85741,1,8,0:0:0:0:
128,80,85903,1,0,0:0:0:0:
128,80,86227,1,8,0:0:0:0:
128,80,86552,1,0,0:0:0:0:
128,80,86715,1,0,0:0:0:0:
128,80,86877,1,8,0:0:0:0:
128,80,87201,1,0,0:0:0:0:
128,80,87364,1,0,0:0:0:0:
128,80,87526,1,8,0:0:0:0:
216,32,87850,2,0,P|104:176|48:16,1,420
128,80,89147,1,0,0:0:0:0:
128,80,89309,1,0,0:0:0:0:
128,80,89471,1,12,0:0:0:0:
128,80,89796,1,0,0:0:0:0:
128,80,89958,1,0,0:0:0:0:
128,80,90120,1,12,0:0:0:0:
128,80,90444,1,0,0:0:0:0:
128,80,90606,1,0,0:0:0:0:
128,80,90768,1,12,0:0:0:0:
128,80,91093,1,0,0:0:0:0:
128,80,91255,1,12,0:0:0:0:
128,80,91417,1,12,0:0:0:0:
128,80,91742,1,0,0:0:0:0:
128,80,91904,1,0,0:0:0:0:
128,80,92066,1,12,0:0:0:0:
128,80,92391,1,0,0:0:0:0:
128,80,92553,1,0,0:0:0:0:
128,80,92715,1,12,0:0:0:0:
128,80,93039,1,0,0:0:0:0:
128,80,93201,1,0,0:0:0:0:
128,80,93363,1,12,0:0:0:0:
128,80,93688,1,0,0:0:0:0:
128,80,93850,1,12,0:0:0:0:
128,80,94012,1,12,0:0:0:0:
256,192,94336,12,0,96930,0:0:0:0:
128,80,99525,5,0,0:0:0:0:
128,80,99687,1,0,0:0:0:0:
128,80,99849,1,8,0:0:0:0:
128,80,100011,1,0,0:0:0:0:
128,80,100173,1,0,0:0:0:0:
128,80,100336,1,8,0:0:0:0:
128,80,100498,1,0,0:0:0:0:
128,80,100660,1,0,0:0:0:0:
128,80,100822,1,8,0:0:0:0:
128,80,100984,1,0,0:0:0:0:
128,80,101146,1,8,0:0:0:0:
128,80,101309,1,0,0:0:0:0:
128,80,101633,1,8,0:0:0:0:
128,80,101714,1,8,0:0:0:0:
128,80,101795,1,8,0:0:0:0:
128,80,102119,1,0,0:0:0:0:
128,80,102282,1,0,0:0:0:0:
128,80,102444,1,8,0:0:0:0:
128,80,102606,1,0,0:0:0:0:
128,80,102768,1,0,0:0:0:0:
128,80,102930,1,8,0:0:0:0:
128,80,103092,1,0,0:0:0:0:
128,80,103255,1,0,0:0:0:0:
128,80,103417,1,8,0:0:0:0:
128,80,103579,1,0,0:0:0:0:
128,80,103741,1,0,0:0:0:0:
128,80,103903,1,8,0:0:0:0:
128,80,104227,1,8,0:0:0:0:
128,80,104309,1,8,0:0:0:0:
128,80,104390,1,8,0:0:0:0:
128,80,104714,1,0,0:0:0:0:
128,80,104876,1,0,0:0:0:0:
128,80,105038,1,8,0:0:0:0:
128,80,105200,1,0,0:0:0:0:
128,80,105363,1,0,0:0:0:0:
128,80,105525,1,8,0:0:0:0:
128,80,105687,1,0,0:0:0:0:
128,80,105849,1,0,0:0:0:0:
128,80,106011,1,8,0:0:0:0:
128,80,106173,1,0,0:0:0:0:
128,80,106336,1,8,0:0:0:0:
128,80,106498,1,0,0:0:0:0:
128,80,106822,1,8,0:0:0:0:
128,80,106903,1,8,0:0:0:0:
128,80,106984,1,8,0:0:0:0:
128,80,107309,1,0,0:0:0:0:
128,80,107390,1,0,0:0:0:0:
128,80,107471,1,0,0:0:0:0:
128,80,107633,1,0,0:0:0:0:
128,80,107957,1,0,0:0:0:0:
128,80,108038,1,0,0:0:0:0:
128,80,108119,1,0,0:0:0:0:
128,80,108282,1,0,0:0:0:0:
256,192,108606,12,0,109579,0:0:0:0:
128,80,109903,5,4,0:0:0:0:
128,80,110390,1,4,0:0:0:0:
128,80,110876,1,4,0:0:0:0:
128,80,111363,1,4,0:0:0:0:
128,80,111849,1,12,0:0:0:0:
128,80,112173,1,12,0:0:0:0:
128,80,112498,1,4,0:0:0:0:
128,80,112984,1,4,0:0:0:0:
128,80,113471,1,4,0:0:0:0:
128,80,113795,1,4,0:0:0:0:
128,80,114119,1,0,0:0:0:0:
128,80,114282,1,0,0:0:0:0:
256,192,114444,12,0,115903,0:0:0:0:
128,80,116227,5,4,0:0:0:0:
