osu file format v13

[General]
AudioFilename: Blue Rose Ruin.mp3
AudioLeadIn: 0
PreviewTime: 12606
Countdown: 0
SampleSet: None
StackLeniency: 0.7
Mode: 1
LetterboxInBreaks: 0
WidescreenStoryboard: 0

[Editor]
DistanceSpacing: 2
BeatDivisor: 4
GridSize: 4
TimelineZoom: 1

[Metadata]
Title:Blue Rose Ruin
TitleUnicode:Blue Rose Ruin
Artist:Zeami
ArtistUnicode:世阿弥
Creator:TaMul
Version:Kantan
Source:太鼓の達人
Tags:
BeatmapID:457581
BeatmapSetID:192411

[Difficulty]
HPDrainRate:2
CircleSize:5
OverallDifficulty:2
ApproachRate:2
SliderMultiplier:1.4
SliderTickRate:1

[Events]
//Background and Video events
0,0,"308962-1366x768.jpg",0,60
//Break Periods
//Storyboard Layer 0 (Background)
//Storyboard Layer 1 (Fail)
//Storyboard Layer 2 (Pass)
//Storyboard Layer 3 (Foreground)
//Storyboard Sound Samples
//Background Colour Transformations
3,100,163,162,255

[TimingPoints]
2228,324.324324324324,4,2,0,100,1,0
58011,-100,4,2,0,100,0,1
78768,-100,4,2,0,100,0,0
99525,-100,4,2,0,100,0,1
109903,-100,4,2,0,100,0,0

[HitObjects]
96,80,2228,5,0,0:0:0:0:
96,80,2876,1,0,0:0:0:0:
96,80,3525,1,0,0:0:0:0:
96,80,4173,1,0,0:0:0:0:
96,80,4822,1,0,0:0:0:0:
96,80,5470,1,0,0:0:0:0:
96,80,6119,1,0,0:0:0:0:
96,80,6767,1,0,0:0:0:0:
96,80,7417,1,0,0:0:0:0:
96,80,7741,1,0,0:0:0:0:
96,80,8065,1,0,0:0:0:0:
96,80,8714,1,0,0:0:0:0:
96,80,9038,1,0,0:0:0:0:
96,80,9362,1,0,0:0:0:0:
96,80,10011,1,0,0:0:0:0:
96,80,10335,1,0,0:0:0:0:
96,80,10659,1,0,0:0:0:0:
96,80,10984,1,0,0:0:0:0:
172,36,11309,2,0,P|144:192|16:60,1,420
96,80,12606,1,0,0:0:0:0:
96,80,12930,1,0,0:0:0:0:
96,80,13255,1,0,0:0:0:0:
96,80,13903,1,0,0:0:0:0:
96,80,14227,1,0,0:0:0:0:
96,80,15200,1,0,0:0:0:0:
96,80,15524,1,0,0:0:0:0:
96,80,15849,1,0,0:0:0:0:
96,80,16497,1,0,0:0:0:0:
96,80,16821,1,0,0:0:0:0:
96,80,17795,1,0,0:0:0:0:
96,80,18119,1,12,0:0:0:0:
96,80,18768,1,12,0:0:0:0:
96,80,19417,1,12,0:0:0:0:
96,80,20065,1,12,0:0:0:0:
96,80,20390,1,0,0:0:0:0:
96,80,20714,1,12,0:0:0:0:
96,80,21363,1,12,0:0:0:0:
96,80,22011,1,12,0:0:0:0:
96,80,22984,1,0,0:0:0:0:
96,80,23309,1,0,0:0:0:0:
96,80,23633,1,0,0:0:0:0:
96,80,24282,1,0,0:0:0:0:
96,80,24606,1,0,0:0:0:0:
96,80,24930,1,0,0:0:0:0:
96,80,25092,1,0,0:0:0:0:
96,80,25255,1,0,0:0:0:0:
96,80,25579,1,0,0:0:0:0:
96,80,25903,1,0,0:0:0:0:
96,80,26227,1,0,0:0:0:0:
96,80,26876,1,0,0:0:0:0:
96,80,27200,1,0,0:0:0:0:
96,80,27525,1,8,0:0:0:0:
96,80,27849,1,8,0:0:0:0:
96,80,28173,1,0,0:0:0:0:
96,80,28498,1,0,0:0:0:0:
96,80,28822,1,0,0:0:0:0:
96,80,29471,1,0,0:0:0:0:
96,80,29795,1,0,0:0:0:0:
96,80,30119,1,0,0:0:0:0:
96,80,30282,1,0,0:0:0:0:
96,80,30444,1,0,0:0:0:0:
96,80,30768,1,0,0:0:0:0:
96,80,31092,1,0,0:0:0:0:
96,80,31417,1,0,0:0:0:0:
96,80,32065,1,0,0:0:0:0:
96,80,32390,1,0,0:0:0:0:
96,80,32714,1,8,0:0:0:0:
96,80,33038,1,8,0:0:0:0:
96,80,33363,1,0,0:0:0:0:
96,80,33687,1,0,0:0:0:0:
96,80,34011,1,0,0:0:0:0:
96,80,34660,1,0,0:0:0:0:
96,80,34822,1,0,0:0:0:0:
96,80,34984,1,0,0:0:0:0:
96,80,35309,1,0,0:0:0:0:
96,80,35957,1,0,0:0:0:0:
96,80,36282,1,0,0:0:0:0:
96,80,36606,1,0,0:0:0:0:
96,80,37255,1,0,0:0:0:0:
96,80,37417,1,0,0:0:0:0:
96,80,37579,1,0,0:0:0:0:
96,80,37903,1,0,0:0:0:0:
96,80,38552,1,0,0:0:0:0:
96,80,38876,1,0,0:0:0:0:
96,80,39200,1,0,0:0:0:0:
96,80,39849,1,0,0:0:0:0:
96,80,40011,1,0,0:0:0:0:
96,80,40173,1,0,0:0:0:0:
96,80,40498,1,0,0:0:0:0:
96,80,40822,1,0,0:0:0:0:
96,80,41146,1,0,0:0:0:0:
96,80,41471,1,0,0:0:0:0:
96,80,41795,1,0,0:0:0:0:
96,80,42444,1,0,0:0:0:0:
96,80,42606,1,0,0:0:0:0:
96,80,42768,1,0,0:0:0:0:
96,80,43092,1,0,0:0:0:0:
96,80,43417,1,0,0:0:0:0:
96,80,43741,1,0,0:0:0:0:
96,80,44390,1,8,0:0:0:0:
96,80,45038,1,0,0:0:0:0:
96,80,45363,1,0,0:0:0:0:
96,80,45687,1,8,0:0:0:0:
96,80,46011,1,8,0:0:0:0:
96,80,46336,1,0,0:0:0:0:
96,80,46984,1,8,0:0:0:0:
96,80,47633,1,0,0:0:0:0:
96,80,47957,1,0,0:0:0:0:
96,80,48282,1,8,0:0:0:0:
96,80,48606,1,8,0:0:0:0:
96,80,48930,1,4,0:0:0:0:
92,80,51525,1,4,0:0:0:0:
92,80,52173,1,4,0:0:0:0:
92,80,52822,1,4,0:0:0:0:
92,80,53146,1,4,0:0:0:0:
92,80,53471,1,4,0:0:0:0:
92,80,53795,1,4,0:0:0:0:
92,80,54119,1,4,0:0:0:0:
92,80,54282,1,4,0:0:0:0:
92,80,54444,1,4,0:0:0:0:
92,80,54768,1,4,0:0:0:0:
92,80,54930,1,4,0:0:0:0:
92,80,55092,1,4,0:0:0:0:
172,48,55417,2,4,P|172:104|4:80,1,280
92,80,58011,1,0,0:0:0:0:
92,80,58336,1,0,0:0:0:0:
92,80,58660,1,0,0:0:0:0:
92,80,59309,1,0,0:0:0:0:
92,80,59633,1,0,0:0:0:0:
92,80,59957,1,0,0:0:0:0:
92,80,60606,1,0,0:0:0:0:
92,80,60930,1,0,0:0:0:0:
92,80,61255,1,0,0:0:0:0:
92,80,61417,1,0,0:0:0:0:
92,80,61579,1,0,0:0:0:0:
92,80,61903,1,0,0:0:0:0:
92,80,62227,1,0,0:0:0:0:
92,80,62552,1,0,0:0:0:0:
92,80,63200,1,0,0:0:0:0:
92,80,63525,1,0,0:0:0:0:
92,80,63849,1,0,0:0:0:0:
92,80,64498,1,0,0:0:0:0:
92,80,64822,1,0,0:0:0:0:
92,80,65146,1,0,0:0:0:0:
92,80,65795,1,0,0:0:0:0:
92,80,66119,1,0,0:0:0:0:
92,80,66444,1,0,0:0:0:0:
92,80,66606,1,0,0:0:0:0:
92,80,66768,1,0,0:0:0:0:
24,132,67092,2,0,P|68:160|8:56,1,420
92,80,68390,1,0,0:0:0:0:
92,80,68715,1,0,0:0:0:0:
92,80,69039,1,0,0:0:0:0:
92,80,69688,1,0,0:0:0:0:
92,80,70012,1,0,0:0:0:0:
92,80,70336,1,0,0:0:0:0:
92,80,70985,1,0,0:0:0:0:
92,80,71309,1,0,0:0:0:0:
92,80,71634,1,0,0:0:0:0:
92,80,71796,1,0,0:0:0:0:
92,80,71958,1,0,0:0:0:0:
92,80,72282,1,0,0:0:0:0:
92,80,72606,1,0,0:0:0:0:
92,80,72931,1,0,0:0:0:0:
92,80,73579,1,0,0:0:0:0:
92,80,73904,1,0,0:0:0:0:
92,80,74228,1,0,0:0:0:0:
92,80,74877,1,0,0:0:0:0:
92,80,75201,1,0,0:0:0:0:
92,80,75525,1,0,0:0:0:0:
92,80,76174,1,0,0:0:0:0:
92,80,76498,1,0,0:0:0:0:
92,80,76823,1,0,0:0:0:0:
92,80,76985,1,0,0:0:0:0:
92,80,77147,1,0,0:0:0:0:
24,132,77471,2,0,P|68:160|8:56,1,420
92,80,78768,1,0,0:0:0:0:
92,80,79092,1,0,0:0:0:0:
92,80,79417,1,0,0:0:0:0:
92,80,79741,1,0,0:0:0:0:
92,80,80065,1,8,0:0:0:0:
92,80,80227,1,8,0:0:0:0:
92,80,80390,1,8,0:0:0:0:
92,80,80714,1,8,0:0:0:0:
92,80,81363,1,0,0:0:0:0:
92,80,81687,1,0,0:0:0:0:
92,80,82012,1,0,0:0:0:0:
92,80,82336,1,0,0:0:0:0:
92,80,82660,1,8,0:0:0:0:
92,80,82822,1,8,0:0:0:0:
92,80,82985,1,8,0:0:0:0:
92,80,83309,1,8,0:0:0:0:
92,80,83957,1,0,0:0:0:0:
92,80,84282,1,0,0:0:0:0:
92,80,84606,1,8,0:0:0:0:
92,80,84930,1,8,0:0:0:0:
92,80,85255,1,0,0:0:0:0:
92,80,85417,1,0,0:0:0:0:
92,80,85579,1,0,0:0:0:0:
92,80,85903,1,0,0:0:0:0:
92,80,86552,1,0,0:0:0:0:
92,80,86876,1,0,0:0:0:0:
92,80,87200,1,8,0:0:0:0:
92,80,87525,1,8,0:0:0:0:
19,31,87849,2,0,P|172:74|24:132,1,420
92,80,89471,1,4,0:0:0:0:
92,80,90119,1,4,0:0:0:0:
92,80,90768,1,4,0:0:0:0:
92,80,91092,1,4,0:0:0:0:
92,80,91416,1,4,0:0:0:0:
92,80,92065,1,4,0:0:0:0:
92,80,92713,1,4,0:0:0:0:
92,80,93362,1,4,0:0:0:0:
92,80,93686,1,4,0:0:0:0:
92,80,94010,1,4,0:0:0:0:
256,192,94336,12,0,96930,0:0:0:0:
92,80,99525,5,0,0:0:0:0:
92,80,99849,1,0,0:0:0:0:
92,80,100173,1,0,0:0:0:0:
92,80,100336,1,0,0:0:0:0:
92,80,100498,1,0,0:0:0:0:
92,80,101146,1,8,0:0:0:0:
92,80,101471,1,8,0:0:0:0:
92,80,101795,1,8,0:0:0:0:
92,80,102119,1,0,0:0:0:0:
92,80,102444,1,0,0:0:0:0:
92,80,102768,1,0,0:0:0:0:
92,80,102930,1,0,0:0:0:0:
92,80,103092,1,0,0:0:0:0:
92,80,103741,1,8,0:0:0:0:
92,80,104065,1,8,0:0:0:0:
92,80,104390,1,8,0:0:0:0:
92,80,104714,1,0,0:0:0:0:
92,80,105038,1,0,0:0:0:0:
92,80,105362,1,0,0:0:0:0:
92,80,105525,1,0,0:0:0:0:
92,80,105687,1,0,0:0:0:0:
92,80,106335,1,8,0:0:0:0:
92,80,106660,1,8,0:0:0:0:
92,80,106984,1,8,0:0:0:0:
92,80,107308,1,0,0:0:0:0:
92,80,107471,1,0,0:0:0:0:
92,80,107633,1,0,0:0:0:0:
92,80,107957,1,0,0:0:0:0:
92,80,108119,1,0,0:0:0:0:
92,80,108281,1,0,0:0:0:0:
256,192,108606,12,0,109579,0:0:0:0:
92,80,109903,5,4,0:0:0:0:
92,80,111849,1,4,0:0:0:0:
92,80,112173,1,4,0:0:0:0:
92,80,112498,1,4,0:0:0:0:
92,80,113795,1,4,0:0:0:0:
92,80,114119,1,4,0:0:0:0:
20,116,114444,2,4,P|68:156|36:20,2,385,4|4|4,0:0|0:0|0:0,0:0:0:0:
